osu file format v14

[General]
AudioFilename: audio.mp3
AudioLeadIn: 0
PreviewTime: 58000
Countdown: 1
SampleSet: Soft
StackLeniency: 0.2
Mode: 0
LetterboxInBreaks: 0
WidescreenStoryboard: 1

[Editor]
Bookmarks: 15750,32720,32970,33970,34470
DistanceSpacing: 0.8
BeatDivisor: 4
GridSize: 8
TimelineZoom: 2.1

[Metadata]
Title:Funky Jazzy Etude
TitleUnicode:Funky Jazzy Etude
Artist:QuAnTuM
ArtistUnicode:QuAnTuM
Creator:imm0rt47
Version:Ragtime
Source:
Tags:
BeatmapID:1777496
BeatmapSetID:646960

[Difficulty]
HPDrainRate:6
CircleSize:4
OverallDifficulty:7
ApproachRate:9.3
SliderMultiplier:1.4
SliderTickRate:1

[Events]
//Background and Video events
0,0,"background.jpg",0,0
//Break Periods
//Storyboard Layer 0 (Background)
//Storyboard Layer 1 (Fail)
//Storyboard Layer 2 (Pass)
//Storyboard Layer 3 (Foreground)
//Storyboard Sound Samples

[TimingPoints]
0,500,4,2,0,60,1,0
0,-100,4,2,0,30,0,0
750,-100,4,2,0,15,0,0
2000,-125,4,2,0,20,0,0
5250,-125,4,2,0,25,0,0
5500,-125,4,2,0,10,0,0
5625,-125,4,2,0,30,0,0
5875,-125,4,2,0,10,0,0
6000,-125,4,2,0,20,0,0
8000,-125,4,2,0,25,0,0
8500,-125,4,2,0,30,0,0
9250,-125,4,2,0,35,0,0
9500,-125,4,2,0,10,0,0
9625,-125,4,2,0,35,0,0
9875,-125,4,2,0,10,0,0
10000,-125,4,2,0,40,0,0
10250,-125,4,2,0,10,0,0
10375,-125,4,2,0,40,0,0
10750,-125,4,2,0,10,0,0
11000,-125,4,2,0,40,0,0
11375,-125,4,2,0,10,0,0
11500,-125,4,2,0,30,0,0
13000,-125,4,2,0,10,0,0
13125,-125,4,2,0,30,0,0
13375,-125,4,2,0,10,0,0
13500,-125,4,2,0,20,0,0
13625,-125,4,2,0,10,0,0
13750,-125,4,2,0,20,0,0
13875,-125,4,2,0,10,0,0
14000,-125,4,2,0,30,0,0
14750,-125,4,2,0,10,0,0
15000,-125,4,2,0,30,0,0
15375,-125,4,2,0,10,0,0
15500,-125,4,2,0,30,0,0
15625,-125,4,2,0,10,0,0
15750,-125,4,2,0,30,0,0
15875,-125,4,2,0,10,0,0
16000,-125,4,2,0,30,0,0
16500,-125,4,2,0,40,0,0
17500,-125,4,2,0,50,0,0
18750,-125,4,2,0,40,0,0
19000,-83.3333333333333,4,2,0,35,0,0
19500,-83.3333333333333,4,2,0,30,0,0
20000,-83.3333333333333,4,2,0,40,0,0
21375,-83.3333333333333,4,2,0,10,0,0
21500,-83.3333333333333,4,2,0,35,0,0
22000,-83.3333333333333,4,2,0,45,0,0
23500,-83.3333333333333,4,2,0,30,0,0
24000,-83.3333333333333,4,2,0,50,0,0
24250,-83.3333333333333,4,2,0,30,0,0
24500,-83.3333333333333,4,2,0,50,0,0
24750,-83.3333333333333,4,2,0,30,0,0
25000,-83.3333333333333,4,2,0,55,0,0
25250,-83.3333333333333,4,2,0,30,0,0
26375,-83.3333333333333,4,2,0,40,0,0
26875,-83.3333333333333,4,2,0,10,0,0
27000,-83.3333333333333,4,2,0,30,0,0
27375,-83.3333333333333,4,2,0,10,0,0
27500,-83.3333333333333,4,2,0,30,0,0
27625,-83.3333333333333,4,2,0,10,0,0
27750,-83.3333333333333,4,2,0,30,0,0
27875,-83.3333333333333,4,2,0,10,0,0
28000,-83.3333333333333,4,2,0,40,0,0
28250,-83.3333333333333,4,2,0,10,0,0
28375,-83.3333333333333,4,2,0,40,0,0
28500,-83.3333333333333,4,2,0,30,0,0
28625,-83.3333333333333,4,2,0,10,0,0
28750,-83.3333333333333,4,2,0,30,0,0
28875,-83.3333333333333,4,2,0,10,0,0
29000,-83.3333333333333,4,2,0,30,0,0
29125,-83.3333333333333,4,2,0,40,0,0
29375,-83.3333333333333,4,2,0,10,0,0
29500,-83.3333333333333,4,2,0,30,0,0
29625,-83.3333333333333,4,2,0,10,0,0
29750,-83.3333333333333,4,2,0,30,0,0
29875,-83.3333333333333,4,2,0,10,0,0
30000,-83.3333333333333,4,2,0,30,0,0
30250,-83.3333333333333,4,2,0,10,0,0
30375,-83.3333333333333,4,2,0,40,0,0
30875,-83.3333333333333,4,2,0,10,0,0
31000,-83.3333333333333,4,2,0,40,0,0
31125,-83.3333333333333,4,2,0,50,0,0
31375,-83.3333333333333,4,2,0,10,0,0
31500,-83.3333333333333,4,2,0,40,0,0
31625,-83.3333333333333,4,2,0,10,0,0
31750,-83.3333333333333,4,2,0,40,0,0
31875,-83.3333333333333,4,2,0,10,0,0
32000,-83.3333333333333,4,2,0,40,0,0
32250,-83.3333333333333,4,2,0,10,0,0
32375,-83.3333333333333,4,2,0,40,0,0
32625,-83.3333333333333,4,2,0,10,0,0
32750,-83.3333333333333,4,2,0,40,0,0
32875,-83.3333333333333,4,2,0,10,0,0
33000,-83.3333333333333,4,2,0,40,0,0
33250,-83.3333333333333,4,2,0,10,0,0
33375,-83.3333333333333,4,2,0,40,0,0
33500,-83.3333333333333,4,2,0,50,0,0
33625,-83.3333333333333,4,2,0,10,0,0
33750,-83.3333333333333,4,2,0,50,0,0
33875,-83.3333333333333,4,2,0,10,0,0
34000,-83.3333333333333,4,2,0,60,0,0
36000,-83.3333333333333,4,2,0,50,0,0
38000,-83.3333333333333,4,2,0,40,0,0
38750,-83.3333333333333,4,2,0,50,0,0
39500,-83.3333333333333,4,2,0,30,0,0
40000,-83.3333333333333,4,2,0,50,0,0
40250,-83.3333333333333,4,2,0,30,0,0
40500,-83.3333333333333,4,2,0,50,0,0
40750,-83.3333333333333,4,2,0,30,0,0
41000,-83.3333333333333,4,2,0,55,0,0
41250,-83.3333333333333,4,2,0,45,0,0
41500,-83.3333333333333,4,2,0,10,0,0
41625,-83.3333333333333,4,2,0,35,0,0
41875,-83.3333333333333,4,2,0,10,0,0
42000,-83.3333333333333,4,2,0,30,0,0
42750,-83.3333333333333,4,2,0,15,0,0
43125,-83.3333333333333,4,2,0,30,0,0
44750,-83.3333333333333,4,2,0,15,0,0
45000,-83.3333333333333,4,2,0,25,0,0
45375,-83.3333333333333,4,2,0,30,0,0
46000,-83.3333333333333,4,2,0,35,0,0
48000,-83.3333333333333,4,2,0,40,0,0
48500,-83.3333333333333,4,2,0,30,0,0
49000,-83.3333333333333,4,2,0,40,0,0
50375,-83.3333333333333,4,2,0,50,0,0
51750,-83.3333333333333,4,2,0,10,0,0
51875,-83.3333333333333,4,2,0,40,0,0
52250,-83.3333333333333,4,2,0,10,0,0
52375,-83.3333333333333,4,2,0,50,0,0
52750,-83.3333333333333,4,2,0,10,0,0
53000,-83.3333333333333,4,2,0,30,0,0
54000,-83.3333333333333,4,2,0,40,0,0
54500,-71.4285714285714,4,2,0,45,0,0
55000,-62.5,4,2,0,50,0,0
55500,-55.5555555555556,4,2,0,55,0,0
56000,-50,4,2,0,45,0,0
56500,-62.5,4,2,0,50,0,0
57500,-62.5,4,2,0,55,0,0
58000,-62.5,4,2,0,60,0,1
59375,-62.5,4,2,0,20,0,1
59500,-62.5,4,2,0,50,0,1
59625,-62.5,4,2,0,20,0,1
59750,-62.5,4,2,0,50,0,1
59875,-62.5,4,2,0,20,0,1
60000,-62.5,4,2,0,60,0,1
60125,-62.5,4,2,0,20,0,1
60250,-62.5,4,2,0,60,0,1
60375,-62.5,4,2,0,65,0,1
60500,-62.5,4,2,0,20,0,1
60625,-62.5,4,2,0,60,0,1
60750,-62.5,4,2,0,70,0,1
60875,-62.5,4,2,0,20,0,1
61000,-62.5,4,2,0,60,0,1
61375,-62.5,4,2,0,20,0,1
61500,-62.5,4,2,0,50,0,1
61625,-62.5,4,2,0,20,0,1
61750,-62.5,4,2,0,50,0,1
61875,-62.5,4,2,0,20,0,1
62000,-62.5,4,2,0,60,0,1
63125,-62.5,4,2,0,70,0,1
63375,-62.5,4,2,0,20,0,1
63500,-62.5,4,2,0,60,0,1
63625,-62.5,4,2,0,20,0,1
63750,-62.5,4,2,0,60,0,1
63875,-62.5,4,2,0,20,0,1
64000,-62.5,4,2,0,50,0,1
64125,-62.5,4,2,0,20,0,1
64250,-62.5,4,2,0,50,0,1
64375,-62.5,4,2,0,60,0,1
64500,-62.5,4,2,0,20,0,1
64625,-62.5,4,2,0,50,0,1
64750,-62.5,4,2,0,70,0,1
65000,-62.5,4,2,0,60,0,1
65125,-62.5,4,2,0,75,0,1
66000,-62.5,4,2,0,50,0,0
67000,-62.5,4,2,0,40,0,0
67500,-62.5,4,2,0,60,0,0

[Colours]
Combo1 : 74,149,0
Combo2 : 148,1,41
Combo3 : 255,198,0
Combo4 : 255,248,149

[HitObjects]
168,74,0,5,0,0:0:0:0:
166,85,125,1,0,0:0:0:0:
343,113,375,5,0,0:0:0:0:
345,124,500,1,0,0:0:0:0:
163,194,750,6,0,L|107:200,2,35
244,263,1125,2,0,L|300:269,2,35
144,298,1500,5,0,0:0:0:0:
368,298,1750,1,0,0:0:0:0:
256,192,2000,5,0,0:0:0:0:
328,150,2250,1,0,0:0:0:0:
184,150,2375,2,0,P|172:192|184:234,1,84
255,103,3000,2,0,L|255:19,2,84
256,192,4000,37,0,0:0:0:0:
184,150,4250,1,0,0:0:0:0:
217,263,4375,2,0,L|281:259,1,56
136,270,4750,1,0,0:0:0:0:
136,270,5000,1,0,0:0:0:0:
150,69,5250,2,0,B|153:101|153:101|167:135,1,56
362,315,5625,2,0,B|358:282|358:282|344:248,1,56
256,192,6000,5,0,0:0:0:0:
256,275,6250,1,0,0:0:0:0:
328,150,6375,2,0,P|298:119|255:108,1,84
325,232,7000,2,0,P|355:263|398:274,2,84
325,232,8000,6,0,L|280:240,2,28
355,340,8375,1,0,0:0:0:0:
397,190,8500,6,0,L|442:198,2,28
355,340,8875,1,0,0:0:0:0:
328,150,9000,1,0,0:0:0:0:
328,150,9250,6,0,P|319:195|300:214,1,56
250,152,9625,2,0,P|206:166|180:159,1,56
209,85,10000,2,0,P|174:54|167:28,1,56
168,17,10375,2,0,B|168:102,1,84
49,228,11000,5,0,0:0:0:0:
187,228,11125,2,0,L|108:228,1,56
224,316,11500,1,0,0:0:0:0:
152,123,11750,1,0,0:0:0:0:
80,316,12000,1,0,0:0:0:0:
432,68,12375,5,0,0:0:0:0:
294,68,12500,1,0,0:0:0:0:
432,68,12750,2,0,P|431:135|429:142,1,56
366,229,13125,2,0,P|367:162|369:155,1,56
453,202,13500,2,0,L|485:202,1,28
346,96,13750,2,0,L|306:96,1,28
243,202,14000,21,0,0:0:0:0:
431,360,14250,1,0,0:0:0:0:
431,360,14375,2,0,B|432:273,1,84
243,202,15000,5,0,0:0:0:0:
379,202,15125,2,0,L|300:202,1,56
196,275,15500,2,0,L|168:275,1,28
284,133,15750,2,0,L|335:133,1,28
348,304,16000,22,0,L|348:357,2,28
247,196,16375,1,0,0:0:0:0:
421,222,16500,2,0,L|464:222,2,28
253,179,16875,1,0,0:0:0:0:
310,229,17000,21,0,0:0:0:0:
317,141,17125,1,0,0:0:0:0:
238,106,17250,1,0,0:0:0:0:
178,171,17375,1,0,0:0:0:0:
223,247,17500,1,0,0:0:0:0:
317,141,17750,5,0,0:0:0:0:
135,88,18000,21,0,0:0:0:0:
133,101,18125,1,0,0:0:0:0:
385,180,18375,37,0,0:0:0:0:
387,193,18500,1,0,0:0:0:0:
236,257,18750,5,0,0:0:0:0:
277,192,18875,1,0,0:0:0:0:
306,288,19000,2,0,L|328:355,2,41.9999987182618
324,115,19500,2,0,P|370:136|391:192,1,83.9999974365235
305,204,20000,6,0,B|324:115|324:115|305:51,1,125.999996154785
207,180,20750,1,0,0:0:0:0:
207,180,21125,6,0,B|197:222|197:222|210:276,1,83.9999974365235
275,307,21500,1,0,0:0:0:0:
138,308,21625,1,0,0:0:0:0:
276,315,21750,1,0,0:0:0:0:
139,327,21875,1,0,0:0:0:0:
277,323,22000,2,0,P|339:337|413:324,1,125.999996154785
340,121,22750,2,0,P|354:183|341:257,1,125.999996154785
262,185,23500,6,0,L|220:185,1,41.9999987182618
345,244,23750,2,0,L|424:222,1,41.9999987182618
340,121,24000,2,0,L|262:92,1,41.9999987182618
220,185,24250,2,0,L|178:185,1,41.9999987182618
61,85,24500,2,0,L|97:106,1,41.9999987182618
166,61,24750,2,0,L|187:97,1,41.9999987182618
92,195,25000,2,0,L|92:237,1,41.9999987182618
18,273,25250,2,0,B|39:309|39:309|126:334,2,125.999996154785
96,8,26250,21,0,0:0:0:0:
96,26,26375,2,0,B|96:66|96:66|132:123|132:123|96:108|50:119,1,167.999994873047
181,41,27000,1,0,0:0:0:0:
192,31,27125,2,0,P|232:22|276:32,1,83.9999974365235
232,112,27500,2,0,P|233:132|239:153,1,41.9999987182618
179,219,27750,2,0,P|193:232|212:243,1,41.9999987182618
217,332,28000,6,0,P|261:330|312:325,1,83.9999974365235
210,184,28375,1,0,0:0:0:0:
209,201,28500,2,0,P|210:225|214:251,1,41.9999987182618
300,326,28750,2,0,P|302:305|303:284,1,41.9999987182618
368,172,29000,37,0,0:0:0:0:
369,155,29125,2,0,P|363:114|339:76,1,83.9999974365235
279,145,29500,2,0,P|258:146|238:152,1,41.9999987182618
179,219,29750,2,0,P|158:217|138:211,1,41.9999987182618
100,130,30000,6,0,L|83:217,1,83.9999974365235
195,301,30375,2,0,B|178:223|178:223|195:136,1,167.999994873047
317,2,31000,5,0,0:0:0:0:
313,21,31125,2,0,L|296:108,1,83.9999974365235
211,218,31500,2,0,L|196:142,1,41.9999987182618
296,332,31750,2,0,L|311:256,1,41.9999987182618
193,334,32000,6,0,P|152:341|110:335,1,83.9999974365235
207,235,32375,1,0,0:0:0:0:
211,218,32500,2,0,L|226:142,1,41.9999987182618
296,103,32750,2,0,L|281:27,1,41.9999987182618
329,220,33000,5,0,0:0:0:0:
345,228,33125,2,0,P|386:234|425:230,1,41.9999987182618
262,252,33375,1,0,0:0:0:0:
219,176,33500,2,0,L|204:100,1,41.9999987182618
134,61,33750,2,0,L|149:-15,1,41.9999987182618
101,178,34000,5,0,0:0:0:0:
248,22,34250,1,0,0:0:0:0:
309,227,34500,1,0,0:0:0:0:
309,227,34750,2,0,L|240:227,1,41.9999987182618
101,178,35000,2,0,L|170:178,1,41.9999987182618
309,129,35250,1,0,0:0:0:0:
101,276,35500,37,0,0:0:0:0:
101,276,35625,1,0,0:0:0:0:
267,325,35750,1,0,0:0:0:0:
101,178,36000,2,0,B|101:78|101:78|129:108,1,125.999996154785
53,321,36750,2,0,B|53:250|53:250|18:225|16:174,1,125.999996154785
255,157,37500,38,0,L|255:199,1,41.9999987182618
309,270,37750,2,0,L|329:233,1,41.9999987182618
411,206,38000,2,0,B|411:306|411:306|383:276,1,125.999996154785
342,147,38750,2,0,B|342:104|342:104|374:66|374:66|374:3,1,125.999996154785
255,157,39500,38,0,L|213:157,1,41.9999987182618
142,211,39750,2,0,L|105:190,1,41.9999987182618
35,97,40000,22,0,L|75:107,1,41.9999987182618
254,50,40250,1,0,0:0:0:0:
183,104,40375,1,0,0:0:0:0:
255,157,40500,6,0,L|295:146,1,41.9999987182618
397,277,40750,1,0,0:0:0:0:
311,296,40875,1,0,0:0:0:0:
413,192,41000,22,0,L|371:192,1,41.9999987182618
295,146,41250,2,0,P|283:198|229:238,1,83.9999974365235
209,149,41625,2,0,P|163:177|97:167,1,83.9999974365235
146,90,42000,38,0,B|189:47|250:72|250:72|288:22|342:48|344:101|323:126|290:117,1,251.999992309571
316,113,43125,6,0,L|302:187,1,41.9999987182618
291,239,43500,1,0,0:0:0:0:
308,154,43875,1,0,0:0:0:0:
360,295,44000,2,0,B|425:307|455:250|455:250|427:251|407:230|407:230|416:184|393:148,1,251.999992309571
325,202,45000,38,0,L|245:214,2,41.9999987182618
393,149,45375,1,0,0:0:0:0:
360,295,45500,1,0,0:0:0:0:
305,336,45625,1,0,0:0:0:0:
241,310,45750,1,0,0:0:0:0:
231,241,45875,1,0,0:0:0:0:
285,197,46000,6,0,L|369:193,1,83.9999974365235
207,159,46500,2,0,L|277:113,1,83.9999974365235
120,165,47000,2,0,L|158:90,1,83.9999974365235
47,213,47500,2,0,L|42:129,1,83.9999974365235
257,90,48000,37,0,0:0:0:0:
157,90,48125,1,0,0:0:0:0:
207,159,48250,1,0,0:0:0:0:
207,159,48500,2,0,L|207:229,2,41.9999987182618
149,86,49000,21,0,0:0:0:0:
113,160,49125,1,0,0:0:0:0:
300,145,49250,5,0,0:0:0:0:
253,77,49375,1,0,0:0:0:0:
173,247,49500,21,0,0:0:0:0:
255,240,49625,1,0,0:0:0:0:
160,91,49750,37,0,0:0:0:0:
124,165,49875,1,0,0:0:0:0:
207,159,50000,1,0,0:0:0:0:
207,159,50375,22,0,P|239:238|218:284,1,125.999996154785
153,227,51000,2,0,L|86:238,1,41.9999987182618
77,320,51250,1,0,0:0:0:0:
77,320,51500,2,0,L|165:326,1,83.9999974365235
238,353,51875,1,0,0:0:0:0:
226,272,52000,2,0,P|286:286|317:336,1,83.9999974365235
319,345,52375,6,0,L|309:198,1,125.999996154785
310,219,53000,2,0,L|320:164,1,41.9999987182618
412,284,53250,2,0,L|402:229,1,41.9999987182618
319,345,53500,2,0,L|329:290,1,41.9999987182618
442,375,53750,2,0,L|401:368,1,41.9999987182618
326,303,54000,6,0,L|210:315,1,83.9999974365235
167,376,54375,1,0,0:0:0:0:
310,219,54500,2,0,L|194:231,1,97.9999970092774
137,294,54875,1,0,0:0:0:0:
294,135,55000,2,0,L|154:149,1,112
107,211,55375,1,0,0:0:0:0:
278,51,55500,2,0,L|138:65,1,125.999996154785
77,128,55875,1,0,0:0:0:0:
293,26,56000,6,0,L|375:26,1,70
445,26,56375,1,0,0:0:0:0:
366,107,56500,38,0,L|443:107,2,56
495,137,56875,1,0,0:0:0:0:
495,156,57000,5,0,0:0:0:0:
495,173,57125,2,0,L|374:183,1,112
331,269,57500,2,0,L|278:212,1,56
201,267,57750,2,0,L|192:198,1,56
100,223,58000,6,0,L|109:147,1,56
177,56,58250,1,0,0:0:0:0:
179,70,58375,2,0,L|186:133,1,56
256,236,58625,1,0,0:0:0:0:
258,223,58750,2,0,L|265:158,1,56
327,98,59000,1,0,0:0:0:0:
342,117,59125,6,0,L|453:117,1,112
314,229,59500,2,0,L|240:218,1,56
225,136,59750,2,0,L|168:183,1,56
106,126,60000,22,0,L|89:184,1,56
26,304,60250,1,0,0:0:0:0:
103,265,60375,2,0,L|176:256,1,56
27,321,60625,1,0,0:0:0:0:
183,304,60750,2,0,L|256:311,1,56
368,291,61000,1,0,0:0:0:0:
301,235,61125,38,0,L|189:235,1,112
76,186,61500,2,0,L|7:191,1,56
159,143,61750,2,0,L|227:148,1,56
301,235,62000,22,0,L|246:240,1,56
339,136,62250,1,0,0:0:0:0:
363,131,62375,2,0,L|442:114,1,56
475,236,62625,1,0,0:0:0:0:
451,230,62750,2,0,L|371:213,1,56
318,103,63000,1,0,0:0:0:0:
383,43,63125,6,0,L|251:43,1,112
138,107,63500,2,0,L|128:180,1,56
200,221,63750,2,0,L|209:294,1,56
138,335,64000,22,0,L|216:362,1,56
361,236,64250,1,0,0:0:0:0:
341,241,64375,2,0,L|262:268,1,56
94,120,64625,1,0,0:0:0:0:
113,126,64750,2,0,L|191:153,1,56
399,41,65000,1,0,0:0:0:0:
381,47,65125,38,0,L|308:47,3,56
342,280,65750,1,0,0:0:0:0:
134,106,66000,21,0,0:0:0:0:
131,121,66125,1,0,0:0:0:0:
384,162,66375,5,0,0:0:0:0:
387,177,66500,1,0,0:0:0:0:
127,277,66750,21,0,0:0:0:0:
124,292,66875,1,0,0:0:0:0:
189,373,67000,21,0,0:0:0:0:
193,354,67125,1,0,0:0:0:0:
197,335,67250,22,0,L|198:272,1,56
144,86,67500,5,0,0:0:0:0:
368,86,67750,1,0,0:0:0:0:
255,227,68000,1,0,0:0:0:0:
