osu file format v14

[General]
AudioFilename: audio.mp3
AudioLeadIn: 0
PreviewTime: 60010
Countdown: 0
SampleSet: Normal
StackLeniency: 0.2
Mode: 0
LetterboxInBreaks: 0
WidescreenStoryboard: 1

[Editor]
Bookmarks: 89046
DistanceSpacing: 2.8
BeatDivisor: 4
GridSize: 4
TimelineZoom: 3.599998

[Metadata]
Title:Yuuki no Pendant
TitleUnicode:勇気のペンダント
Artist:Qrispy Joybox feat. Chata
ArtistUnicode:Qrispy Joybox feat.茶太
Creator:Hikan
Version:Aven no Hikari
Source:REFLEC BEAT 悠久のリフレシア
Tags:CyberX Aven [-Chocola-] yukyuu no reflesia the eternity
BeatmapID:2110268
BeatmapSetID:623614

[Difficulty]
HPDrainRate:4
CircleSize:3.8
OverallDifficulty:8.5
ApproachRate:9.3
SliderMultiplier:3.59999990463257
SliderTickRate:1

[Events]
//Background and Video events
0,0,"pendant.jpg",0,0
//Break Periods
//Storyboard Layer 0 (Background)
//Storyboard Layer 1 (Fail)
//Storyboard Layer 2 (Pass)
//Storyboard Layer 3 (Foreground)
Sprite,Foreground,Centre,"sb\Blue.png",307,326 M,0,59734,59826,370,256,425,250 S,0,59734,59918,0.4 M,0,59826,59918,425,250,370,256
Sprite,Foreground,Centre,"sb\Brown.png",413,364 M,0,60010,60101,68,170,125,196 S,0,60010,60193,0.4 M,0,60101,60193,125,196,68,170
Sprite,Foreground,Centre,"sb\BrightPink.png",501,271 M,0,60285,60377,287,381,308,442 S,0,60285,60468,0.4 M,0,60377,60468,308,442,287,381
Sprite,Foreground,Centre,"sb\Blue.png",437,136 M,0,60560,60652,278,82,256,144 S,0,60560,60744,0.4 M,0,60652,60744,256,144,278,82
Sprite,Foreground,Centre,"sb\BrightPink.png",413,364 M,0,85330,85468,536,436,468,382 S,0,85330,86293,0.4 M,0,85605,85743,483,133,455,227 M,0,85880,86018,224,331,344,295 M,0,86156,86293,369,166,281,92
Sprite,Foreground,Centre,"sb\Blue.png",501,271 M,0,86431,86568,132,126,35,88 S,0,86431,87257,0.4 M,0,86568,86706,35,88,59,192 M,0,86706,86844,59,192,145,270 M,0,86844,86981,145,270,186,337 M,0,86981,87119,186,337,138,423 M,0,87119,87257,138,423,101,333
//Storyboard Sound Samples

[TimingPoints]
1111,550.45871559633,3,1,0,20,1,0
27533,-83.3333333333333,3,1,0,20,0,0
27808,-100,3,1,0,20,0,0
60010,-90.9090909090909,3,1,0,20,0,0
60285,-83.3333333333333,3,1,0,20,0,0
60560,-76.9230769230769,3,1,0,20,0,0
60835,550.45871559633,3,1,0,20,1,1
60835,-71.4285714285714,3,1,0,20,0,1
73220,-71.4285714285714,3,1,0,20,0,0
73495,-83.3333333333333,3,1,0,20,0,0
73770,-76.9230769230769,3,1,0,20,0,0
74046,-71.4285714285714,3,1,0,20,0,1
85330,-100,3,1,0,20,0,1
85605,-90.9090909090909,3,1,0,20,0,1
85880,-83.3333333333333,3,1,0,20,0,1
86156,-76.9230769230769,3,1,0,20,0,1
86431,-71.4285714285714,3,1,0,20,0,1
87257,-100,3,1,0,20,0,0

[Colours]
Combo1 : 241,153,143
Combo2 : 255,191,255
Combo3 : 162,167,238

[HitObjects]
190,170,1111,6,0,P|261:233|252:115,1,269.999992847443
125,347,1936,2,0,P|259:342|410:336,1,269.999992847443
72,123,3037,5,0,0:0:0:0:
64,163,3174,5,0,0:0:0:0:
105,150,3312,5,0,0:0:0:0:
77,145,3450,6,0,P|159:143|261:131,1,179.999995231628
340,143,3794,5,0,0:0:0:0:
346,170,3863,6,0,P|343:120|343:59,1,89.9999976158142
432,85,4138,2,0,P|421:40|369:13,1,89.9999976158142
265,237,4413,6,0,P|295:266|362:251,1,89.9999976158142
470,262,4688,2,0,P|359:269|192:282,1,269.999992847443
27,381,5239,6,0,B|-11:373|-11:373|239:353,1,269.999992847443
332,357,6065,2,0,P|261:250|120:255,1,269.999992847443
457,359,6890,5,0,0:0:0:0:
493,314,7027,5,0,0:0:0:0:
421,367,7165,5,0,0:0:0:0:
479,346,7303,5,0,0:0:0:0:
256,23,9367,6,0,B|238:101|238:101|297:294,1,269.999992847443
227,370,10193,2,0,P|196:301|17:241,1,269.999992847443
389,274,11019,6,0,P|418:205|514:175,1,179.999995231628
304,365,11569,5,0,0:0:0:0:
25,74,13496,6,0,B|13:87|13:87|286:70,1,269.999992847443
406,63,14322,2,0,P|287:159|146:137,1,269.999992847443
24,175,15147,2,0,P|77:201|176:273,1,179.999995231629
258,358,15698,5,0,0:0:0:0:
268,291,15835,5,0,0:0:0:0:
233,212,15973,5,0,0:0:0:0:
304,318,16110,5,0,0:0:0:0:
349,242,16248,5,0,0:0:0:0:
432,205,16386,5,0,0:0:0:0:
301,209,16523,5,0,0:0:0:0:
252,128,16661,5,0,0:0:0:0:
163,72,16799,5,0,0:0:0:0:
353,176,16936,5,0,0:0:0:0:
419,108,17074,5,0,0:0:0:0:
512,66,17211,5,0,0:0:0:0:
258,75,17349,5,0,0:0:0:0:
181,20,17487,5,0,0:0:0:0:
94,0,17624,5,0,0:0:0:0:
0,0,17762,5,0,0:0:0:0:
251,185,18450,5,0,0:0:0:0:
256,201,18484,5,0,0:0:0:0:
98,334,18932,5,0,0:0:0:0:
89,345,19000,6,0,P|129:315|176:323,1,89.9999976158142
240,368,19276,6,0,P|256:317|240:274,1,89.9999976158142
327,157,19551,2,0,P|274:168|245:204,1,89.9999976158142
100,187,19826,6,0,P|136:226|181:233,1,89.9999976158142
329,329,20101,2,0,P|345:278|329:235,1,89.9999976158142
338,59,20377,6,0,P|286:71|256:106,1,89.9999976158142
464,228,20652,2,0,P|480:177|463:134,1,89.9999976158142
255,253,20927,6,0,B|329:235|329:342|419:304,1,179.999995231628
480,355,21340,5,0,0:0:0:0:
414,305,21477,5,0,0:0:0:0:
318,273,21615,5,0,0:0:0:0:
175,281,21753,6,0,P|202:319|252:328,1,89.9999976158142
91,238,22028,6,0,P|81:261|84:282,2,44.9999988079071
168,181,22303,6,0,P|213:172|245:119,1,89.9999976158142
39,68,22578,6,0,B|85:103|136:11|225:34,1,179.999995231628
303,45,22991,5,0,0:0:0:0:
353,80,23129,5,0,0:0:0:0:
396,155,23266,5,0,0:0:0:0:
396,249,23404,6,0,P|430:203|460:201,1,89.9999976158142
412,343,23679,6,0,P|435:336|455:325,2,44.9999988079071
308,368,23955,6,0,P|320:323|298:259,1,89.9999976158142
155,374,24230,6,0,P|161:289|164:176,1,179.999995231629
260,212,24643,5,0,0:0:0:0:
226,156,24780,5,0,0:0:0:0:
154,103,24918,5,0,0:0:0:0:
74,69,25055,6,0,P|67:108|91:163,1,89.9999976158142
234,76,25331,2,0,P|281:76|352:66,1,89.9999976158142
440,65,25606,6,0,P|418:45|396:30,2,44.9999988079071
333,186,25881,6,0,P|375:189|410:147,1,89.9999976158143
475,227,26156,5,0,0:0:0:0:
450,310,26294,5,0,0:0:0:0:
373,352,26432,6,0,P|387:319|442:324,1,89.9999976158143
164,349,26707,6,0,P|219:377|315:360,1,134.999996423721
234,290,26982,6,0,P|185:213|115:192,1,134.999996423721
3,284,27257,6,0,B|59:286|94:265|156:279,1,134.999996423721
328,132,27533,6,0,B|317:179|337:215|317:302,1,161.999990764618
426,280,27808,6,0,P|418:231|413:172,1,89.9999976158143
476,52,28083,2,0,P|424:67|412:109,1,89.9999976158143
425,378,28358,6,0,P|352:375|265:370,1,134.999996423721
290,371,28633,2,0,P|248:345|234:292,1,89.9999976158143
172,259,28909,6,0,P|190:237|217:231,2,44.9999988079071
333,247,29184,2,0,P|295:214|286:243,1,89.9999976158143
99,189,29459,5,0,0:0:0:0:
139,137,29597,5,0,0:0:0:0:
213,95,29734,6,0,P|194:130|129:140,1,89.9999976158143
315,70,30010,2,0,P|280:32|227:7,1,89.9999976158143
68,42,30285,6,0,P|117:38|173:38,1,89.9999976158143
291,162,30560,2,0,P|379:157|414:178,1,89.9999976158143
440,285,30835,6,0,P|472:339|480:381,1,89.9999976158143
476,191,31110,5,0,0:0:0:0:
387,211,31248,5,0,0:0:0:0:
301,259,31386,5,0,0:0:0:0:
237,338,31523,5,0,0:0:0:0:
151,368,31661,6,0,P|148:303|165:274,1,89.9999976158143
90,238,31936,2,0,P|56:195|19:179,1,89.9999976158143
168,163,32211,6,0,P|176:182|173:211,2,44.9999988079071
261,159,32487,6,0,P|288:123|321:53,1,89.9999976158143
159,0,32762,6,0,P|163:39|160:98,2,89.9999976158143
78,235,33175,5,0,0:0:0:0:
167,261,33312,6,0,P|228:257|274:201,1,134.999996423721
36,105,33588,2,0,P|35:156|47:183,2,44.9999988079071
266,58,33863,2,0,P|210:1|144:5,1,134.999996423721
350,64,34138,6,0,P|334:121|299:132,1,89.9999976158143
464,147,34413,5,0,0:0:0:0:
397,203,34551,5,0,0:0:0:0:
301,226,34688,5,0,0:0:0:0:
203,225,34826,5,0,0:0:0:0:
134,173,34964,6,0,P|143:216|175:253,1,89.9999976158143
56,305,35239,6,0,P|108:296|181:291,1,89.9999976158143
298,372,35514,2,0,P|248:314|228:297,1,89.9999976158143
247,49,35789,6,0,P|228:98|196:164,1,89.9999976158143
376,131,36065,2,0,P|361:74|335:55,2,89.9999976158143
298,161,36477,1,0,0:0:0:0:
254,259,36615,2,0,P|261:311|271:381,1,89.9999976158143
344,376,36890,6,0,P|365:303|343:277,1,89.9999976158143
181,196,37166,2,0,P|160:269|182:295,1,89.9999976158143
171,367,37441,6,0,P|106:365|53:356,1,89.9999976158143
38,280,37716,5,0,0:0:0:0:
49,193,37854,5,0,0:0:0:0:
94,108,37991,6,0,P|109:154|100:200,1,89.9999976158143
16,22,38266,2,0,P|55:67|104:40,1,89.9999976158143
209,63,38542,6,0,B|179:35|179:35|205:137,1,134.999996423721
319,215,38817,2,0,P|250:204|151:201,1,134.999996423721
353,134,39092,6,0,P|300:94|262:111,1,89.9999976158143
467,165,39367,5,0,0:0:0:0:
404,225,39505,5,0,0:0:0:0:
410,316,39643,6,0,P|434:287|462:285,2,44.9999988079071
342,364,39918,6,0,L|193:356,1,134.999996423721
122,378,40193,6,0,P|91:315|26:269,1,134.999996423721
178,148,40468,6,0,B|160:195|177:242|169:288,1,134.999996423721
273,240,40744,6,0,B|260:226|260:226|384:211,1,134.999996423721
316,122,41019,5,0,0:0:0:0:
269,61,41156,5,0,0:0:0:0:
195,37,41294,6,0,P|257:21|308:31,1,89.9999976158143
430,81,41569,2,0,P|388:43|342:35,1,89.9999976158143
96,37,41844,6,0,B|73:28|73:28|93:117,1,89.9999976158143
207,195,42120,2,0,P|204:148|144:140,1,89.9999976158143
47,200,42395,6,0,P|50:247|110:255,1,89.9999976158143
28,360,42670,5,0,0:0:0:0:
71,331,42808,5,0,0:0:0:0:
150,318,42945,5,0,0:0:0:0:
232,344,43083,5,0,0:0:0:0:
329,329,43221,6,0,P|331:279|304:227,1,89.9999976158143
429,382,43496,6,0,P|426:300|429:208,1,134.999996423721
423,160,43771,2,0,P|402:114|341:78,1,89.9999976158143
284,105,44046,6,0,L|126:96,1,134.999996423721
475,26,44322,2,0,P|424:28|373:41,1,89.9999976158143
2,10,44597,6,0,P|59:16|132:68,1,134.999996423721
213,188,44872,2,0,L|333:199,1,89.9999976158143
473,216,45147,6,0,P|421:232|368:263,1,89.9999976158143
327,313,45422,2,0,L|183:327,1,134.999996423721
27,324,45698,6,0,P|76:344|128:385,1,89.9999976158143
92,247,45973,6,0,P|78:179|56:129,2,89.9999976158143
165,195,46386,1,0,0:0:0:0:
254,203,46523,2,0,P|298:132|360:113,1,134.999996423721
418,61,46799,6,0,P|430:95|433:122,2,44.9999988079071
483,1,47074,6,0,P|507:27|521:50,2,44.9999988079071
496,231,47349,6,0,P|454:193|409:190,1,89.9999976158143
385,270,47624,2,0,P|400:317|407:364,1,89.9999976158143
294,276,47899,6,0,P|286:227|267:188,1,89.9999976158143
224,347,48175,2,0,P|165:354|127:353,1,89.9999976158143
53,359,48450,5,0,0:0:0:0:
69,298,48588,5,0,0:0:0:0:
50,325,48725,5,0,0:0:0:0:
291,252,48862,5,0,0:0:0:0:
178,263,49000,6,0,P|162:194|125:151,1,89.9999976158143
182,30,49276,2,0,P|201:77|208:120,1,89.9999976158143
34,203,49551,6,0,P|73:160|87:122,1,89.9999976158143
295,115,49826,2,0,P|329:90|370:66,1,89.9999976158143
459,52,50101,5,0,0:0:0:0:
427,0,50239,5,0,0:0:0:0:
453,20,50377,5,0,0:0:0:0:
322,0,50514,5,0,0:0:0:0:
452,232,50652,6,0,P|475:173|474:143,1,89.9999976158143
406,305,50927,2,0,P|367:264|389:210,1,89.9999976158143
259,231,51202,6,0,L|169:241,1,89.9999976158143
263,118,51477,2,0,P|304:158|338:145,1,89.9999976158143
194,155,51753,5,0,0:0:0:0:
157,109,51890,5,0,0:0:0:0:
164,141,52028,5,0,0:0:0:0:
184,7,52166,5,0,0:0:0:0:
32,19,52303,6,0,B|25:57|53:69|48:122,1,89.9999976158143
12,185,52578,2,0,B|33:216|62:205|96:246,1,89.9999976158143
202,299,52854,6,0,B|165:295|153:323|115:316,1,89.9999976158143
280,335,53129,2,0,B|311:313|300:284|341:250,1,89.9999976158143
405,347,53404,5,0,0:0:0:0:
454,313,53542,5,0,0:0:0:0:
437,341,53679,5,0,0:0:0:0:
464,149,53816,5,0,0:0:0:0:
258,234,53955,6,0,B|233:170|266:175|231:72,1,134.999996423721
339,87,54230,1,0,0:0:0:0:
156,102,54367,6,0,P|187:28|227:15,1,89.9999976158143
339,87,54643,1,0,0:0:0:0:
11,171,54780,6,0,B|55:166|85:195|165:185,1,134.999996423721
285,302,55055,6,0,P|279:247|188:225,1,134.999996423721
37,328,55331,5,0,0:0:0:0:
79,277,55468,5,0,0:0:0:0:
53,298,55606,6,0,L|190:303,1,134.999996423721
235,374,55881,1,0,0:0:0:0:
368,342,56019,6,0,P|404:299|448:291,1,89.9999976158143
235,374,56294,1,0,0:0:0:0:
239,188,56432,6,0,P|263:246|273:283,1,89.9999976158143
159,153,56707,6,0,P|172:63|213:-7,1,134.999996423721
310,137,56982,2,0,P|270:97|229:101,1,89.9999976158143
416,29,57257,6,0,B|384:18|384:18|407:158,1,134.999996423721
484,193,57533,2,0,P|439:227|403:221,1,89.9999976158143
317,212,57808,2,0,P|335:270|374:298,1,89.9999976158143
455,364,58083,2,0,P|437:306|409:325,1,89.9999976158143
297,359,58358,5,0,0:0:0:0:
174,258,58496,5,0,0:0:0:0:
328,366,58633,5,0,0:0:0:0:
121,248,58771,5,0,0:0:0:0:
364,369,58909,5,0,0:0:0:0:
339,198,59734,6,0,B|354:207|367:197|367:197|383:183|395:189,2,59.9999984105428
38,111,60010,6,0,B|44:122|64:120|64:120|81:119|93:139,2,66.0000002657573
255,321,60285,6,0,B|249:351|264:360|264:360|281:371|280:384,2,71.9999958953859
245,20,60560,6,0,B|236:29|244:53|244:53|247:76|225:89,2,77.9999943631493
55,335,60835,6,0,B|85:330|97:298|97:298|112:264|191:280,1,125.999992816925
217,207,61110,5,0,0:0:0:0:
329,252,61247,2,0,B|269:254|186:150|71:211,1,251.999985633851
55,93,61660,6,0,B|19:66|19:66|37:153,1,125.999992816925
138,111,61935,1,0,0:0:0:0:
208,41,62073,5,0,0:0:0:0:
172,78,62211,6,0,B|237:64|249:82|307:72,1,125.999992816925
485,177,62486,6,0,P|471:116|410:81,1,125.999992816925
361,14,62761,5,0,0:0:0:0:
356,129,62898,5,0,0:0:0:0:
249,278,63036,6,0,P|268:222|332:204,1,125.999992816925
171,333,63311,6,0,P|221:312|224:371,1,125.999992816925
87,284,63586,2,0,P|94:227|92:151,1,125.999992816925
360,248,63862,6,0,P|364:332|370:377,1,125.999992816925
474,263,64137,5,0,0:0:0:0:
415,188,64275,5,0,0:0:0:0:
329,146,64412,5,0,0:0:0:0:
480,189,64550,5,0,0:0:0:0:
372,242,64687,5,0,0:0:0:0:
259,252,64825,5,0,0:0:0:0:
394,117,64963,5,0,0:0:0:0:
316,53,65100,5,0,0:0:0:0:
224,30,65238,5,0,0:0:0:0:
319,288,65375,5,0,0:0:0:0:
242,342,65513,5,0,0:0:0:0:
145,356,65651,5,0,0:0:0:0:
260,84,65788,5,0,0:0:0:0:
187,120,65926,5,0,0:0:0:0:
102,139,66064,5,0,0:0:0:0:
185,310,66201,5,0,0:0:0:0:
124,250,66339,5,0,0:0:0:0:
44,220,66476,5,0,0:0:0:0:
1,178,66614,6,0,P|60:165|152:167,1,125.999992816925
258,187,66889,6,0,P|285:174|317:168,2,62.9999964084627
347,181,67096,2,0,P|374:194|410:197,2,62.9999964084627
295,381,67440,5,0,0:0:0:0:
277,295,67578,5,0,0:0:0:0:
195,253,67715,5,0,0:0:0:0:
101,255,67853,5,0,0:0:0:0:
21,231,67990,6,0,P|69:204|85:278,1,125.999992816925
154,160,68266,6,0,P|240:159|369:151,1,188.999989225388
430,325,68541,6,0,P|424:254|365:214,1,125.999992816925
435,61,68816,2,0,B|397:19|397:19|438:168,1,188.999989225388
333,62,69091,5,0,0:0:0:0:
246,52,69229,5,0,0:0:0:0:
163,79,69367,5,0,0:0:0:0:
111,143,69504,5,0,0:0:0:0:
39,129,69642,6,0,P|83:171|76:233,1,125.999992816925
217,220,69917,2,0,P|120:227|23:242,1,188.999989225388
303,202,70192,6,0,P|290:171|265:155,2,62.9999964084627
250,349,70468,2,0,P|275:289|260:229,1,125.999992816925
460,303,70743,6,0,B|472:294|472:294|361:302,1,125.999992816925
159,367,71018,2,0,P|109:333|26:331,1,125.999992816925
389,206,71293,6,0,P|431:156|488:129,1,125.999992816925
246,31,71568,2,0,P|258:86|267:192,1,125.999992816925
124,92,71844,6,0,B|173:101|173:101|16:119,1,188.999989225388
170,182,72119,2,0,P|204:232|271:258,1,125.999992816925
310,367,72394,6,0,B|328:331|328:331|367:300|348:245,1,125.999992816925
380,57,72669,2,0,B|340:60|340:60|294:41|255:85,1,125.999992816925
77,151,72945,6,0,B|99:184|99:184|106:234|164:245,1,125.999992816925
486,382,73220,5,0,0:0:0:0:
445,243,73495,6,0,B|460:252|473:242|473:242|489:228|523:234,2,71.9999958953859
315,305,73770,6,0,B|299:313|301:329|301:329|305:350|284:379,2,77.9999943631493
325,162,74046,6,0,B|325:144|310:138|310:138|256:118|265:62,1,125.999992816925
243,198,74321,2,0,P|180:204|117:208,1,125.999992816925
31,347,74596,6,0,P|13:279|38:227,1,125.999992816925
60,53,74871,2,0,B|36:50|36:50|60:169,1,125.999992816925
155,71,75146,6,0,P|205:57|264:14,1,125.999992816925
250,139,75422,2,0,P|253:196|265:267,1,125.999992816925
434,378,75697,6,0,P|369:307|299:303,1,125.999992816925
263,351,75972,5,0,0:0:0:0:
159,343,76110,5,0,0:0:0:0:
59,301,76247,6,0,P|108:301|193:273,1,125.999992816925
425,245,76523,2,0,P|404:185|351:210,1,125.999992816925
196,143,76798,6,0,P|217:203|270:178,1,125.999992816925
271,79,77073,6,0,P|251:35|236:15,2,62.9999964084627
351,27,77348,6,0,B|205:47|205:47|139:28,1,188.999989225388
91,123,77623,6,0,P|62:65|-6:60,1,125.999992816925
217,123,77899,6,0,B|193:150|193:150|221:262,1,125.999992816925
202,384,78174,2,0,B|168:370|168:370|148:283,1,125.999992816925
0,239,78449,6,0,P|83:205|116:226,1,125.999992816925
270,317,78724,2,0,P|315:370|368:370,1,125.999992816925
493,227,79000,6,0,P|424:237|282:249,1,188.999989225388
307,153,79275,5,0,0:0:0:0:
373,91,79412,5,0,0:0:0:0:
458,79,79550,6,0,P|416:15|358:17,1,125.999992816925
188,93,79825,2,0,B|144:75|144:75|308:68,1,188.999989225388
32,27,80101,6,0,P|71:10|124:6,3,83.9999952112835
32,175,80651,5,0,0:0:0:0:
110,215,80789,5,0,0:0:0:0:
200,205,80926,5,0,0:0:0:0:
280,163,81064,5,0,0:0:0:0:
355,189,81201,6,0,P|292:207|281:158,1,125.999992816925
494,332,81477,6,0,P|373:318|210:308,2,251.999985633851
43,349,82302,5,0,0:0:0:0:
118,296,82440,5,0,0:0:0:0:
213,278,82578,5,0,0:0:0:0:
296,228,82715,5,0,0:0:0:0:
360,172,82853,6,0,P|300:173|313:242,1,125.999992816925
196,122,83128,6,0,P|206:236|226:400,2,251.999985633851
79,66,83954,6,0,B|61:45|61:45|82:160,1,125.999992816925
44,222,84229,1,0,0:0:0:0:
198,123,84367,6,0,B|293:130|314:14|432:84,1,251.999985633851
443,272,84779,6,0,P|481:211|475:136,1,125.999992816925
282,384,85055,2,0,P|352:367|400:310,1,125.999992816925
504,380,85330,6,0,B|480:347|453:351|435:318,1,89.9999976158143
452,72,85605,2,0,B|435:109|458:130|435:169,1,99.0000003986359
212,271,85880,2,0,B|252:266|271:233|318:237,1,107.999993843079
338,106,86156,2,0,B|324:61|277:67|251:33,1,116.999991544724,0|0,2:0|2:0,2:0:0:0:
101,69,86431,6,0,B|95:19|39:-14|4:15|-25:40|-32:70|-24:111|8:135|59:134|59:134|66:202|162:226|162:226|133:245|133:245|197:289|163:411|84:396|27:352|26:287|91:265,1,755.999956901552
