osu file format v14

[General]
AudioFilename: audio.mp3
AudioLeadIn: 2000
PreviewTime: 54034
Countdown: 0
SampleSet: Soft
StackLeniency: 0.7
Mode: 0
LetterboxInBreaks: 0
WidescreenStoryboard: 1

[Editor]
Bookmarks: 12981,35284,66665,79297
DistanceSpacing: 0.9
BeatDivisor: 2
GridSize: 8
TimelineZoom: 0.7999996

[Metadata]
Title:Colorful Minutes
TitleUnicode:カラフルミニッツ
Artist:Qrispy Joybox feat.mao
ArtistUnicode:Qrispy Joybox feat.mao
Creator:Cellina
Version:Collab Normal
Source:REFLEC BEAT
Tags:KONAMI jubeat plus duca satellite enon startrick colette bemani beomsan mao
BeatmapID:1051888
BeatmapSetID:473436

[Difficulty]
HPDrainRate:4
CircleSize:3
OverallDifficulty:3
ApproachRate:4.7
SliderMultiplier:1.33
SliderTickRate:1

[Events]
//Background and Video events
0,0,"gg.jpg",0,0
//Break Periods
//Storyboard Layer 0 (Background)
//Storyboard Layer 1 (Fail)
//Storyboard Layer 2 (Pass)
//Storyboard Layer 3 (Foreground)
//Storyboard Sound Samples

[TimingPoints]
350,394.736842105263,4,2,1,50,1,0
12981,-100,4,2,1,70,0,0
28771,-100,4,2,1,50,0,0
54034,-100,4,2,1,70,0,1
79297,-100,4,2,1,60,0,0
91139,-100,4,2,1,45,0,0
91928,-100,4,2,1,30,0,0
92521,-100,4,2,1,20,0,0

[Colours]
Combo1 : 191,88,241
Combo2 : 196,15,79
Combo3 : 45,137,251
Combo4 : 232,79,174
Combo5 : 206,75,43
Combo6 : 51,162,142

[HitObjects]
132,348,350,6,0,P|184:363|262:313,1,133,2|0,0:0|0:0,0:0:0:0:
291,284,942,2,0,P|347:251|410:265,1,133,2|0,0:0|0:0,0:0:0:0:
458,301,1534,2,0,L|446:145,1,133,2|0,0:0|0:0,0:0:0:0:
441,108,2126,1,2,0:0:0:0:
380,36,3507,6,0,P|328:21|250:71,1,133,2|0,0:0|0:0,0:0:0:0:
221,100,4099,2,0,P|164:132|101:118,1,133,2|0,0:0|0:0,0:0:0:0:
54,83,4692,2,0,L|66:239,1,133,2|0,0:0|0:0,0:0:0:0:
44,272,5284,2,0,B|190:249|174:339|311:319,1,266,0|4,0:0|3:0,0:0:0:0:
402,260,6468,1,0,3:0:0:0:
357,219,6665,6,0,P|344:162|380:78,1,133,4|2,3:0|0:0,0:0:0:0:
481,130,7455,2,0,P|503:191|491:256,1,133,0|2,3:0|0:0,0:0:0:0:
455,304,8047,2,0,L|300:296,1,133,0|0,0:0|3:0,0:0:0:0:
273,331,8639,1,2,0:0:0:0:
156,359,9034,2,0,P|180:297|169:233,1,133,0|2,3:0|0:0,0:0:0:0:
130,187,9626,1,0,0:0:0:0:
84,148,9823,6,0,P|59:86|70:22,1,133,4|2,3:0|0:0,0:0:0:0:
190,19,10613,2,0,P|214:80|203:144,1,133,0|2,3:0|0:0,0:0:0:0:
174,197,11205,1,0,0:0:0:0:
144,249,11402,2,0,P|124:313|156:375,1,133,0|0,0:0|0:0,0:0:0:0:
268,345,12192,2,0,L|357:342,1,66.5,0|0,0:0|0:0,0:0:0:0:
351,285,12586,2,0,L|440:282,1,66.5,8|0,1:0|0:0,0:0:0:0:
434,225,12981,6,0,P|445:162|399:83,1,133,4|0,0:0|1:0,0:0:0:0:
324,176,13771,2,0,L|336:245,2,66.5,0|2|8,1:0|1:2|0:0,0:0:0:0:
340,118,14363,2,0,P|266:171|164:140,1,199.5,2|8,1:2|0:0,0:0:0:0:
119,108,15152,1,2,1:2:0:0:
90,224,15547,2,0,L|104:373,1,133,2|2,1:2|0:0,0:0:0:0:
44,370,16139,6,0,P|11:324|26:247,1,133,4|12,1:2|0:0,0:0:0:0:
124,190,16928,2,0,P|137:126|102:71,1,133,0|8,1:0|0:0,0:0:0:0:
45,54,17521,2,0,L|23:253,1,199.5,2|8,1:2|0:0,0:0:0:0:
8,310,18310,2,0,P|94:266|197:318,1,199.5,2|8,0:0|1:0,0:0:0:0:
287,369,19297,6,0,P|275:303|285:232,1,133,4|0,0:0|1:0,0:0:0:0:
212,142,20086,2,0,L|201:207,2,66.5,0|2|8,1:0|1:2|0:0,0:0:0:0:
204,82,20678,2,0,P|259:128|392:120,1,199.5,2|8,1:2|0:0,0:0:0:0:
435,100,21468,1,2,1:2:0:0:
507,195,21863,2,0,P|464:242|469:328,1,133,2|2,1:2|0:0,0:0:0:0:
490,361,22455,6,0,P|429:348|339:381,1,133,0|8,1:0|0:0,0:0:0:0:
303,352,23047,2,0,P|239:369|174:356,1,133,2|2,1:2|1:2,0:0:0:0:
119,380,23639,2,0,L|127:286,1,66.5,8|6,0:0|0:0,0:0:0:0:
16,170,24428,2,0,P|0:202|0:233,2,66.5,0|0|0,1:0|3:0|1:0,0:0:0:0:
57,125,25021,2,0,L|49:31,1,66.5,0|0,3:0|1:0,0:0:0:0:
97,21,25415,1,8,0:3:0:0:
156,16,25613,6,0,P|179:68|148:161,1,133,6|8,1:2|0:0,0:0:0:0:
141,195,26205,2,0,P|118:247|149:340,1,133,2|0,1:2|1:0,0:0:0:0:
186,345,26797,2,0,L|280:337,1,66.5,10|6,0:0|1:2,0:0:0:0:
366,363,28771,6,0,P|381:298|363:235,1,133,4|2,1:2|1:3,0:0:0:0:
261,299,29560,2,0,L|271:158,1,133,0|2,1:0|1:3,0:0:0:0:
237,116,30152,2,0,P|301:131|425:64,1,199.5,0|2,0:0|1:3,0:0:0:0:
453,27,30942,2,0,L|443:159,1,133,0|0,0:0|1:0,0:0:0:0:
470,213,31534,2,0,L|464:280,1,66.5,2|0,1:3|0:0,0:0:0:0:
350,316,32126,1,0,0:0:0:0:
307,275,32323,6,0,P|286:214|304:148,1,133,2|0,1:3|1:0,0:0:0:0:
343,105,32915,2,0,L|351:34,1,66.5,0|2,1:0|1:3,0:0:0:0:
300,6,33310,2,0,P|229:96|89:79,1,266,0|0,0:0|0:0,0:0:0:0:
15,173,34494,2,0,L|22:239,2,66.5,0|2|0,1:0|1:3|1:0,0:0:0:0:
115,239,35284,6,0,P|185:251|252:206,1,133,0|0,0:0|0:0,0:0:0:0:
281,181,35876,2,0,P|343:163|404:186,1,133,0|2,1:0|1:3,0:0:0:0:
454,220,36468,2,0,B|454:298|454:298|424:348,1,133,0|0,1:0|0:0,0:0:0:0:
365,349,37060,2,0,L|340:280,1,66.5,2|0,1:3|0:0,0:0:0:0:
281,181,37652,2,0,L|256:112,2,66.5,0|2|0,1:0|1:3|1:0,0:0:0:0:
201,269,38442,6,0,P|146:306|81:304,1,133,0|0,1:0|1:0,0:0:0:0:
24,285,39034,2,0,P|2:223|21:160,1,133,0|2,1:0|1:3,0:0:0:0:
72,128,39626,2,0,L|229:129,1,133,0|0,1:0|0:0,0:0:0:0:
263,143,40218,2,0,P|268:107|291:73,1,66.5,2|0,1:3|1:0,0:0:0:0:
341,68,40613,2,0,P|369:46|410:38,1,66.5,2|0,1:2|1:0,0:0:0:0:
449,69,41007,2,0,P|473:91|493:121,1,66.5,2|0,1:2|1:0,0:0:0:0:
472,176,41402,6,0,B|444:266|496:270|472:378,1,199.5,4|0,1:2|0:0,0:0:0:0:
413,376,42192,2,0,L|254:360,1,133,0|10,0:0|0:0,0:0:0:0:
220,365,42784,2,0,P|244:240|302:207,1,199.5,0|0,0:0|0:0,0:0:0:0:
413,68,43968,2,0,P|380:75|348:69,2,66.5,2|0|2,0:0|0:0|0:0,0:0:0:0:
443,120,44560,6,0,B|433:258,1,133,4|0,1:2|0:0,0:0:0:0:
469,301,45152,2,0,P|405:283|342:301,1,133,4|0,1:2|0:0,0:0:0:0:
291,333,45744,2,0,P|253:350|104:316,1,199.5,4|0,1:2|0:0,0:0:0:0:
53,348,46534,2,0,L|59:188,1,133,2|8,0:0|1:0,0:0:0:0:
80,159,47126,2,0,P|42:163|5:160,2,66.5,0|8|0,1:0|1:0|1:0,0:0:0:0:
137,141,47718,6,0,P|177:130|272:153,1,133,4|2,1:2|0:0,0:0:0:0:
308,189,48310,1,0,1:0:0:0:
370,291,48705,2,0,L|370:358,2,66.5,0|2|0,0:0|1:2|0:0,0:0:0:0:
408,244,49297,2,0,P|421:204|392:111,1,133,0|10,1:0|0:0,0:0:0:0:
366,67,49889,1,0,1:0:0:0:
256,115,50284,2,0,L|188:114,2,66.5,0|10|0,1:0|0:0|1:0,0:0:0:0:
302,152,50876,6,0,P|277:213|285:278,1,133,4|2,1:2|1:2,0:0:0:0:
312,332,51468,2,0,P|254:308|185:316,1,133,0|0,0:0|1:0,0:0:0:0:
133,346,52060,2,0,B|128:272,1,66.5,2|4,1:2|1:2,0:0:0:0:
193,179,52652,1,0,0:0:0:0:
193,179,52849,2,0,P|192:99|205:38,1,133,8|8,0:0|0:0,0:0:0:0:
397,187,54034,6,0,P|342:233|270:229,1,133,4|0,0:0|1:0,0:0:0:0:
184,166,54823,2,0,L|170:88,2,66.5,0|2|8,1:0|1:2|0:0,0:0:0:0:
190,225,55415,2,0,P|131:231|67:349,1,199.5,2|8,1:2|0:0,0:0:0:0:
115,376,56205,1,2,1:2:0:0:
234,378,56599,2,0,L|378:359,1,133,2|2,1:2|0:0,0:0:0:0:
425,353,57192,6,0,P|458:307|443:230,1,133,4|12,1:2|0:0,0:0:0:0:
345,172,57981,2,0,P|332:108|367:53,1,133,0|8,1:0|0:0,0:0:0:0:
424,36,58574,2,0,L|446:235,1,199.5,2|0,1:2|0:0,0:0:0:0:
462,292,59363,2,0,P|397:283|288:364,1,199.5,2|8,0:0|1:0,0:0:0:0:
181,312,60349,6,0,L|179:179,1,133,4|0,0:0|1:0,0:0:0:0:
117,76,61139,2,0,L|52:65,2,66.5,0|2|8,1:0|1:2|0:0,0:0:0:0:
175,60,61731,2,0,P|240:96|368:61,1,199.5,2|8,1:2|0:0,0:0:0:0:
406,36,62521,1,2,1:2:0:0:
478,130,62915,2,0,L|451:280,1,133,2|2,1:2|0:0,0:0:0:0:
466,319,63507,6,0,P|401:304|339:326,1,133,0|8,1:0|0:0,0:0:0:0:
290,358,64099,2,0,P|227:379|164:364,1,133,2|2,1:2|1:2,0:0:0:0:
106,345,64692,2,0,L|110:270,1,66.5,8|6,0:0|0:0,0:0:0:0:
152,104,65481,2,0,P|143:69|148:29,2,66.5,0|0|0,1:0|3:0|1:0,0:0:0:0:
180,157,66073,2,0,L|185:233,1,66.5,0|0,3:0|1:0,0:0:0:0:
202,281,66468,1,8,0:3:0:0:
247,320,66665,6,0,B|346:287|328:372|438:329,1,199.5,4|0,1:2|0:0,0:0:0:0:
479,286,67455,2,0,L|485:205,1,66.5,0|0,1:0|1:0,0:0:0:0:
422,116,68047,2,0,P|356:106|337:221,1,199.5,0|0,1:0|0:0,0:0:0:0:
370,256,68836,2,0,L|226:245,1,133,2|0,1:2|1:0,0:0:0:0:
180,265,69428,2,0,L|108:259,1,66.5,10|0,0:0|0:0,0:0:0:0:
35,170,70021,6,0,P|94:142|161:150,1,133,0|0,0:0|0:0,0:0:0:0:
215,171,70613,2,0,L|207:81,1,66.5,0|0,1:0|1:0,0:0:0:0:
298,25,71205,2,0,L|315:223,1,199.5,0|0,1:0|0:0,0:0:0:0:
320,283,71994,2,0,P|400:305|487:233,1,199.5,2|10,0:0|0:0,0:0:0:0:
464,181,72784,1,0,1:0:0:0:
432,130,72981,6,0,L|292:112,1,133,4|0,1:2|1:0,0:0:0:0:
282,55,73573,2,0,L|256:252,1,199.5,2|8,0:0|0:0,0:0:0:0:
270,311,74363,2,0,P|198:246|104:265,1,199.5,2|8,1:2|0:0,0:0:0:0:
52,294,75152,2,0,L|26:96,1,199.5,2|10,1:2|0:0,0:0:0:0:
127,32,76139,6,0,P|183:65|253:63,1,133,4|10,1:2|0:0,0:0:0:0:
308,51,76731,2,0,P|258:136|261:240,1,199.5,0|10,1:0|0:0,0:0:0:0:
281,290,77521,2,0,L|83:264,1,199.5,0|10,1:0|0:0,0:0:0:0:
164,176,78507,2,0,L|317:195,1,133,2|2,0:0|0:0,0:0:0:0:
329,242,79099,1,0,0:0:0:0:
360,292,79297,6,0,P|359:228|403:180,1,133,6|8,1:2|0:0,0:0:0:0:
450,141,79889,2,0,P|494:93|492:28,1,133,2|0,1:2|1:0,0:0:0:0:
432,20,80481,2,0,L|350:11,1,66.5,10|2,0:0|1:2,0:0:0:0:
273,89,81073,2,0,L|355:98,2,66.5,0|10|0,1:0|0:0|1:0,0:0:0:0:
223,55,81665,2,0,P|243:111|181:179,1,133,2|10,0:0|0:0,0:0:0:0:
149,150,82257,1,0,0:0:0:0:
94,125,82455,6,0,L|106:258,1,133,6|8,1:2|0:0,0:0:0:0:
63,299,83047,2,0,P|126:280|196:306,1,133,2|0,1:2|1:0,0:0:0:0:
242,327,83639,2,0,P|273:336|304:327,1,66.5,10|2,0:0|1:2,0:0:0:0:
446,215,84428,2,0,L|453:126,1,66.5,10|0,0:0|0:0,0:0:0:0:
480,96,84823,2,0,P|417:115|347:89,1,133,2|10,1:2|0:0,0:0:0:0:
301,68,85415,1,0,0:0:0:0:
248,40,85613,6,0,L|263:193,1,133,6|8,1:2|0:0,0:0:0:0:
245,228,86205,2,0,P|307:208|370:226,1,133,2|0,1:2|1:0,0:0:0:0:
424,251,86797,2,0,L|417:184,1,66.5,10|2,0:0|1:2,0:0:0:0:
363,77,87389,2,0,L|357:11,2,66.5,0|10|0,1:0|0:0|1:0,0:0:0:0:
332,128,87981,2,0,P|280:158|208:142,1,133,0|10,0:0|0:0,0:0:0:0:
160,112,88573,1,0,0:0:0:0:
113,149,88771,6,0,L|120:287,1,133,4|10,1:2|0:0,0:0:0:0:
12,229,89560,2,0,L|5:91,1,133,0|10,1:0|0:0,0:0:0:0:
42,49,90152,1,4,1:2:0:0:
256,192,90349,12,0,92521,0:0:0:0:
