osu file format v14

[General]
AudioFilename: audio.mp3
AudioLeadIn: 0
PreviewTime: 60004
Countdown: 0
SampleSet: Soft
StackLeniency: 0.7
Mode: 0
LetterboxInBreaks: 0
WidescreenStoryboard: 1

[Editor]
Bookmarks: 47343,60828
DistanceSpacing: 1
BeatDivisor: 4
GridSize: 32
TimelineZoom: 2.2

[Metadata]
Title:Yuuki no Pendant
TitleUnicode:勇気のペンダント
Artist:Qrispy Joybox feat.Chata
ArtistUnicode:Qrispy Joybox feat.茶太
Creator:MrSergio
Version:Easy
Source:REFLEC BEAT 悠久のリフレシア
Tags:Avena Priti tatsuya iyama the eternity of reflesia yuukyu no
BeatmapID:1404771
BeatmapSetID:638390

[Difficulty]
HPDrainRate:2
CircleSize:3
OverallDifficulty:2
ApproachRate:3.6
SliderMultiplier:0.7
SliderTickRate:1

[Events]
//Background and Video events
0,0,"bg.jpg",0,0
//Break Periods
2,2130,3865
2,6258,7993
2,17956,18994
//Storyboard Layer 0 (Background)
//Storyboard Layer 1 (Fail)
//Storyboard Layer 2 (Pass)
//Storyboard Layer 3 (Foreground)
//Storyboard Sound Samples

[TimingPoints]
1105,275.229357798165,6,2,0,40,1,0
1105,-142.857142857143,6,2,0,40,0,0
20921,-142.857142857143,6,2,0,50,0,0
60828,275.229357798165,6,2,0,75,1,1
60828,-125,6,2,0,75,0,1
85598,-125,6,2,0,75,0,1
87250,275.229357798165,4,2,0,40,1,0
87250,-142.857142857143,4,2,0,40,0,0

[Colours]
Combo1 : 255,128,128
Combo2 : 151,243,67
Combo3 : 213,140,60

[HitObjects]
320,267,1105,6,0,P|364:276|392:268,2,73.4999977569581,2|0|2,0:0|0:0|0:0,0:0:0:0:
192,267,5233,6,0,P|153:278|122:272,2,73.4999977569581,2|0|2,0:0|0:0|0:0,0:0:0:0:
420,171,9361,5,2,0:0:0:0:
273,187,10187,1,2,0:0:0:0:
127,207,11013,2,0,L|72:215,2,48.9999985046387,0|0|2,0:0|0:0|0:0,0:0:0:0:
69,93,13490,5,2,0:0:0:0:
215,85,14316,1,2,0:0:0:0:
361,74,15141,2,0,L|414:69,1,48.9999985046387,0|0,0:0|0:0,0:0:0:0:
256,192,15554,12,2,17756,0:0:0:0:
374,166,20921,6,0,B|301:149|306:193|224:167,1,146.999995513916,4|0,1:2|1:0,0:0:0:0:
104,92,22572,1,0,1:0:0:0:
92,238,23398,1,0,1:0:0:0:
229,168,24224,6,0,B|302:151|297:195|379:169,1,146.999995513916,0|2,1:0|1:2,0:0:0:0:
442,40,25875,2,0,P|399:29|338:46,1,97.9999970092774,0|2,1:0|0:0,0:0:0:0:
310,72,26701,1,2,1:2:0:0:
170,26,27527,6,0,P|154:62|179:168,1,146.999995513916,4|0,1:2|1:0,0:0:0:0:
319,192,29178,2,0,P|335:228|310:334,1,146.999995513916,0|0,1:0|1:0,0:0:0:0:
167,341,30829,6,0,B|130:324|82:338|82:338|69:306|36:293,2,146.999995513916,0|0|0,1:0|1:0|1:0,0:0:0:0:
313,329,33306,1,2,1:2:0:0:
356,188,34132,6,0,P|331:180|257:195,1,97.9999970092774,4|2,1:2|0:0,0:0:0:0:
226,226,34958,1,2,1:2:0:0:
87,175,35783,1,0,1:0:0:0:
206,89,36609,2,0,P|234:86|262:89,2,48.9999985046387,0|2|2,1:0|1:2|1:2,0:0:0:0:
172,123,37435,5,0,1:0:0:0:
42,53,38260,1,0,1:0:0:0:
43,200,39086,1,0,1:0:0:0:
176,137,39912,2,0,L|224:133,2,48.9999985046387,2|2|2,1:2|3:2|3:2,3:3:0:0:
139,169,40738,6,0,P|134:204|191:296,1,146.999995513916,4|0,1:2|1:0,0:0:0:0:
336,294,42389,2,0,P|383:239|386:167,1,146.999995513916,0|0,1:0|1:0,0:0:0:0:
271,75,44040,6,0,L|165:78,1,97.9999970092774,4|0,1:2|0:0,0:0:0:0:
137,111,44866,2,0,P|126:154|150:207,1,97.9999970092774,4|0,1:2|0:0,0:0:0:0:
187,228,45692,2,0,L|284:225,1,97.9999970092774,4|2,1:2|0:0,0:0:0:0:
330,243,46517,1,0,1:0:0:0:
378,104,47343,6,0,B|329:96|329:96|281:110|281:110|232:101,1,146.999995513916,0|0,1:0|1:0,0:0:0:0:
93,59,48994,1,0,1:0:0:0:
39,196,49820,2,0,P|34:245|59:288,1,97.9999970092774,0|0,1:0|1:0,0:0:0:0:
100,309,50646,6,0,B|148:302|148:302|195:319|195:319|252:308,1,146.999995513916,0|0,1:0|1:0,0:0:0:0:
317,183,52297,2,0,B|269:190|269:190|222:173|222:173|165:184,1,146.999995513916,2|2,1:2|3:2,0:0:0:0:
34,137,53949,6,0,P|63:90|151:52,1,146.999995513916,4|0,1:2|1:0,0:0:0:0:
192,52,55049,1,0,1:0:0:0:
262,119,55600,2,0,P|253:168|285:262,1,146.999995513916,4|0,0:0|1:0,3:3:0:0:
326,283,56701,1,0,1:0:0:0:
263,358,57251,5,4,1:2:0:0:
256,192,57389,12,4,58903,1:2:0:0:
399,73,60828,6,0,L|395:190,1,112,0|0,1:0|0:0,0:0:0:0:
359,228,61653,2,0,P|318:242|249:222,1,112,2|0,1:2|1:0,0:0:0:0:
204,196,62479,2,0,P|148:203|59:283,1,168,2|2,1:2|1:2,0:0:0:0:
201,353,64130,6,0,L|262:353,2,56,2|2|2,1:2|1:2|1:2,0:0:0:0:
150,329,64956,2,0,P|141:293|177:225,1,112,2|2,1:2|1:2,0:0:0:0:
214,190,65782,2,0,L|210:133,2,56,2|2|2,1:2|1:2|1:2,0:0:0:0:
266,209,66607,1,0,1:0:0:0:
424,264,67433,6,0,P|440:221|415:154,1,112,0|0,1:0|1:0,0:0:0:0:
382,119,68259,2,0,L|384:59,1,56,4|4,1:2|1:2,0:0:0:0:
277,99,69084,2,0,P|223:113|169:88,1,112,0|0,1:0|0:0,0:0:0:0:
123,65,69910,2,0,L|63:66,1,56,2|2,1:2|1:3,0:0:0:0:
20,167,70736,6,0,P|17:200|68:268,1,112,0|0,1:0|1:0,0:0:0:0:
114,259,71561,2,0,P|180:257|222:286,1,112,0|0,1:2|1:0,0:0:0:0:
261,315,72387,2,0,B|270:264|270:264|277:264|277:264|288:217|288:217|296:216|296:216|305:157,1,168,2|2,0:0|0:0,0:0:0:0:
374,11,74039,6,0,P|329:26|265:17,1,112,0|0,1:0|1:0,0:0:0:0:
211,29,74864,2,0,P|156:19|103:35,1,112,2|0,1:2|1:0,0:0:0:0:
69,80,75690,2,0,B|45:162|97:159|72:252,1,168,0|0,1:0|1:0,0:0:0:0:
208,346,77341,6,0,P|221:320|212:235,1,112,0|0,1:3|1:0,0:0:0:0:
189,189,78167,2,0,P|176:163|185:78,1,112,2|2,1:2|1:2,0:0:0:0:
222,43,78993,1,2,1:2:0:0:
376,108,79818,1,2,1:2:0:0:
287,250,80644,6,0,P|261:235|183:246,1,112,0|0,1:0|1:0,0:0:0:0:
143,285,81470,2,0,L|142:348,1,56,4|4,1:2|1:2,0:0:0:0:
44,286,82295,2,0,L|48:168,1,112,0|0,1:0|1:0,0:0:0:0:
77,126,83121,2,0,P|108:118|133:124,1,56,0|2,1:2|1:3,0:0:0:0:
229,177,83947,6,0,P|270:184|332:146,1,112,0|0,1:0|1:0,0:0:0:0:
359,103,84772,2,0,L|357:41,2,56,2|0|0,1:2|1:0|1:0,0:0:0:0:
407,130,85598,2,0,P|428:161|405:286,1,168,2|2,1:2|1:2,0:0:0:0:
270,230,87250,5,6,0:0:0:0:
85,295,88350,1,2,0:0:0:0:
24,108,89451,1,2,0:0:0:0:
209,43,90552,5,6,0:0:0:0:
148,230,91653,1,2,0:0:0:0:
333,295,92754,1,2,0:0:0:0:
394,108,93855,5,6,0:0:0:0:
210,40,94956,1,2,0:0:0:0:
41,139,96057,1,0,0:0:0:0:
225,207,97158,5,2,0:0:0:0:
221,11,98259,1,2,0:0:0:0:
225,207,99360,2,0,P|217:274|170:342,1,146.999995513916,2|2,0:0|0:0,0:0:0:0:
