osu file format v14

[General]
AudioFilename: audio.mp3
AudioLeadIn: 0
PreviewTime: 60004
Countdown: 0
SampleSet: Soft
StackLeniency: 0.7
Mode: 0
LetterboxInBreaks: 0
WidescreenStoryboard: 1

[Editor]
Bookmarks: 47343,60828,100185
DistanceSpacing: 1.05
BeatDivisor: 4
GridSize: 32
TimelineZoom: 2.2

[Metadata]
Title:Yuuki no Pendant
TitleUnicode:勇気のペンダント
Artist:Qrispy Joybox feat.Chata
ArtistUnicode:Qrispy Joybox feat.茶太
Creator:MrSergio
Version:Normal
Source:REFLEC BEAT 悠久のリフレシア
Tags:Avena Priti tatsuya iyama the eternity of reflesia yuukyu no
BeatmapID:1402950
BeatmapSetID:638390

[Difficulty]
HPDrainRate:3
CircleSize:4
OverallDifficulty:4
ApproachRate:5.5
SliderMultiplier:1
SliderTickRate:1

[Events]
//Background and Video events
0,0,"bg.jpg",0,0
//Break Periods
2,2130,4108
2,6258,8236
2,18444,19796
//Storyboard Layer 0 (Background)
//Storyboard Layer 1 (Fail)
//Storyboard Layer 2 (Pass)
//Storyboard Layer 3 (Foreground)
//Storyboard Sound Samples

[TimingPoints]
1105,275.229357798165,6,2,0,40,1,0
1105,-142.857142857143,6,2,0,40,0,0
20921,-142.857142857143,6,2,0,50,0,0
60828,275.229357798165,6,2,0,75,1,1
60828,-125,6,2,0,75,0,1
85598,-125,6,2,0,75,0,1
87250,275.229357798165,4,2,0,40,1,0
87250,-142.857142857143,4,2,0,40,0,0

[Colours]
Combo1 : 255,128,128
Combo2 : 151,243,67
Combo3 : 213,140,60

[HitObjects]
351,258,1105,6,0,P|380:203|380:149,2,104.999996795654,2|0|2,0:0|0:0|0:0,0:0:0:0:
161,258,5233,6,0,P|132:203|132:149,2,104.999996795654,2|0|2,0:0|0:0|0:0,0:0:0:0:
392,97,9361,6,0,P|367:109|286:101,1,104.999996795654,2|0,0:0|0:0,0:0:0:0:
219,180,10187,2,0,P|265:203|320:206,1,104.999996795654,2|0,0:0|0:0,0:0:0:0:
391,282,11013,2,0,P|371:297|329:312,2,69.9999978637696,0|0|2,0:0|0:0|0:0,0:0:0:0:
62,52,13490,6,0,P|83:69|164:79,1,104.999996795654,2|0,0:0|0:0,0:0:0:0:
211,171,14316,2,0,P|161:183|106:173,1,104.999996795654,2|0,0:0|0:0,0:0:0:0:
21,232,15142,2,0,P|37:251|74:275,1,69.9999978637696,0|0,0:0|0:0,0:0:0:0:
256,192,15692,12,2,17756,0:0:0:0:
383,65,20921,6,0,L|377:215,1,139.999995727539,4|2,1:2|0:0,0:0:0:0:
344,273,21747,1,0,1:0:0:0:
344,273,22022,1,0,3:0:0:0:
273,151,22572,6,0,P|230:182|145:177,1,139.999995727539,0|2,1:0|0:0,0:0:0:0:
108,113,23398,2,0,L|108:34,2,69.9999978637696,0|2|2,1:0|3:2|0:0,0:0:0:0:
70,180,24224,6,0,P|67:216|121:306,1,139.999995727539,0|2,1:0|0:0,0:0:0:0:
189,335,25049,1,2,1:2:0:0:
189,335,25325,2,0,L|262:333,1,69.9999978637696,2|2,0:2|0:0,0:0:0:0:
320,292,25875,5,0,1:0:0:0:
247,89,26701,2,0,L|164:89,1,69.9999978637696,2|2,1:2|3:2,3:3:0:0:
104,95,27251,1,2,0:2:0:0:
104,95,27527,6,0,P|112:129|84:229,1,139.999995727539,4|2,1:2|0:0,0:0:0:0:
43,288,28352,1,0,1:0:0:0:
43,288,28627,1,0,3:0:0:0:
180,234,29178,6,0,P|210:221|318:238,1,139.999995727539,0|2,1:0|0:0,0:0:0:0:
361,291,30004,2,0,L|358:368,2,69.9999978637696,0|0|0,1:0|3:0|0:0,0:0:0:0:
409,236,30829,5,0,1:0:0:0:
409,236,31104,2,0,L|413:156,1,69.9999978637696,0|2,0:0|0:0,0:0:0:0:
411,92,31655,2,0,P|386:82|272:108,1,139.999995727539,0|0,1:0|0:0,0:0:0:0:
233,160,32481,5,0,1:0:0:0:
28,76,33306,2,0,L|30:153,1,69.9999978637696,2|2,1:2|3:2,3:3:0:0:
70,215,33857,1,2,3:2:0:0:
70,215,34132,6,0,P|107:204|205:237,1,139.999995727539,4|2,1:2|0:0,0:0:0:0:
266,272,34958,2,0,L|343:270,2,69.9999978637696,0|0|0,1:0|0:0|0:0,0:0:0:0:
203,321,35783,6,0,P|166:332|68:299,1,139.999995727539,0|2,1:0|0:0,0:0:0:0:
29,242,36609,1,0,1:0:0:0:
64,177,36884,1,2,1:2:0:0:
64,177,37160,1,2,1:2:0:0:
16,120,37435,6,0,P|20:88|105:21,1,139.999995727539,0|0,1:0|0:0,0:0:0:0:
166,46,38260,2,0,L|307:45,1,139.999995727539,0|2,1:0|0:0,0:0:0:0:
375,20,39086,5,0,1:0:0:0:
449,227,39912,2,0,L|365:229,1,69.9999978637696,2|2,1:2|3:2,3:3:0:0:
313,195,40462,1,2,3:2:0:0:
313,195,40738,6,0,P|276:216|171:211,1,139.999995727539,4|2,1:2|0:0,0:0:0:0:
116,179,41563,1,0,1:0:0:0:
116,179,41838,1,0,0:0:0:0:
245,110,42389,6,0,P|311:95|389:126,1,139.999995727539,0|2,1:0|0:0,0:0:0:0:
433,166,43215,2,0,L|435:245,1,69.9999978637696,0|2,1:0|1:2,0:0:0:0:
480,304,43765,1,2,1:2:0:0:
480,304,44040,6,0,P|434:329|349:326,1,139.999995727539,4|0,1:2|0:0,0:0:0:0:
271,339,44866,2,0,P|226:311|186:236,1,139.999995727539,4|0,1:2|0:0,0:0:0:0:
116,212,45692,2,0,P|117:159|162:87,1,139.999995727539,4|2,1:2|0:0,0:0:0:0:
158,13,46517,1,4,1:2:0:0:
376,42,47343,6,0,P|408:44|448:25,2,69.9999978637696,0|0|0,1:0|1:0|1:0,0:0:0:0:
303,31,48169,1,0,1:0:0:0:
303,31,48444,2,0,P|271:22|225:36,1,69.9999978637696,0|0,1:0|1:0,0:0:0:0:
173,81,48994,5,0,1:0:0:0:
173,81,49270,2,0,P|166:117|176:150,1,69.9999978637696
222,208,49820,2,0,P|231:278|194:348,1,139.999995727539,0|0,1:0|1:0,0:0:0:0:
131,358,50646,5,0,1:0:0:0:
44,239,51196,1,0,1:0:0:0:
44,239,51471,2,0,B|25:164|71:172|49:90,1,139.999995727539,0|0,1:0|1:0,0:0:0:0:
97,44,52297,6,0,P|132:33|175:46,2,69.9999978637696,2|2|2,1:2|1:2|1:2,0:0:0:0:
58,106,53123,1,2,3:2:0:0:
58,106,53398,2,0,P|49:135|62:183,1,69.9999978637696,0|0,1:0|1:0,0:0:0:0:
86,240,53949,6,0,P|89:281|67:346,2,104.999996795654,4|2|0,1:2|1:2|1:0,0:0:0:0:
56,173,55049,1,0,1:0:0:0:
193,194,55600,6,0,P|190:235|205:272,2,69.9999978637696,4|2|2,0:0|1:2|1:2,0:0:0:0:
231,131,56426,1,0,1:0:0:0:
295,95,56701,2,0,P|359:100|416:156,1,139.999995727539,0|4,1:0|1:2,0:0:0:0:
256,192,57389,12,4,58903,1:2:0:0:
325,226,60828,6,0,P|320:188|339:148,1,80,0|2,1:0|1:2,0:0:0:0:
367,122,61240,2,0,L|238:124,1,120,2|2,0:0|1:2,0:0:0:0:
182,177,61928,2,0,L|183:223,2,40,2|2|0,1:2|0:0|1:0,0:0:0:0:
167,93,62480,6,0,P|132:64|60:58,1,120,2|2,1:2|0:0,0:0:0:0:
24,80,63029,1,0,1:0:0:0:
55,158,63305,1,2,1:2:0:0:
20,322,63855,1,0,1:0:0:0:
20,322,64130,6,0,P|59:311|107:328,1,80,2|2,1:2|1:2,0:0:0:0:
171,358,64681,1,2,1:2:0:0:
171,358,64956,2,0,P|205:336|256:339,1,80,2|2,1:2|1:2,0:0:0:0:
327,337,65506,1,2,1:2:0:0:
327,337,65782,6,0,P|354:307|403:295,2,80,2|2|2,1:2|1:2|1:2,0:0:0:0:
244,335,66607,2,0,P|196:322|81:361,1,160,0|2,1:0|0:3,0:0:0:0:
17,314,67433,5,0,1:0:0:0:
39,233,67708,1,0,1:0:0:0:
61,152,67983,1,0,1:0:0:0:
84,71,68259,2,0,L|0:77,2,80,4|4|0,1:2|1:2|1:3,0:0:0:0:
165,52,69084,6,0,P|201:37|255:43,1,80,0|0,1:0|1:0,0:0:0:0:
272,66,69497,2,0,P|311:67|348:52,1,80,2|0,0:0|0:0,0:0:0:0:
380,25,69910,2,0,L|475:22,2,80,2|2|2,1:2|1:3|1:3,0:0:0:0:
414,109,70736,6,0,P|427:140|395:258,1,160,0|0,1:0|1:0,0:0:0:0:
333,312,71561,1,0,1:2:0:0:
333,312,71837,2,0,P|293:306|252:316,1,80,2|0,1:2|1:0,0:0:0:0:
188,365,72387,5,2,0:0:0:0:
136,298,72662,1,2,0:0:0:0:
180,226,72938,1,2,0:0:0:0:
128,159,73213,1,2,0:0:0:0:
356,52,74039,6,0,P|378:94|372:141,1,80,0|0,1:0|1:0,0:0:0:0:
348,204,74589,1,0,1:0:0:0:
279,252,74864,2,0,P|253:188|255:163,2,80,2|0|0,1:2|1:0|1:0,0:0:0:0:
348,204,75690,6,0,P|360:171|320:54,1,160,0|2,1:0|1:2,0:0:0:0:
240,71,76516,1,0,1:0:0:0:
172,257,77066,1,0,1:3:0:0:
99,302,77341,6,0,L|6:304,2,80,0|0|0,1:3|1:0|1:0,0:0:0:0:
172,257,78167,2,0,L|265:259,2,80,2|2|2,1:2|1:2|1:2,0:0:0:0:
110,199,78993,5,2,1:2:0:0:
110,199,79268,2,0,L|55:198,2,40,0|2|0,1:0|0:0|1:0,0:0:0:0:
176,147,79818,1,2,1:2:0:0:
176,147,80093,2,0,L|231:146,2,40,0|2|0,1:0|0:0|1:0,0:0:0:0:
114,89,80644,5,0,1:0:0:0:
186,46,80919,1,0,1:0:0:0:
269,38,81194,1,0,1:0:0:0:
348,66,81470,2,0,P|390:75|433:68,1,80,4|4,1:2|1:2,0:0:0:0:
380,231,82295,5,0,1:0:0:0:
308,274,82570,1,0,1:0:0:0:
225,282,82845,1,0,1:0:0:0:
146,254,83121,1,0,1:0:0:0:
146,254,83396,1,2,1:3:0:0:
264,135,83947,6,0,L|351:136,2,80,0|0|0,1:0|1:0|1:0,0:0:0:0:
192,90,84772,2,0,L|97:95,1,80,2|0,1:2|1:0,0:0:0:0:
42,141,85323,1,0,1:0:0:0:
4,216,85598,6,0,P|-1:248|14:301,2,80,2|2|0,1:2|1:2|1:2,0:0:0:0:
42,141,86424,1,2,1:2:0:0:
251,170,87250,6,0,P|277:158|383:184,1,139.999995727539,6|0,0:0|0:0,0:0:0:0:
373,321,88350,2,0,P|347:333|241:307,1,139.999995727539,2|0,0:0|0:0,0:0:0:0:
252,169,89451,6,0,L|259:26,1,139.999995727539,2|0,0:0|0:0,0:0:0:0:
118,73,90552,2,0,B|113:218,1,139.999995727539,6|0,0:0|0:0,0:0:0:0:
184,335,91653,6,0,P|221:318|324:337,1,139.999995727539,2|0,0:0|0:0,0:0:0:0:
371,203,92754,2,0,P|334:220|231:201,1,139.999995727539,2|0,0:0|0:0,0:0:0:0:
161,88,93855,6,0,P|122:115|95:206,1,139.999995727539,6|0,0:0|0:0,0:0:0:0:
238,206,94956,2,0,P|277:233|304:324,1,139.999995727539,2|0,0:0|0:0,0:0:0:0:
172,364,96057,6,0,L|19:364,1,139.999995727539,0|0,0:0|0:0,0:0:0:0:
92,237,97158,2,0,L|245:237,1,139.999995727539,2|0,0:0|0:0,0:0:0:0:
372,237,98259,6,0,P|400:226|452:125,1,139.999995727539,2|0,0:0|0:0,0:0:0:0:
341,49,99360,2,0,P|313:60|261:161,1,139.999995727539,2|0,0:0|0:0,0:0:0:0:
261,225,100185,1,2,0:0:0:0:
