osu file format v14

[General]
AudioFilename: audio.mp3
AudioLeadIn: 0
PreviewTime: 53585
Countdown: 0
SampleSet: Soft
StackLeniency: 0.7
Mode: 0
LetterboxInBreaks: 0
WidescreenStoryboard: 1

[Editor]
DistanceSpacing: 1.2
BeatDivisor: 4
GridSize: 4
TimelineZoom: 1.4

[Metadata]
Title:Colorful Minutes
TitleUnicode:カラフルミニッツ
Artist:Qrispy Joybox feat. mao
ArtistUnicode:Qrispy Joybox feat. mao
Creator:Kuki1537
Version:Hard
Source:REFLEC BEAT
Tags:KONAMI jubeat plus a.mayuko saucer + music pack 03 bemani video game japanese pop jpop j-pop electro-pop
BeatmapID:2633531
BeatmapSetID:1242911

[Difficulty]
HPDrainRate:4.5
CircleSize:3.4
OverallDifficulty:6
ApproachRate:7
SliderMultiplier:1.5
SliderTickRate:1

[Events]
//Background and Video events
0,0,"bg.jpg"
//Break Periods
//Storyboard Layer 0 (Background)
//Storyboard Layer 1 (Fail)
//Storyboard Layer 2 (Pass)
//Storyboard Layer 3 (Foreground)
//Storyboard Layer 4 (Overlay)
//Storyboard Sound Samples

[TimingPoints]
7,394.736842105263,4,2,45,50,1,0
7,-133.333333333333,4,2,45,50,0,0
6125,-133.333333333333,4,2,45,60,0,0
11849,-133.333333333333,4,2,45,75,0,0
12638,-100,4,2,45,80,0,0
26651,-133.333333333333,4,2,45,80,0,0
26750,-133.333333333333,4,2,45,5,0,0
28033,-133.333333333333,4,2,45,50,0,0
28428,-111.111111111111,4,2,45,70,0,0
41059,-133.333333333333,4,2,45,60,0,0
50533,-111.111111111111,4,2,45,70,0,0
53691,-100,4,2,45,85,0,1
78954,-111.111111111111,4,2,45,70,0,0
89217,-111.111111111111,4,2,45,75,0,0
90204,-111.111111111111,4,2,45,50,0,0
91585,-111.111111111111,4,2,45,5,0,0

[Colours]
Combo1 : 211,193,169
Combo2 : 244,231,149
Combo3 : 244,186,128
Combo4 : 230,150,123

[HitObjects]
97,58,7,6,0,P|56:45|36:47,2,56.2500021457673,2|0|0,0:2|0:2|0:2,0:2:0:0:
163,110,599,2,0,P|204:97|224:99,2,56.2500021457673,2|0|0,0:2|0:2|0:2,0:2:0:0:
93,158,1191,2,0,P|52:145|32:147,2,56.2500021457673,2|0|0,0:2|0:2|0:2,0:2:0:0:
160,209,1783,2,0,B|235:215|278:147|278:147|302:225|378:238,1,281.250010728836,2|0,0:2|0:2,0:2:0:0:
454,360,3164,6,0,L|519:372,2,56.2500021457673,2|0|0,0:2|0:2|0:2,0:2:0:0:
390,303,3756,2,0,L|325:315,2,56.2500021457673,2|0|0,0:2|0:2|0:2,0:2:0:0:
449,242,4349,2,0,B|440:173|440:173|461:137|461:137|446:2|446:2|447:59|395:95,1,337.500012874604,2|0,0:2|0:2,0:2:0:0:
343,131,5730,1,0,1:2:0:0:
264,99,5928,2,0,L|213:91,3,28.1250010728836,2|2|2|2,0:2|0:2|1:2|0:2,0:0:0:0:
200,117,6322,6,0,P|174:131|133:134,1,56.2500021457673,2|2,1:2|0:2,0:0:0:0:
71,98,6717,2,0,P|21:100|-11:150,1,112.500004291535,2|2,0:2|1:2,0:2:0:0:
19,227,7309,2,0,B|29:285,1,56.2500021457673,2|2,1:2|0:2,0:0:0:0:
5,363,7704,6,0,B|50:367|50:367|81:352|81:352|133:358,1,112.500004291535,2|2,0:2|1:2,0:2:0:0:
197,367,8296,1,2,0:2:0:0:
180,199,8691,2,0,P|167:167|171:127,1,56.2500021457673,2|0,1:2|1:2,0:0:0:0:
215,77,9085,2,0,L|279:68,1,56.2500021457673,2|2,0:2|0:2,0:2:0:0:
345,109,9480,5,2,1:2:0:0:
345,109,9678,1,2,0:2:0:0:
416,64,9875,2,0,P|447:54|484:62,1,56.2500021457673,2|0,0:2|0:2,0:2:0:0:
509,131,10270,1,2,1:2:0:0:
509,131,10467,2,0,L|499:195,1,56.2500021457673,2|2,1:2|0:2,0:0:0:0:
457,259,10862,6,0,P|502:276|518:346,2,112.500004291535,2|0|0,0:2|1:2|0:2,0:2:0:0:
371,215,11849,5,8,0:2:0:0:
317,280,12046,1,0,1:2:0:0:
236,229,12243,5,8,0:2:0:0:
181,293,12440,1,8,0:2:0:0:
95,231,12638,6,0,L|107:154,1,75,6|0,1:2|0:2,0:2:0:0:
78,71,13033,2,0,B|118:52|162:74|147:83|188:102|228:85,1,150,10|2,0:2|1:2,0:2:0:0:
296,36,13625,1,2,1:2:0:0:
374,80,13822,1,10,0:2:0:0:
454,24,14020,6,0,P|501:29|509:123,1,150,2|2,1:2|1:2,0:2:0:0:
439,165,14612,1,10,0:2:0:0:
489,239,14809,2,0,P|507:279|501:322,1,75,2|0,1:2|0:2,0:2:0:0:
441,373,15204,2,0,L|363:364,1,75,2|8,1:2|0:2,0:2:0:0:
281,332,15599,1,2,0:2:0:0:
318,234,15796,6,0,L|332:151,1,75,6|0,1:2|0:2,0:2:0:0:
307,72,16191,1,10,0:2:0:0:
143,135,16585,1,2,1:2:0:0:
143,135,16783,2,0,P|157:183|149:220,1,75,2|8,1:2|0:2,0:0:0:0:
102,290,17178,6,0,L|179:302,1,75,2|0,1:2|0:2,0:2:0:0:
229,373,17572,2,0,L|303:361,1,75,2|8,1:2|0:2,0:2:0:0:
391,343,17967,1,2,0:2:0:0:
324,261,18164,5,8,0:2:0:0:
376,187,18362,1,0,1:2:0:0:
294,121,18559,5,8,0:2:0:0:
346,48,18757,1,0,1:2:0:0:
242,0,18954,6,0,L|164:13,1,75,6|0,1:2|0:2,0:2:0:0:
88,54,19349,2,0,B|82:112|82:112|100:147|100:147|93:212,1,150,10|2,0:2|1:2,0:2:0:0:
33,265,19941,1,2,1:2:0:0:
68,347,20138,1,10,0:2:0:0:
165,351,20335,6,0,P|221:330|221:247,1,150,2|2,1:2|1:2,0:2:0:0:
187,165,20928,1,10,0:2:0:0:
224,83,21125,2,0,P|262:67|304:72,1,75,2|0,1:2|0:2,0:2:0:0:
345,144,21520,2,0,P|378:159|416:157,1,75,0|8,1:2|0:2,0:2:0:0:
476,91,21914,1,0,0:2:0:0:
511,190,22112,6,0,B|529:294|529:294|494:333,1,150,6|8,1:2|0:2,0:2:0:0:
425,379,22704,2,0,P|389:331|296:338,1,150,2|0,1:2|1:2,0:2:0:0:
230,382,23296,1,10,0:2:0:0:
156,306,23493,6,0,L|179:154,1,150,6|0,1:2|1:2,0:2:0:0:
172,67,24085,2,0,P|134:45|98:45,1,75,10|2,0:2|1:2,0:0:0:0:
31,120,24480,5,10,0:2:0:0:
86,191,24678,1,2,1:2:0:0:
58,292,24875,5,8,0:2:0:0:
148,296,25073,1,0,1:2:0:0:
213,377,25270,5,6,1:2:0:0:
287,326,25467,2,0,L|364:339,1,75,2|8,0:2|0:2,0:2:0:0:
449,305,25862,1,2,1:2:0:0:
449,305,25960,1,8,0:2:0:0:
449,305,26059,2,0,P|464:262|452:216,1,75,2|0,1:2|1:2,0:2:0:0:
419,153,26454,1,10,0:2:0:0:
331,190,26651,6,0,B|246:264|161:180|197:169|110:92|27:165,1,337.500012874604,6|0,1:2|0:2,0:2:0:0:
97,231,28033,2,0,L|91:270,3,28.1250010728836,2|2|2|2,0:2|0:2|0:2|0:2,0:0:0:0:
69,303,28428,6,0,L|162:317,1,67.4999979400635,4|2,1:2|0:2,0:0:0:0:
197,374,28822,2,0,L|341:355,1,134.999995880127,10|2,0:2|1:2,0:2:0:0:
395,296,29414,1,2,1:2:0:0:
395,296,29612,1,10,0:2:0:0:
331,226,29809,6,0,L|321:160,1,67.4999979400635,2|0,0:2|1:2,0:2:0:0:
355,78,30204,2,0,P|391:63|440:73,1,67.4999979400635,2|8,0:2|0:2,0:2:0:0:
481,126,30599,2,0,L|491:192,1,67.4999979400635,2|0,0:2|1:2,0:2:0:0:
503,279,30993,1,2,1:2:0:0:
434,334,31191,1,10,0:2:0:0:
354,298,31388,1,2,0:2:0:0:
192,360,31783,5,2,0:2:0:0:
192,360,31980,2,0,L|183:288,1,67.4999979400635,10|2,0:2|0:2,0:2:0:0:
133,220,32375,2,0,P|96:231|48:219,2,67.4999979400635,2|2|10,1:2|1:2|0:2,0:0:0:0:
212,168,32967,6,0,B|246:135|246:135|229:42,1,134.999995880127,2|0,0:2|0:2,0:2:0:0:
153,5,33559,2,0,P|126:51|35:51,1,134.999995880127,8|0,0:2|1:2,0:2:0:0:
15,141,34151,1,2,1:2:0:0:
61,215,34349,1,10,0:2:0:0:
36,298,34546,1,2,1:2:0:0:
107,369,34743,6,0,L|184:358,1,67.4999979400635,4|2,1:2|0:2,0:2:0:0:
218,283,35138,2,0,L|284:292,1,67.4999979400635,10|2,0:2|0:2,0:0:0:0:
348,361,35533,1,2,1:2:0:0:
348,361,35730,2,0,P|389:371|422:360,1,67.4999979400635,2|8,1:2|0:2,0:2:0:0:
482,300,36125,6,0,L|461:161,1,134.999995880127,2|2,1:2|1:2,0:2:0:0:
503,90,36717,1,10,0:2:0:0:
503,90,36914,2,0,P|465:79|427:87,1,67.4999979400635,2|0,1:2|1:2,0:2:0:0:
366,134,37309,1,2,1:2:0:0:
289,91,37506,1,10,0:2:0:0:
208,127,37704,1,2,1:2:0:0:
236,306,38099,5,2,1:2:0:0:
236,306,38296,2,0,P|204:327|168:332,1,67.4999979400635,8|2,0:2|1:2,0:0:0:0:
96,369,38691,2,0,L|77:231,1,134.999995880127,2|10,1:2|0:2,0:2:0:0:
13,165,39283,6,0,P|66:115|51:42,1,134.999995880127,2|2,1:2|0:2,0:2:0:0:
130,2,39875,2,0,L|199:12,1,67.4999979400635,10|2,0:2|1:2,0:0:0:0:
238,104,40270,5,8,0:2:0:0:
313,60,40467,1,0,1:2:0:0:
385,130,40664,5,8,0:2:0:0:
460,86,40861,1,0,1:2:0:0:
509,168,41059,6,0,L|498:241,1,56.2500021457673,6|0,1:2|1:2,0:2:0:0:
450,292,41454,2,0,P|412:307|384:304,1,56.2500021457673,2|0,0:2|1:2,0:2:0:0:
326,353,41849,2,0,P|281:312|218:320,1,112.500004291535,2|10,1:2|0:0,0:2:0:0:
167,367,42441,2,0,B|137:336|137:336|158:243,1,112.500004291535,2|2,0:2|1:2,0:2:0:0:
174,186,43033,1,2,0:2:0:0:
241,32,43428,1,8,0:2:0:0:
241,32,43625,2,0,P|275:27|317:43,2,56.2500021457673,2|2|2,0:2|0:2|0:2,0:2:0:0:
146,13,44217,6,0,B|68:0|68:0|35:32,1,112.500004291535,6|2,1:2|0:2,0:2:0:0:
0,95,44809,2,0,P|37:123|22:201,1,112.500004291535,2|2,1:2|0:2,0:2:0:0:
28,280,45401,1,14,0:2:0:0:
197,313,45796,1,0,1:2:0:0:
197,313,45993,2,0,P|221:280|306:280,1,112.500004291535,0|0,1:2|1:2,0:2:0:0:
379,301,46585,5,8,0:2:0:0:
423,229,46783,1,2,1:2:0:0:
357,159,46980,5,10,0:2:0:0:
401,87,47178,1,2,1:2:0:0:
328,25,47375,6,0,P|291:12|229:61,1,112.500004291535,6|10,1:2|0:2,0:2:0:0:
207,129,47967,2,0,L|216:189,1,56.2500021457673,2|0,1:2|1:2,0:2:0:0:
267,250,48362,2,0,L|327:259,2,56.2500021457673,2|10|2,1:2|0:2|0:2,0:2:0:0:
206,308,48954,2,0,B|171:338|171:338|91:326,1,112.500004291535,2|10,1:2|0:2,0:2:0:0:
23,306,49546,1,2,1:2:0:0:
61,145,49941,1,2,1:2:0:0:
61,145,50138,2,0,L|70:86,1,56.2500021457673,10|2,0:2|1:2,0:0:0:0:
147,4,50533,6,0,P|161:43|245:55,1,134.999995880127,6|10,1:2|0:2,0:2:0:0:
321,12,51125,2,0,B|329:63|329:63|318:96|318:96|326:149,1,134.999995880127,2|0,1:2|1:2,0:2:0:0:
285,224,51717,1,10,0:2:0:0:
285,224,51914,2,0,P|265:273|312:349,1,134.999995880127,6|0,1:2|1:2,0:2:0:0:
397,370,52506,5,8,0:2:0:0:
453,302,52704,1,0,1:2:0:0:
391,221,52901,5,8,0:2:0:0:
447,153,53099,2,0,L|455:117,3,33.7499989700318,2|2|2|2,0:2|0:2|0:2|0:2,0:2:0:0:
446,87,53493,1,2,0:2:0:0:
446,87,53592,1,2,0:2:0:0:
446,87,53691,6,0,L|366:99,1,75,6|0,1:2|0:2,0:2:0:0:
293,53,54085,2,0,P|261:82|162:59,1,150,8|2,0:2|1:2,0:2:0:0:
84,18,54678,1,2,1:2:0:0:
20,81,54875,1,10,0:2:0:0:
61,168,55072,6,0,B|96:206|96:206|77:310,1,150,2|2,1:2|1:2,0:2:0:0:
128,378,55664,1,10,0:2:0:0:
197,320,55862,2,0,P|237:307|277:313,1,75,2|0,1:2|0:2,0:2:0:0:
339,365,56256,2,0,P|374:377|411:374,1,75,2|8,1:2|0:2,0:2:0:0:
493,337,56651,1,2,0:2:0:0:
447,241,56849,6,0,L|461:157,1,75,2|0,1:2|0:2,0:2:0:0:
477,78,57243,1,10,0:2:0:0:
303,75,57638,1,2,1:2:0:0:
303,75,57835,2,0,P|259:59|228:63,1,75,2|8,1:2|0:2,0:0:0:0:
157,125,58230,6,0,L|171:205,1,75,2|0,1:2|0:2,0:2:0:0:
248,246,58625,2,0,L|234:326,1,75,2|8,1:2|0:2,0:2:0:0:
163,374,59020,1,2,0:2:0:0:
74,317,59217,5,8,0:2:0:0:
109,234,59414,1,0,1:2:0:0:
39,154,59612,5,8,0:2:0:0:
111,100,59809,1,0,1:2:0:0:
76,0,60006,6,0,L|157:11,1,75,6|0,1:2|0:2,0:2:0:0:
222,64,60401,2,0,B|284:59|284:59|318:74|318:74|395:67,1,150,10|2,0:2|1:2,0:2:0:0:
445,21,60993,1,2,1:2:0:0:
508,85,61191,1,10,0:2:0:0:
443,158,61388,6,0,B|405:195|405:195|424:308,1,150,2|0,1:2|1:2,0:2:0:0:
373,367,61980,1,10,0:2:0:0:
306,305,62178,2,0,P|266:292|223:299,1,75,2|0,1:2|0:2,0:2:0:0:
173,361,62572,2,0,P|137:373|100:370,1,75,2|8,1:2|0:2,0:2:0:0:
24,322,62967,1,2,0:2:0:0:
85,237,63164,6,0,L|63:88,1,150,6|8,1:2|0:2,0:2:0:0:
122,20,63756,2,0,P|186:0|250:44,1,150,2|0,1:2|1:2,0:2:0:0:
277,130,64349,1,10,0:2:0:0:
225,220,64546,6,0,B|233:275|233:275|217:312|217:312|226:376,1,150,6|0,1:2|0:2,0:2:0:0:
314,377,65138,2,0,P|347:356|390:352,1,75,10|2,0:2|1:2,0:0:0:0:
476,298,65533,5,10,0:2:0:0:
431,220,65730,1,2,1:2:0:0:
505,145,65928,5,8,0:2:0:0:
460,67,66125,1,0,1:2:0:0:
359,97,66322,6,0,P|321:108|266:95,1,75,6|2,1:2|0:2,0:0:0:0:
223,38,66717,2,0,P|185:27|130:40,1,75,10|2,0:2|0:2,0:0:0:0:
74,104,67112,1,6,1:2:0:0:
112,185,67309,2,0,L|102:265,1,75,2|8,0:2|0:2,0:2:0:0:
132,352,67704,6,0,P|171:363|217:350,1,75,2|0,1:2|0:2,0:2:0:0:
276,303,68099,2,0,P|287:264|274:218,1,75,2|8,1:2|0:2,0:2:0:0:
222,162,68493,1,2,1:2:0:0:
309,4,68888,2,0,P|345:-3|381:8,1,75,0|8,1:2|0:2,0:2:0:0:
448,85,69283,1,2,0:2:0:0:
448,85,69381,1,2,0:2:0:0:
448,85,69480,6,0,L|461:163,1,75,6|2,1:2|0:2,0:2:0:0:
510,233,69875,2,0,L|497:311,1,75,10|2,0:2|0:2,0:0:0:0:
420,378,70270,1,6,1:2:0:0:
356,314,70467,2,0,P|306:300|278:308,1,75,2|8,1:2|0:2,0:2:0:0:
191,335,70862,6,0,L|178:248,1,75,2|0,1:2|0:2,0:2:0:0:
247,201,71256,2,0,L|260:114,1,75,2|8,1:2|0:2,0:2:0:0:
221,44,71651,1,2,0:2:0:0:
117,25,71849,5,8,0:2:0:0:
95,112,72046,1,0,1:2:0:0:
13,178,72243,5,8,0:2:0:0:
58,254,72440,1,2,1:2:0:0:
28,355,72638,6,0,L|106:365,1,75,6|2,1:2|0:2,0:2:0:0:
163,297,73033,1,10,0:2:0:0:
242,338,73230,2,0,P|306:341|341:265,1,150,2|2,0:2|1:2,0:2:0:0:
291,197,73822,1,10,0:2:0:0:
231,119,74020,6,0,B|243:18|243:18|245:47|271:65,1,150,2|2,1:2|1:2,0:2:0:0:
335,116,74612,1,10,0:2:0:0:
401,55,74809,2,0,P|442:56|472:77,1,75,2|0,1:2|0:2,0:2:0:0:
511,154,75204,1,2,1:2:0:0:
494,242,75401,1,8,0:2:0:0:
353,354,75796,6,0,B|310:324|310:324|201:352,1,150,6|8,1:2|0:2,0:2:0:0:
133,315,76388,2,0,P|89:349|-8:302,1,150,2|0,1:2|1:2,0:2:0:0:
20,235,76980,1,10,0:2:0:0:
69,141,77178,1,6,0:2:0:0:
139,219,77375,5,8,0:2:0:0:
218,176,77572,1,0,1:2:0:0:
288,254,77770,5,10,0:2:0:0:
367,211,77967,1,0,1:2:0:0:
455,122,78954,5,6,1:2:0:0:
455,122,79151,2,0,L|376:110,1,67.4999979400635,2|8,0:2|0:2,0:2:0:0:
333,50,79546,1,2,0:2:0:0:
333,50,79743,2,0,L|254:62,1,67.4999979400635,2|0,1:2|0:2,0:2:0:0:
221,138,80138,1,10,0:2:0:0:
221,138,80335,2,0,L|142:126,1,67.4999979400635,2|0,1:2|0:2,0:2:0:0:
86,61,80730,5,2,1:2:0:0:
25,125,80928,2,0,P|8:168|17:206,1,67.4999979400635,10|0,0:2|1:2,0:2:0:0:
36,271,81322,2,0,B|90:266|90:266|118:280|118:280|182:274,1,134.999995880127,2|10,0:2|0:2,0:2:0:0:
247,310,81914,1,2,0:2:0:0:
320,249,82112,5,2,1:2:0:0:
320,249,82309,2,0,P|332:214|324:177,1,67.4999979400635,2|8,0:2|0:2,0:2:0:0:
278,118,82704,1,2,0:2:0:0:
278,118,82901,2,0,P|266:83|274:46,1,67.4999979400635,2|0,1:2|1:2,0:2:0:0:
346,9,83296,1,10,0:2:0:0:
346,9,83493,2,0,B|430:0|430:0|468:37,1,134.999995880127,2|0,1:2|1:2,0:2:0:0:
511,111,84085,1,8,0:2:0:0:
451,273,84480,5,8,0:2:0:0:
372,232,84678,1,2,1:2:0:0:
319,318,84875,5,10,0:2:0:0:
240,277,85073,1,2,1:2:0:0:
191,367,85270,5,6,1:2:0:0:
191,367,85467,2,0,L|114:354,1,67.4999979400635,2|8,0:2|0:2,0:2:0:0:
62,300,85862,1,2,0:2:0:0:
62,300,86059,2,0,P|84:256|83:221,1,67.4999979400635,2|0,1:2|0:2,0:2:0:0:
36,171,86454,1,10,0:2:0:0:
36,171,86651,2,0,P|14:127|15:92,1,67.4999979400635,2|0,1:2|0:2,0:2:0:0:
59,26,87046,5,2,1:2:0:0:
132,73,87243,2,0,L|210:82,1,67.4999979400635,10|0,0:2|1:2,0:2:0:0:
272,128,87638,2,0,P|300:165|266:254,1,134.999995880127,2|10,0:2|0:2,0:2:0:0:
238,331,88230,6,0,L|314:343,1,67.4999979400635,2|4,0:2|1:2,0:0:0:0:
388,372,88625,1,2,0:2:0:0:
450,311,88822,2,0,P|469:278|466:233,1,67.4999979400635,10|2,0:2|1:2,0:0:0:0:
419,161,89217,5,2,1:2:0:0:
342,202,89414,1,2,1:2:0:0:
270,129,89612,5,10,0:2:0:0:
193,170,89809,1,6,1:2:0:0:
256,192,89908,12,0,91585,0:2:0:0:
