osu file format v14

[General]
AudioFilename: audio.mp3
AudioLeadIn: 0
PreviewTime: 58096
Countdown: 0
SampleSet: Soft
StackLeniency: 0.7
Mode: 0
LetterboxInBreaks: 0
WidescreenStoryboard: 1

[Editor]
DistanceSpacing: 1.85
BeatDivisor: 8
GridSize: 4
TimelineZoom: 1.3

[Metadata]
Title:Shiratsuyu no Kaze
TitleUnicode:白露の風
Artist:Qrispy Joybox feat. Yu Tokiwa
ArtistUnicode:Qrispy Joybox feat. 常盤ゆう
Creator:yf_bmp
Version:Expert
Source:beatmania IIDX 22 PENDUAL
Tags:TtmnZk TT Mouse -Spring Night- S_Saika [Mahua] newspaper cup npc 2022 npc22 mapping contest vocal track npc2022 Video Game Electronic Japanese 梅雪夜 Umeyukiyo pop'n music peace rb REFLEC BEAT groovin'!! Upper konami bemani
BeatmapID:3489502
BeatmapSetID:1707712

[Difficulty]
HPDrainRate:6
CircleSize:4.5
OverallDifficulty:8.7
ApproachRate:9
SliderMultiplier:1.8
SliderTickRate:1

[Events]
//Background and Video events
0,0,"bg.jpg",0,0
//Break Periods
//Storyboard Layer 0 (Background)
//Storyboard Layer 1 (Fail)
//Storyboard Layer 2 (Pass)
//Storyboard Layer 3 (Foreground)
//Storyboard Layer 4 (Overlay)
//Storyboard Sound Samples

[TimingPoints]
988,361.44578313253,4,2,1,65,1,0
988,-83.3333333333333,4,2,1,65,0,0
4150,-83.3333333333333,4,2,1,5,0,0
4241,-83.3333333333333,4,2,1,65,0,0
4512,-83.3333333333333,4,2,1,5,0,0
4602,-66.6666666666667,4,2,1,65,0,0
4873,-66.6666666666667,4,2,1,5,0,0
4963,-66.6666666666667,4,2,1,65,0,0
5325,-83.3333333333333,4,2,1,65,0,0
5957,-83.3333333333333,4,2,1,5,0,0
6048,-71.4285714285714,4,2,1,65,0,0
6680,-71.4285714285714,4,2,1,5,0,0
6771,-71.4285714285714,4,2,1,65,0,0
7132,-133.333333333333,4,2,1,65,0,0
7764,-133.333333333333,4,2,1,5,0,0
7855,-133.333333333333,4,2,1,65,0,0
8216,-100,4,2,1,65,0,0
9662,-83.3333333333333,4,2,1,65,0,0
9933,-83.3333333333333,4,2,1,5,0,0
10024,-83.3333333333333,4,2,1,65,0,0
10295,-83.3333333333333,4,2,1,5,0,0
10385,-100,4,2,1,65,0,0
10656,-100,4,2,1,5,0,0
10747,-100,4,2,1,65,0,0
11108,-83.3333333333333,4,2,1,65,0,0
11740,-83.3333333333333,4,2,1,5,0,0
11831,-100,4,2,1,65,0,0
12463,-100,4,2,1,5,0,0
12554,-100,4,2,1,73,0,0
15084,-83.3333333333333,4,2,1,73,0,0
15355,-83.3333333333333,4,2,1,5,0,0
15445,-83.3333333333333,4,2,1,73,0,0
16530,-100,4,2,1,73,0,0
17614,-80,4,2,1,73,0,0
17885,-80,4,2,1,5,0,0
17975,-71.4285714285714,4,2,1,73,0,0
18246,-71.4285714285714,4,2,1,5,0,0
18337,-71.4285714285714,4,2,1,73,0,0
19060,-100,4,2,1,73,0,0
20867,-80,4,2,1,73,0,0
21138,-80,4,2,1,5,0,0
21228,-80,4,2,1,73,0,0
22313,-100,4,2,1,73,0,0
22765,-100,4,2,3,73,0,0
23216,-80,4,2,3,73,0,0
24120,-80,4,2,1,65,0,0
24391,-80,4,2,1,5,0,0
24481,-80,4,2,1,65,0,0
26921,-80,4,2,1,5,0,0
27012,-80,4,2,1,65,0,0
27283,-80,4,2,1,5,0,0
27373,-80,4,2,1,65,0,0
29903,-100,4,2,1,73,0,0
30897,-100,4,2,1,5,0,0
30987,-100,4,2,1,73,0,0
32433,-80,4,2,1,73,0,0
32704,-80,4,2,1,5,0,0
32795,-100,4,2,1,73,0,0
33789,-100,4,2,1,5,0,0
33879,-100,4,2,1,73,0,0
35325,-80,4,2,1,73,0,0
35596,-80,4,2,1,5,0,0
35686,-100,4,2,1,73,0,0
38216,-80,4,2,1,73,0,0
38487,-80,4,2,1,5,0,0
38578,-66.6666666666667,4,2,1,73,0,0
39301,-71.4285714285714,4,2,1,73,0,0
39963,-71.4285714285714,4,2,1,5,0,0
40024,-83.3333333333333,4,2,1,73,0,0
41469,-100,4,2,1,73,0,0
42192,-83.3333333333333,4,2,1,73,0,0
43638,-76.9230769230769,4,2,1,73,0,0
44000,-80,4,2,1,73,0,0
44271,-80,4,2,1,5,0,0
44361,-100,4,2,1,73,0,0
45084,-83.3333333333333,4,2,1,73,0,0
46530,-76.9230769230769,4,2,1,73,0,0
46891,-80,4,2,1,73,0,0
47162,-80,4,2,1,5,0,0
47253,-100,4,2,1,73,0,0
48246,-100,4,2,1,5,0,0
48337,-100,4,2,1,73,0,0
48608,-100,4,2,1,5,0,0
48698,-83.3333333333333,4,2,1,73,0,0
48969,-83.3333333333333,4,2,1,5,0,0
49060,-83.3333333333333,4,2,1,73,0,0
49692,-83.3333333333333,4,2,1,5,0,0
49783,-80,4,2,1,73,0,0
50054,-80,4,2,1,5,0,0
50144,-83.3333333333333,4,2,1,73,0,0
50415,-83.3333333333333,4,2,1,5,0,0
50506,-100,4,2,1,73,0,0
51138,-100,4,2,1,5,0,0
51228,-100,4,2,1,73,0,0
51499,-100,4,2,1,5,0,0
51590,-100,4,2,1,73,0,0
53036,-100,4,2,5,65,0,0
53216,-133.333333333333,4,2,5,65,0,0
54120,-133.333333333333,4,2,6,65,0,0
55024,-133.333333333333,4,2,7,65,0,0
55927,-105.263157894737,4,2,7,65,0,0
56047,-105.263157894737,4,2,8,65,0,0
56650,-105.263157894737,4,2,9,65,0,0
57012,-105.263157894737,4,2,10,65,0,0
57373,-400,4,2,5,65,0,0
58005,-400,4,2,2,85,0,0
58096,-400,4,2,11,65,0,0
58457,-400,4,2,30,84,0,0
58819,-400,4,2,31,84,0,1
59180,-400,4,2,32,84,0,1
59722,-400,4,2,33,84,0,1
59903,-76.9230769230769,4,2,33,84,0,1
60084,-76.9230769230769,4,2,34,84,0,1
60445,-76.9230769230769,4,2,35,84,0,1
60626,-76.9230769230769,4,2,36,84,0,1
61258,-76.9230769230769,4,2,36,5,0,1
61349,-76.9230769230769,4,2,37,84,0,1
61620,-76.9230769230769,4,2,37,5,0,1
61710,-76.9230769230769,4,2,37,84,0,1
61891,-76.9230769230769,4,2,38,84,0,1
62072,-76.9230769230769,4,2,39,84,0,1
62795,-76.9230769230769,4,2,40,84,0,1
63337,-76.9230769230769,4,2,25,54,0,1
63518,-76.9230769230769,4,2,25,59,0,1
63698,-76.9230769230769,4,2,25,64,0,1
63879,-76.9230769230769,4,2,30,84,0,1
64150,-76.9230769230769,4,2,30,5,0,1
64241,-76.9230769230769,4,2,41,84,0,1
64602,-76.9230769230769,4,2,42,84,0,1
65234,-76.9230769230769,4,2,42,5,0,1
65325,-76.9230769230769,4,2,43,84,0,1
65957,-76.9230769230769,4,2,43,5,0,1
66048,-76.9230769230769,4,2,44,84,0,1
66771,-76.9230769230769,4,2,45,84,0,1
67042,-76.9230769230769,4,2,45,5,0,1
67132,-66.6666666666667,4,2,45,84,0,1
67403,-66.6666666666667,4,2,45,5,0,1
67494,-76.9230769230769,4,2,46,84,0,1
67674,-76.9230769230769,4,2,47,84,0,1
67855,-76.9230769230769,4,2,48,84,0,1
68397,-76.9230769230769,4,2,49,84,0,1
69210,-76.9230769230769,4,2,49,5,0,1
69301,-76.9230769230769,4,2,49,84,0,1
69662,-76.9230769230769,4,2,50,84,0,1
69843,-76.9230769230769,4,2,12,84,0,1
70295,-76.9230769230769,4,2,13,84,0,1
70385,-76.9230769230769,4,2,51,84,0,1
70747,-100,4,2,52,84,0,1
70927,-76.9230769230769,4,2,52,84,0,1
71289,-76.9230769230769,4,2,53,84,0,1
71650,-76.9230769230769,4,2,54,84,0,1
72012,-76.9230769230769,4,2,55,84,0,1
72192,-100,4,2,56,84,0,1
72373,-76.9230769230769,4,2,56,84,0,1
72734,-76.9230769230769,4,2,26,84,0,1
73277,-76.9230769230769,4,2,30,84,0,1
73457,-76.9230769230769,4,2,57,84,0,1
73638,-100,4,2,58,84,0,1
73909,-100,4,2,1,84,0,1
74000,-100,4,2,59,84,0,1
74361,-100,4,2,60,84,0,1
74813,-100,4,2,61,84,0,1
74994,-100,4,2,1,84,0,1
75084,-100,4,2,62,84,0,1
75265,-76.9230769230769,4,2,62,84,0,1
75626,-76.9230769230769,4,2,28,84,0,1
76168,-76.9230769230769,4,2,63,84,0,1
76349,-76.9230769230769,4,2,64,84,0,1
76710,-76.9230769230769,4,2,65,84,0,1
77072,-76.9230769230769,4,2,66,84,0,1
77433,-76.9230769230769,4,2,67,84,0,1
77614,-76.9230769230769,4,2,68,84,0,1
77795,-76.9230769230769,4,2,69,84,0,1
78156,-76.9230769230769,4,2,70,84,0,1
78518,-76.9230769230769,4,2,71,84,0,1
79060,-76.9230769230769,4,2,73,84,0,1
79241,-76.9230769230769,4,2,74,84,0,1
79692,-76.9230769230769,4,2,1,84,0,1
79783,-133.333333333333,4,2,76,84,0,1
80144,-133.333333333333,4,2,77,84,0,1
80506,-133.333333333333,4,2,78,84,0,1
80626,-133.333333333333,4,2,14,84,0,1
81228,-133.333333333333,4,2,15,84,0,1
81861,-133.333333333333,4,2,15,5,0,1
81951,-133.333333333333,4,2,79,84,0,1
82313,-133.333333333333,4,2,80,84,0,1
82494,-76.9230769230769,4,2,80,84,0,1
82855,-76.9230769230769,4,2,81,84,0,1
83216,-76.9230769230769,4,2,82,84,0,1
83578,-76.9230769230769,4,2,83,84,0,1
83759,-76.9230769230769,4,2,84,84,0,1
84120,-50,4,2,84,84,0,1
84391,-50,4,2,84,5,0,1
84481,-76.9230769230769,4,2,85,84,0,1
84752,-76.9230769230769,4,2,85,5,0,1
84843,-76.9230769230769,4,2,85,84,0,1
85024,-76.9230769230769,4,2,86,84,0,1
85204,-76.9230769230769,4,2,87,84,0,1
85927,-76.9230769230769,4,2,88,84,0,1
86469,-76.9230769230769,4,2,89,84,0,1
87012,-50,4,2,90,84,0,1
87283,-50,4,2,90,5,0,1
87373,-50,4,2,91,84,0,1
87463,-50,4,2,1,84,0,1
87734,-149.253731343284,4,2,92,84,0,1
88005,-149.253731343284,4,2,92,5,0,1
88096,-57.1428571428571,4,2,30,84,0,1
88367,-57.1428571428571,4,2,30,5,0,1
88457,-57.1428571428571,4,2,93,84,0,1
88819,-66.6666666666667,4,2,93,84,0,1
89090,-66.6666666666667,4,2,93,5,0,1
89180,-76.9230769230769,4,2,94,84,0,1
89361,-76.9230769230769,4,2,30,84,0,1
89542,-66.6666666666667,4,2,95,84,0,1
89813,-66.6666666666667,4,2,95,5,0,1
89903,-66.6666666666667,4,2,96,84,0,1
90265,-57.1428571428571,4,2,97,84,0,1
90536,-57.1428571428571,4,2,97,5,0,1
90626,-76.9230769230769,4,2,98,84,0,1
90807,-76.9230769230769,4,2,99,84,0,1
90987,-76.9230769230769,4,2,100,84,0,1
91530,-76.9230769230769,4,2,101,84,0,1
92795,-76.9230769230769,4,2,102,84,0,1
92975,-76.9230769230769,4,2,16,84,0,1
93427,-76.9230769230769,4,2,17,84,0,1
93518,-76.9230769230769,4,2,103,84,0,1
93879,-100,4,2,104,84,0,1
94060,-76.9230769230769,4,2,104,84,0,1
94421,-76.9230769230769,4,2,105,84,0,1
94783,-76.9230769230769,4,2,106,84,0,1
95144,-76.9230769230769,4,2,107,84,0,1
95505,-76.9230769230769,4,2,108,84,0,1
95867,-57.1428571428571,4,2,109,84,0,1
95957,-57.1428571428571,4,2,109,5,0,1
96048,-57.1428571428571,4,2,109,84,0,1
96138,-57.1428571428571,4,2,109,5,0,1
96228,-57.1428571428571,4,2,109,84,0,1
96318,-57.1428571428571,4,2,109,5,0,1
96409,-57.1428571428571,4,2,111,84,0,1
96771,-100,4,2,112,84,0,1
97403,-100,4,2,113,84,0,1
97494,-100,4,2,114,84,0,1
97945,-100,4,2,115,84,0,1
98216,-100,4,2,116,84,0,1
98397,-76.9230769230769,4,2,116,84,0,1
98759,-57.1428571428571,4,2,117,84,0,1
98849,-57.1428571428571,4,2,117,5,0,1
98939,-57.1428571428571,4,2,117,84,0,1
99029,-57.1428571428571,4,2,117,5,0,1
99120,-57.1428571428571,4,2,117,84,0,1
99210,-57.1428571428571,4,2,117,5,0,1
99301,-57.1428571428571,4,2,119,84,0,1
99662,-57.1428571428571,4,2,120,84,0,1
100024,-57.1428571428571,4,2,121,84,0,1
100204,-76.9230769230769,4,2,121,84,0,1
100294,-76.9230769230769,4,2,121,64,0,1
100385,-57.1428571428571,4,2,122,84,0,1
100747,-76.9230769230769,4,2,123,84,0,1
101108,-57.1428571428571,4,2,124,84,0,1
101469,-57.1428571428571,4,2,125,84,0,1
101650,-57.1428571428571,4,2,126,84,0,1
101740,-57.1428571428571,4,2,126,5,0,1
101831,-57.1428571428571,4,2,127,84,0,1
101921,-57.1428571428571,4,2,127,5,0,1
102012,-57.1428571428571,4,2,128,84,0,1
102102,-57.1428571428571,4,2,128,5,0,1
102192,-57.1428571428571,4,2,129,84,0,1
102373,-57.1428571428571,4,2,130,84,0,1
102554,-57.1428571428571,4,2,131,84,0,1
103277,-57.1428571428571,4,2,132,84,0,1
103638,-57.1428571428571,4,2,133,84,0,1
103759,-57.1428571428571,4,2,18,84,0,1
104361,-57.1428571428571,4,2,19,84,0,1
104722,-133.333333333333,4,2,19,84,0,1
104993,-133.333333333333,4,2,19,5,0,1
105084,-133.333333333333,4,2,1,65,0,0
107614,-100,4,2,1,65,0,0
107885,-100,4,2,1,5,0,0
107975,-100,4,2,1,65,0,0
108156,-133.333333333333,4,2,1,65,0,0
110506,-100,4,2,1,65,0,0
110777,-100,4,2,1,5,0,0
110867,-100,4,2,1,65,0,0
115024,-133.333333333333,4,2,1,65,0,0
115204,-100,4,2,1,65,0,0
115385,-133.333333333333,4,2,1,65,0,0
115566,-100,4,2,1,65,0,0
115747,-133.333333333333,4,2,1,65,0,0

[Colours]
Combo1 : 253,169,28
Combo2 : 234,72,117
Combo3 : 112,150,220
Combo4 : 222,113,225
Combo5 : 237,199,67
Combo6 : 244,15,130
Combo7 : 54,113,250
Combo8 : 216,64,242

[HitObjects]
88,88,626,5,0,2:0:0:0:
192,160,807,1,0,2:0:0:0:
48,208,988,6,0,B|32:243|32:243|84:272|100:232|153:261,1,162,2|0,1:3|2:0,2:0:0:0:
192,320,1349,5,2,2:0:0:0:
144,332,1439,1,2,2:0:0:0:
188,348,1530,5,2,2:0:0:0:
164,354,1620,1,2,2:0:0:0:
492,336,1891,69,2,2:0:0:0:
320,368,2072,1,2,2:0:0:0:
432,300,2253,1,2,2:0:0:0:
364,312,2433,1,2,1:3:0:0:
496,152,2614,1,0,2:0:0:0:
452,88,2795,5,2,2:0:0:0:
432,192,2975,1,2,2:0:0:0:
484,120,3156,5,2,2:0:0:0:
474,172,3337,1,2,2:0:0:0:
404,128,3518,5,2,2:0:0:0:
496,152,3698,1,0,2:0:0:0:
360,0,3879,70,0,B|384:46|349:84|341:69|307:103|328:147,1,162,2|0,1:3|2:0,2:0:0:0:
400,124,4241,2,0,B|394:73|344:63|345:80|298:71|290:23,1,162,2|0,2:0|2:0,2:0:0:0:
254,99,4602,6,0,B|329:92|284:64|331:29|389:32|368:80|435:44,1,202.5,2|0,1:3|2:0,2:0:0:0:
320,0,4963,5,2,2:0:0:0:
336,52,5054,1,2,2:0:0:0:
352,104,5144,1,0,2:0:0:0:
184,108,5325,6,0,B|87:132|136:64|58:30|-30:25|-68:93|-15:185|53:185|53:108|126:142,1,378,2|0,1:3|2:0,2:0:0:0:
180,184,6048,70,2,B|111:197|106:111|17:124|-8:186|0:242|100:223|201:202|210:259|184:320|95:334|90:248|31:265,1,441,2|0,2:0|2:0,2:1:0:0:
36,340,6771,5,2,1:3:0:0:
405,259,7132,2,0,P|301:226|257:325,1,236.250000000001,0|0,2:0|2:0,2:0:0:0:
265,323,7855,1,0,2:0:0:0:
120,139,8216,6,0,B|215:84|303:177|216:217|304:310|403:258,1,360,2|2,1:3|2:0,2:0:0:0:
404,257,9301,1,0,2:0:0:0:
104,20,9662,6,0,B|75:73|113:56|116:103|87:141|65:105|59:165,1,162,2|0,1:3|2:0,2:0:0:0:
135,154,10024,70,0,B|85:119|128:117|109:74|68:53|63:95|31:43,1,162,2|0,2:0|2:0,2:0:0:0:
85,95,10385,6,0,P|150:100|200:57,1,135,2|0,1:3|2:0,2:0:0:0:
132,0,10747,5,2,2:0:0:0:
91,40,10837,1,2,2:0:0:0:
85,95,10927,1,0,2:0:0:0:
256,168,11108,6,0,B|280:71|212:120|178:42|173:-46|241:-84|333:-31|333:37|256:37|290:110,1,378,2|0,1:3|2:0,2:0:0:0:
392,88,11831,70,0,B|308:40|231:122|307:157|230:239|143:193,1,315,2|0,1:3|2:0,2:0:0:0:
144,272,12554,5,4,1:2:0:0:
0,308,12734,1,2,2:1:0:0:
140,360,12915,1,8,2:0:0:0:
324,324,13096,5,2,2:1:0:0:
212,336,13277,2,0,P|189:333|168:328,2,45,0|0|2,2:0|2:0|2:1,2:0:0:0:
332,316,13638,1,8,2:0:0:0:
164,320,13819,1,2,2:1:0:0:
416,256,14000,5,4,1:2:0:0:
256,264,14180,1,2,2:1:0:0:
116,184,14361,1,8,2:0:0:0:
276,188,14542,1,2,2:1:0:0:
124,260,14722,2,0,P|93:262|68:260,2,45,0|0|2,2:0|2:0|2:1,2:0:0:0:
336,244,15084,70,0,B|290:220|252:255|267:263|233:297|189:276,1,162,4|0,1:2|2:0,2:0:0:0:
76,264,15445,5,4,1:2:0:0:
124,24,15626,1,2,2:1:0:0:
46,187,15807,1,8,2:0:0:0:
218,178,15987,1,2,2:1:0:0:
94,130,16168,1,0,2:0:0:0:
125,62,16349,1,2,2:1:0:0:
166,125,16530,2,0,P|162:182|146:240,1,90,8|2,2:0|2:1,2:0:0:0:
240,328,16891,5,4,1:0:0:0:
288,276,17072,1,2,2:1:0:0:
152,216,17253,1,8,2:0:0:0:
372,208,17433,1,2,2:1:0:0:
260,92,17614,6,0,B|216:128|176:36|103:83|140:120|208:100,1,168.75,0|0,1:0|2:0,2:0:0:0:
368,200,17975,70,0,B|416:184|412:248|444:208|428:168|356:160|344:196|295:192,1,189,4|0,1:2|2:0,2:0:0:0:
152,240,18337,5,4,1:2:0:0:
8,204,18518,1,2,2:1:0:0:
148,152,18698,1,8,2:0:0:0:
332,188,18879,5,2,2:1:0:0:
220,176,19060,2,0,P|197:178|176:184,2,45,0|0|2,2:0|2:0|2:1,2:0:0:0:
340,196,19421,1,8,2:0:0:0:
172,192,19602,1,2,2:1:0:0:
360,260,19783,5,4,1:2:0:0:
504,332,19963,1,2,2:1:0:0:
404,356,20144,1,8,2:0:0:0:
484,176,20325,1,2,2:1:0:0:
350,312,20506,2,0,P|353:290|354:264,2,45,0|0|2,1:0|2:0|2:1,2:0:0:0:
495,252,20867,2,0,B|443:268|411:225|428:220|399:179|351:193,1,168.75,4|0,1:2|2:0,2:0:0:0:
300,136,21228,69,4,1:2:0:0:
120,128,21409,1,2,2:1:0:0:
280,208,21590,1,8,2:0:0:0:
244,68,21771,1,2,2:1:0:0:
144,288,21951,5,4,1:2:0:0:
116,204,22132,1,2,2:1:0:0:
228,264,22313,2,0,P|204:276|168:308,1,45,8|0,2:0|2:0,2:0:0:0:
136,376,22494,2,0,L|128:324,1,45,2|0,2:1|2:0,2:0:0:0:
40,256,22674,5,4,1:2:0:0:
88,268,22765,1,0,3:0:0:0:
132,244,22855,1,2,3:1:0:0:
148,196,22945,1,0,3:0:0:0:
128,148,23036,1,2,1:2:0:0:
148,104,23126,1,0,3:0:0:0:
196,84,23216,2,0,P|220:84|256:96,1,56.25,2|0,3:1|3:0,3:0:0:0:
336,196,23397,6,0,P|332:219|316:244,2,37.5,6|0|0,1:2|3:0|3:0,2:0:0:0:
176,188,23578,2,0,P|181:164|196:140,2,37.5,0|0|0,3:0|3:0|3:0,2:0:0:0:
198,309,23759,6,0,P|214:304|239:289,1,37.5,2|0,1:2|3:0,2:0:0:0:
284,301,23879,6,0,P|271:289|246:275,1,37.5,2|0,3:2|3:0,2:0:0:0:
237,231,24000,6,0,P|233:247|233:276,1,37.5,2|0,3:2|3:0,2:0:0:0:
256,304,24120,22,0,P|272:192|304:124,1,168.75,4|0,2:1|2:0,2:0:0:0:
330,115,24481,1,2,2:0:0:0:
372,135,24662,1,2,2:0:0:0:
384,20,24843,5,2,2:0:0:0:
393,34,25024,1,2,2:0:0:0:
408,30,25204,1,2,2:0:0:0:
384,212,25566,5,2,2:0:0:0:
392,256,25747,1,2,2:0:0:0:
424,288,25927,1,2,2:0:0:0:
432,332,26108,1,2,2:0:0:0:
344,360,26289,5,2,2:0:0:0:
344,360,26650,2,0,B|301:387|249:359|281:335|233:311|192:341,1,168.75,4|0,2:1|2:0,2:0:0:0:
256,304,27012,70,0,P|240:192|208:124,1,168.75,4|0,2:0|2:0,2:0:0:0:
182,115,27373,1,2,2:0:0:0:
140,135,27554,1,2,2:0:0:0:
128,20,27734,5,2,2:0:0:0:
119,34,27915,1,2,2:0:0:0:
104,30,28096,1,2,2:0:0:0:
128,212,28457,5,2,2:0:0:0:
120,256,28638,1,2,2:0:0:0:
88,288,28819,1,2,2:0:0:0:
80,332,29000,1,2,2:0:0:0:
60,160,29180,5,2,2:0:0:0:
416,0,29903,70,0,P|448:18|508:64,1,90,4|0,3:1|2:0,2:0:0:0:
340,104,30265,1,2,3:2:0:0:
332,20,30445,1,2,3:2:0:0:
456,128,30626,2,0,B|425:156|436:203|462:183|471:225|438:251,1,135,8|0,2:3|2:0,2:0:0:0:
434,255,30987,1,2,3:2:0:0:
344,204,31168,1,2,2:0:0:0:
480,324,31349,5,0,3:0:0:0:
368,304,31530,1,2,2:0:0:0:
280,376,31710,1,2,2:0:0:0:
480,324,31891,5,0,3:0:0:0:
496,328,31981,1,0,3:0:0:0:
512,332,32072,2,0,P|468:340|416:352,1,90,8|0,2:3|3:0,2:0:0:0:
512,332,32433,6,0,B|488:376|488:376|496:248,1,168.75,4|0,3:0|2:0,2:0:0:0:
500,180,32795,70,0,L|408:196,1,90,4|2,3:1|2:0,2:0:0:0:
440,104,33156,1,2,3:2:0:0:
392,176,33337,1,0,3:2:0:0:
296,24,33518,6,0,B|348:68|348:68|329:132,1,135,8|0,2:3|2:0,2:0:0:0:
322,152,33879,1,0,3:1:0:0:
424,100,34060,1,2,2:0:0:0:
228,80,34241,5,2,3:2:0:0:
248,192,34421,1,2,3:2:0:0:
268,304,34602,1,0,2:0:0:0:
228,80,34783,5,2,3:2:0:0:
224,64,34873,1,0,3:0:0:0:
220,48,34963,2,0,P|212:92|200:144,1,90,8|0,2:3|2:0,2:0:0:0:
220,48,35325,70,0,B|184:0|112:8|112:8|120:64,1,168.75,4|0,3:0|2:0,2:0:0:0:
124,136,35686,6,0,L|28:116,1,90,4|2,3:1|2:0,2:0:0:0:
112,8,36048,1,2,3:2:0:0:
68,212,36228,1,2,3:2:0:0:
236,124,36409,6,0,B|202:100|159:120|184:141|144:158|113:132,1,135,8|0,2:3|2:0,2:0:0:0:
124,136,36771,1,2,3:2:0:0:
148,228,36951,1,2,2:0:0:0:
108,332,37132,5,0,3:0:0:0:
220,312,37313,1,2,3:2:0:0:
308,384,37494,1,2,2:0:0:0:
108,332,37674,69,0,3:0:0:0:
92,336,37765,1,0,3:0:0:0:
80,340,37855,2,0,P|124:348|176:360,1,90,8|0,2:3|3:0,2:0:0:0:
80,340,38216,6,0,B|36:316|36:316|164:324,1,168.75,4|0,3:0|2:0,2:0:0:0:
40,276,38578,38,0,P|56:224|104:216,1,90,4|0,3:2|2:0,2:0:0:0:
204,232,38819,2,0,P|241:271|223:317,1,90,2|0,3:2|2:0,2:0:0:0:
120,384,39060,1,0,3:0:0:0:
204,232,39301,6,0,P|256:216|264:168,1,84,12|0,3:0|2:0,2:0:0:0:
324,64,39542,2,0,P|311:117|349:147,1,84,2|0,3:2|2:0,2:0:0:0:
432,286,39783,2,0,P|397:235|339:215,1,126,2|0,2:0|2:0,2:0:0:0:
344,220,40024,6,0,P|336:179|312:163,1,72,4|0,3:0|2:0,2:0:0:0:
221,320,40265,2,0,P|288:348|332:299,1,144,2|0,2:0|3:0,2:0:0:0:
344,220,40626,1,0,3:0:0:0:
260,208,40747,1,12,3:0:0:0:
260,208,41469,38,0,L|252:104,1,90,4|2,3:1|2:0,2:0:0:0:
264,252,41831,1,2,3:2:0:0:
251,76,42012,1,2,3:2:0:0:
330,158,42192,2,0,B|294:192|240:176|265:147|215:134|182:170,1,162,8|0,2:3|2:0,2:0:0:0:
176,180,42554,5,0,3:1:0:0:
340,168,42734,1,2,2:0:0:0:
112,128,42915,5,0,3:0:0:0:
249,33,43096,1,2,3:2:0:0:
396,112,43277,1,2,2:0:0:0:
208,196,43457,69,0,3:0:0:0:
256,172,43548,1,0,3:0:0:0:
308,192,43638,2,0,B|259:225|259:225|191:186,1,117,8|0,2:3|3:0,2:0:0:0:
92,11,44000,6,0,B|88:91|88:91|96:91|96:91|92:171,1,168.75,4|0,2:3|3:0,2:0:0:0:
52,248,44361,6,0,L|156:240,1,90,4|2,3:1|2:0,2:0:0:0:
8,252,44722,1,2,3:2:0:0:
184,239,44903,1,2,3:2:0:0:
102,318,45084,2,0,B|68:282|84:228|113:253|126:203|90:170,1,162,8|0,2:3|2:0,2:0:0:0:
80,164,45445,5,0,3:1:0:0:
92,328,45626,1,2,2:0:0:0:
132,100,45807,69,0,3:0:0:0:
224,236,45987,1,2,3:2:0:0:
148,384,46168,1,2,2:0:0:0:
72,208,46349,5,0,3:0:0:0:
112,244,46439,1,0,3:0:0:0:
72,280,46530,2,0,B|26:245|26:245|72:208,1,117,8|0,2:3|3:0,2:0:0:0:
262,83,46891,6,0,B|277:161|277:161|269:162|269:162|284:241,1,168.75,4|0,2:3|3:0,2:0:0:0:
332,292,47253,6,0,L|312:404,1,90,4|2,3:1|2:0,2:0:0:0:
224,276,47614,1,2,3:2:0:0:
347,212,47795,1,2,3:2:0:0:
420,384,47975,70,0,P|408:316|420:252,1,135,8|0,2:3|2:0,2:0:0:0:
340,384,48337,2,0,P|328:316|340:252,1,135,2|0,3:2|2:0,2:0:0:0:
492,212,48698,6,0,B|518:167|431:123|427:211|376:181,1,162,2|0,3:2|2:0,2:0:0:0:
364,168,49060,1,2,2:0:0:0:
328,100,49241,1,2,3:2:0:0:
488,80,49421,2,0,P|410:85|392:4,1,162,8|0,2:3|2:0,2:0:0:0:
392,0,49783,6,0,B|440:24|440:24|355:27|316:52,1,168.75,4|0,2:3|2:0,2:0:0:0:
252,32,50144,6,0,P|179:49|174:124,1,162,4|0,3:1|2:0,2:0:0:0:
192,200,50506,2,0,P|235:196|248:156,1,90,2|0,3:2|3:0,2:0:0:0:
45,95,50867,70,0,P|118:103|187:132,1,135,4|0,2:1|2:0,2:0:0:0:
192,200,51228,2,0,P|146:256|82:296,1,135,2|0,3:2|2:0,2:0:0:0:
16,204,51590,1,4,3:2:0:0:
112,68,51771,6,0,P|134:19|259:41,1,180,0|0,3:0|3:0,2:0:0:0:
252,36,52222,1,0,3:0:0:0:
244,104,52313,5,4,2:0:0:0:
308,168,52494,1,0,3:0:0:0:
232,228,52674,1,0,3:0:0:0:
292,316,52855,1,0,3:0:0:0:
360,76,53036,5,12,3:2:0:0:
446,50,53216,2,0,L|516:30,2,67.5000000000002,2|2|4,3:2|3:1|3:1,2:0:0:0:
379,166,53759,2,0,P|342:167|312:153,1,67.5000000000002,8|2,3:1|3:0,2:0:0:0:
236,74,54120,2,0,P|199:74|169:88,1,67.5000000000002,2|2,3:2|3:1,2:0:0:0:
19,69,54481,70,0,P|2:105|3:139,1,67.5000000000002,4|8,3:1|3:1,2:0:0:0:
92,137,54843,1,2,3:0:0:0:
145,212,55024,2,0,P|141:244|134:281,1,67.5000000000002,2|2,3:2|3:1,2:0:0:0:
240,365,55385,2,0,P|235:332|230:299,1,67.5000000000002,4|8,3:1|3:1,2:0:0:0:
458,217,55927,6,0,L|515:229,2,56.9999999999999,14|2|2,3:0|3:2|3:1,2:0:0:0:
387,155,56289,1,10,3:0:0:0:
387,155,56409,1,4,3:1:0:0:
387,155,56530,1,8,3:1:0:0:
284,173,56650,2,0,P|286:203|299:235,2,56.9999999999999,14|2|2,3:0|3:2|3:1,2:0:0:0:
211,91,57012,1,10,3:0:0:0:
211,91,57132,1,2,3:2:0:0:
211,91,57253,1,2,3:1:0:0:
108,41,57373,6,0,P|80:40|36:64,1,78.75,12|8,3:2|2:1,2:0:0:0:
32,80,58096,5,2,3:2:0:0:
48,236,58457,1,2,2:0:0:0:
308,296,58819,5,6,1:2:0:0:
132,240,59000,1,10,2:1:0:0:
120,292,59090,1,2,2:3:0:0:
172,276,59180,1,10,1:2:0:0:
104,152,59361,1,2,2:1:0:0:
232,336,59542,5,8,1:0:0:0:
100,376,59722,1,10,2:1:0:0:
212,172,59903,2,0,P|229:189|256:240,1,58.5,8|0,1:2|2:0,2:0:0:0:
24,288,60084,2,0,P|23:264|40:209,1,58.5,10|0,2:1|2:0,2:0:0:0:
96,40,60265,5,2,1:2:0:0:
232,80,60445,1,10,2:1:0:0:
212,104,60536,1,2,2:0:0:0:
188,84,60626,1,10,1:2:0:0:
204,0,60807,1,2,2:1:0:0:
474,29,60987,70,0,B|434:63|383:41|415:14|359:-10|316:20,1,175.5,8|0,1:0|2:0,2:0:0:0:
300,120,61349,6,0,B|359:146|338:106|388:99|432:126|395:154|460:154,1,175.5,10|0,1:2|2:0,2:0:0:0:
360,224,61710,5,12,1:0:0:0:
184,280,61891,1,10,2:1:0:0:
172,228,61981,1,2,2:0:0:0:
224,244,62072,1,10,1:2:0:0:
156,368,62253,1,2,2:1:0:0:
284,184,62433,5,8,1:0:0:0:
152,144,62614,1,2,2:1:0:0:
299,302,62795,2,0,P|284:326|264:348,1,58.5,10|0,1:2|2:0,2:0:0:0:
81,289,62975,2,0,P|75:261|76:232,1,58.5,2|0,2:1|2:0,2:0:0:0:
232,116,63156,5,8,1:0:0:0:
280,20,63337,1,10,1:0:0:0:
254,2,63427,1,2,2:0:0:0:
236,27,63518,1,12,1:2:0:0:
316,104,63698,1,2,1:0:0:0:
475,36,63879,86,0,P|408:87|419:170,1,175.5,12|0,1:0|2:0,2:0:0:0:
476,336,64241,5,12,1:0:0:0:
440,344,64331,1,2,2:0:0:0:
404,316,64421,1,2,2:0:0:0:
408,252,64512,1,2,2:0:0:0:
480,228,64602,5,12,1:0:0:0:
216,356,64963,2,0,B|163:386|62:382|47:360|98:322|137:373,1,175.5,8|0,2:3|2:0,2:0:0:0:
20,316,65325,69,12,1:0:0:0:
280,316,65506,1,2,2:1:0:0:
156,144,65686,2,0,B|110:180|69:86|-5:134|32:172|102:152,1,175.5,10|0,2:3|2:0,2:0:0:0:
128,224,66048,6,0,P|160:228|188:224,1,58.5,12|0,1:0|2:0,2:0:0:0:
382,151,66228,1,2,2:1:0:0:
256,28,66409,6,0,B|282:50|307:-6|352:22|329:45|287:32,1,117,14|0,2:3|2:1,2:0:0:0:
93,119,66771,2,0,B|46:121|65:65|27:93|32:133|94:157|113:128|155:143,1,175.5,12|0,1:0|2:0,2:0:0:0:
185,224,67132,6,0,P|219:132|314:114,1,202.5,14|0,2:3|2:0,2:0:0:0:
416,224,67494,70,0,P|424:248|420:288,1,58.5,12|0,1:0|2:0,2:0:0:0:
300,340,67674,1,10,2:1:0:0:
280,336,67765,1,2,2:0:0:0:
276,356,67855,2,0,P|299:370|392:336,1,117,10|2,1:2|2:1,2:0:0:0:
382,151,68216,1,8,1:0:0:0:
348,172,68307,1,2,2:3:0:0:
340,212,68397,1,10,2:1:0:0:
500,264,68578,5,10,1:2:0:0:
348,172,68759,1,2,2:1:0:0:
144,364,68939,2,0,P|172:223|204:148,1,175.5,2|0,1:3|2:0,2:0:0:0:
256,104,69301,1,8,1:2:0:0:
256,112,69662,5,2,1:2:0:0:
56,16,69843,1,2,3:2:0:0:
88,32,69933,1,2,3:1:0:0:
80,60,70024,1,4,3:1:0:0:
100,72,70114,1,8,3:1:0:0:
96,88,70204,1,2,3:0:0:0:
104,96,70295,1,2,3:2:0:0:
104,100,70385,5,6,1:2:0:0:
24,236,70566,1,10,2:1:0:0:
68,260,70656,1,2,2:3:0:0:
76,312,70747,2,0,P|68:340|60:360,1,45,10|0,1:2|2:0,2:0:0:0:
168,332,70927,70,0,P|146:277|139:219,1,117,10|0,2:1|1:0,2:0:0:0:
244,348,71289,1,10,2:1:0:0:
4,308,71469,1,10,1:2:0:0:
200,172,71650,1,10,2:1:0:0:
112,152,71831,5,2,1:2:0:0:
248,160,72012,1,10,2:1:0:0:
272,204,72102,1,2,2:0:0:0:
324,212,72192,2,0,P|352:204|372:196,1,45,10|0,1:2|2:0,2:0:0:0:
348,20,72373,6,0,P|340:77|318:132,1,117,10|2,2:1|1:3,2:0:0:0:
160,268,72734,1,10,1:0:0:0:
160,268,72915,1,10,1:2:0:0:
160,268,73096,1,10,1:0:0:0:
416,328,73277,5,2,1:3:0:0:
488,232,73457,1,10,2:1:0:0:
444,208,73548,1,2,2:0:0:0:
436,156,73638,2,0,P|444:128|452:108,1,45,10|0,1:2|2:0,2:0:0:0:
505,23,73819,69,10,2:1:0:0:
502,54,73909,1,2,2:0:0:0:
474,38,74000,1,2,1:2:0:0:
352,4,74180,5,10,2:1:0:0:
340,0,74271,1,2,2:3:0:0:
312,16,74361,2,0,L|320:72,1,45,10|0,1:2|2:0,2:0:0:0:
244,148,74542,2,0,L|252:92,1,45,10|0,2:1|2:0,2:0:0:0:
356,228,74722,5,2,1:3:0:0:
308,216,74813,1,2,2:0:0:0:
352,200,74903,5,10,2:1:0:0:
328,194,74994,1,2,2:0:0:0:
345,182,75084,69,10,1:2:0:0:
312,16,75265,2,0,P|319:44|319:73,1,58.5,10|0,2:1|2:0,2:0:0:0:
204,164,75445,1,2,1:3:0:0:
96,48,75626,5,10,1:0:0:0:
96,48,75807,1,10,1:2:0:0:
96,48,75987,1,10,1:0:0:0:
112,296,76168,5,12,1:0:0:0:
0,176,76349,1,10,2:1:0:0:
164,232,76530,2,0,P|104:244|32:240,1,117,10|10,1:2|2:1,2:0:0:0:
209,137,76891,5,2,1:2:0:0:
201,149,76981,1,2,2:3:0:0:
204,164,77072,1,10,2:1:0:0:
288,304,77253,1,10,1:2:0:0:
448,272,77433,1,10,2:1:0:0:
336,44,77614,69,12,1:0:0:0:
296,56,77704,1,2,2:0:0:0:
288,96,77795,1,10,2:1:0:0:
400,136,77975,1,10,1:2:0:0:
180,144,78156,1,10,2:1:0:0:
292,184,78337,2,0,P|296:212|295:243,1,58.5,2|0,1:2|2:0,2:0:0:0:
300,344,78518,5,10,1:0:0:0:
300,344,78698,1,10,1:2:0:0:
300,344,78879,1,10,1:0:0:0:
288,96,79060,5,12,1:0:0:0:
204,120,79241,1,10,2:1:0:0:
192,124,79331,1,2,2:0:0:0:
180,124,79421,1,2,2:3:0:0:
204,12,79602,5,10,2:1:0:0:
184,4,79692,1,2,2:0:0:0:
141,18,79783,2,0,L|150:61,1,33.7500000000001,10|0,1:2|2:0,2:0:0:0:
276,64,79963,69,10,2:1:0:0:
276,64,80054,1,2,2:3:0:0:
276,64,80144,2,0,L|267:21,1,33.7500000000001,10|0,2:0|2:0,2:0:0:0:
96,113,80325,5,10,2:1:0:0:
89,137,80415,1,8,2:1:0:0:
102,159,80506,5,12,1:0:0:0:
148,212,80626,5,2,3:2:0:0:
152,276,80747,69,2,3:1:0:0:
120,320,80867,5,4,3:1:0:0:
72,324,80987,5,8,3:1:0:0:
48,292,81108,5,2,3:0:0:0:
60,264,81228,69,2,3:2:0:0:
84,260,81349,5,2,3:1:0:0:
96,268,81469,5,4,3:1:0:0:
96,276,81590,6,0,P|132:292|200:288,1,101.25,8|0,3:1|2:0,2:0:0:0:
248,350,81951,69,6,1:2:0:0:
184,176,82132,1,10,3:1:0:0:
236,164,82222,1,2,3:0:0:0:
220,216,82313,1,10,1:2:0:0:
119,312,82494,6,0,P|61:308|8:284,1,117,2|8,3:1|1:0,2:0:0:0:
248,350,82855,1,10,3:1:0:0:
220,216,83036,1,8,1:2:0:0:
192,80,83216,2,0,P|199:48|215:6,1,58.5,10|0,3:1|2:0,2:0:0:0:
420,60,83397,5,2,1:2:0:0:
280,28,83578,1,10,3:1:0:0:
300,4,83668,1,2,3:2:0:0:
324,24,83759,1,10,1:2:0:0:
320,212,83939,1,2,3:1:0:0:
192,80,84120,6,0,B|203:40|172:-5|112:-2|112:-2|63:29|65:85|97:110,1,270,8|0,1:0|2:0,2:0:0:0:
248,144,84481,70,0,B|191:175|208:133|158:130|117:161|156:186|91:191,1,175.5,10|0,1:2|2:0,2:0:0:0:
204,276,84843,5,8,1:0:0:0:
296,192,85024,1,10,3:1:0:0:
308,244,85114,1,2,3:2:0:0:
256,228,85204,1,10,1:2:0:0:
159,127,85385,6,0,P|162:68|186:15,1,117,2|8,3:1|1:0,2:0:0:0:
122,256,85747,1,2,3:1:0:0:
256,228,85927,1,10,1:2:0:0:
392,200,86108,2,0,P|424:207|466:223,1,58.5,2|0,3:1|2:0,2:0:0:0:
296,384,86289,5,8,1:0:0:0:
328,244,86469,1,10,2:1:0:0:
352,264,86560,1,2,3:2:0:0:
332,288,86650,1,12,1:2:0:0:
144,284,86831,1,2,2:1:0:0:
276,156,87012,70,0,B|316:167|361:136|358:76|358:76|327:27|271:29|246:61,1,270,2|0,1:2|2:0,2:0:0:0:
236,72,87373,5,10,1:2:0:0:
244,36,87463,1,2,2:0:0:0:
216,0,87554,1,2,2:0:0:0:
152,4,87644,1,2,2:0:0:0:
128,76,87734,6,0,P|133:114|164:160,1,90.4499999999997,12|0,1:0|2:0,2:0:0:0:
176,156,88096,6,0,B|141:132|109:157|151:205|106:237|35:211|22:158|84:148|76:109|34:104,1,236.25,8|0,1:2|2:0,2:0:0:0:
128,76,88457,69,12,1:0:0:0:
128,276,88638,1,2,3:1:0:0:
304,180,88819,2,0,B|354:219|400:113|484:167|441:211|362:188,1,202.5,10|0,1:2|2:0,2:0:0:0:
412,268,89180,6,0,P|380:272|352:268,1,58.5,12|0,1:0|2:0,2:0:0:0:
232,248,89361,1,2,3:1:0:0:
264,52,89542,6,0,B|200:61|213:-50|116:-45|132:11|208:29,1,202.5,12|0,1:0|2:0,2:0:0:0:
376,88,89903,2,0,B|411:89|397:47|426:68|422:99|374:118|360:95|327:107,1,135,12|2,1:0|3:1,2:0:0:0:
24,124,90265,6,0,B|59:148|91:123|49:75|94:43|165:69|178:122|116:132|124:171|166:176,1,236.25,12|0,1:0|2:0,2:0:0:0:
360,260,90626,70,0,P|336:268|296:264,1,58.5,12|0,1:0|2:0,2:0:0:0:
244,144,90807,1,10,3:1:0:0:
248,124,90897,1,2,3:2:0:0:
228,120,90987,2,0,P|214:143|248:236,1,117,10|2,1:2|3:1,2:0:0:0:
433,226,91349,1,8,1:0:0:0:
412,192,91439,1,2,3:0:0:0:
372,184,91530,1,10,3:1:0:0:
320,344,91710,5,10,1:2:0:0:
412,192,91891,1,2,3:1:0:0:
208,0,92072,6,0,P|262:21|308:55,1,117,2|2,1:3|3:1,2:0:0:0:
232,208,92433,2,0,P|177:186|131:152,1,117,8|2,1:2|3:1,2:0:0:0:
56,24,92795,5,2,1:2:0:0:
72,296,92975,1,2,3:2:0:0:
40,312,93066,1,2,3:1:0:0:
48,340,93156,1,4,3:1:0:0:
28,352,93247,1,8,3:1:0:0:
32,368,93337,1,2,3:0:0:0:
24,376,93427,1,2,3:2:0:0:
24,380,93518,69,6,1:2:0:0:
92,224,93698,1,10,3:1:0:0:
116,180,93789,1,2,3:0:0:0:
168,172,93879,2,0,P|196:180|216:188,1,45,10|0,1:2|2:0,2:0:0:0:
180,80,94060,6,0,P|125:102|67:109,1,117,10|0,3:1|1:0,2:0:0:0:
196,4,94421,1,10,3:1:0:0:
164,244,94602,1,10,1:2:0:0:
20,48,94783,1,10,3:1:0:0:
256,64,94963,5,2,1:2:0:0:
0,136,95144,1,10,3:1:0:0:
200,158,95325,2,0,P|142:166|88:188,1,117,10|10,1:2|3:1,2:0:0:0:
48,336,95686,1,2,1:2:0:0:
256,308,95867,6,0,B|275:290|272:311|294:309|313:299|313:279|290:266|275:274|285:291|265:293,1,78.7500000000001,10|0,1:0|2:0,2:0:0:0:
156,134,96048,2,0,B|162:158|145:146|137:165|135:187|152:197|175:183|175:166|156:166|165:148,1,78.7500000000001,10|0,1:2|2:0,2:0:0:0:
357,133,96228,2,0,B|333:127|352:118|339:101|321:89|304:99|304:125|319:134|329:117|340:134,1,78.7500000000001,10|0,1:0|2:0,2:0:0:0:
256,192,96409,69,6,1:2:0:0:
280,356,96590,1,10,3:1:0:0:
304,312,96680,1,2,3:0:0:0:
356,304,96771,2,0,P|384:312|404:320,1,45,10|0,1:2|2:0,2:0:0:0:
496,380,96951,5,10,3:1:0:0:
360,300,97132,1,2,1:3:0:0:
508,220,97313,5,10,3:1:0:0:
512,208,97403,1,2,3:2:0:0:
496,180,97494,2,0,L|440:188,1,45,10|0,1:2|2:0,2:0:0:0:
364,112,97674,2,0,L|420:120,1,45,10|0,3:1|2:0,2:0:0:0:
280,212,97855,5,2,1:3:0:0:
292,164,97945,1,2,3:2:0:0:
312,208,98036,1,10,3:1:0:0:
304,312,98216,69,10,1:2:0:0:
436,252,98397,2,0,P|405:244|375:246,1,58.5,10|0,3:1|2:0,2:0:0:0:
220,264,98578,1,2,1:3:0:0:
280,68,98759,6,0,B|292:52|315:55|315:55|324:76|308:92,1,78.7500000000001,10|0,1:0|2:0,2:0:0:0:
351,274,98939,2,0,B|359:293|345:311|345:311|322:308|316:287,1,78.7500000000001,10|0,1:2|2:0,2:0:0:0:
136,233,99120,2,0,B|116:230|107:209|107:209|121:191|143:196,1,78.7500000000001,10|0,1:0|2:0,2:0:0:0:
256,192,99301,5,6,1:2:0:0:
216,7,99481,1,10,3:1:0:0:
216,7,99572,1,8,3:1:0:0:
216,7,99662,6,0,B|187:5|177:30|217:44|202:78|152:86|127:60|160:34|142:14|116:25,1,157.5,10|10,1:2|3:1,2:0:0:0:
20,68,100024,69,6,1:2:0:0:
279,68,100204,2,0,P|283:96|279:125,1,58.5,8|8,3:1|3:1,2:0:0:0:
154,239,100385,2,0,B|117:209|84:287|22:246|54:215|111:232,1,157.5,10|10,1:2|3:1,2:0:0:0:
272,72,100747,6,0,P|268:104|272:132,1,58.5,12|2,1:0|2:0,2:0:0:0:
392,232,100927,1,2,3:0:0:0:
276,344,101108,6,0,B|270:362|297:360|280:374|263:366|259:335|275:331|273:310,1,78.7500000000001,12|0,1:0|2:0,2:0:0:0:
192,148,101289,1,2,3:2:0:0:
352,300,101469,1,12,1:0:0:0:
155,240,101650,6,0,B|134:239|142:264|125:251|127:233|155:223|163:235|182:229,1,78.7500000000001,10|0,1:0|2:0,2:0:0:0:
264,80,101831,2,0,B|276:62|250:57|270:49|284:59|279:89|265:89|260:109,1,78.7500000000001,12|0,1:0|2:0,2:0:0:0:
348,255,102012,2,0,B|357:274|375:254|372:275|356:283|333:263|339:251|325:237,1,78.7500000000001,10|0,1:0|2:0,2:0:0:0:
256,192,102192,69,12,1:0:0:0:
180,260,102373,1,10,2:1:0:0:
192,260,102463,1,2,2:0:0:0:
204,264,102554,1,10,2:0:0:0:
180,356,102734,5,10,2:1:0:0:
204,176,102915,1,2,1:3:0:0:
96,296,103096,5,10,2:1:0:0:
96,296,103277,1,10,2:0:0:0:
276,320,103457,5,10,2:1:0:0:
102,225,103638,69,2,1:2:0:0:
148,172,103759,5,2,3:2:0:0:
152,108,103879,5,2,3:1:0:0:
120,64,104000,5,4,3:1:0:0:
72,60,104120,69,8,3:1:0:0:
48,92,104241,5,2,3:0:0:0:
60,120,104361,5,2,3:2:0:0:
84,124,104481,5,2,3:1:0:0:
96,116,104602,69,4,3:1:0:0:
96,108,104722,6,0,B|133:109|113:92|138:78|167:84|153:106|189:93,1,101.25,8|0,3:1|2:0,2:0:0:0:
156,176,105084,37,4,1:2:0:0:
180,304,105265,2,0,B|142:293|108:325|137:337|105:365|68:350,1,135,2|2,1:2|2:0,2:0:0:0:
240,352,105807,5,8,2:1:0:0:
249,338,105987,1,2,2:0:0:0:
264,342,106168,1,2,2:0:0:0:
249,338,106530,5,2,1:2:0:0:
285,278,106710,1,2,1:2:0:0:
351,254,106891,1,2,2:0:0:0:
417,278,107072,1,2,2:0:0:0:
465,380,107253,5,8,2:1:0:0:
465,380,107614,2,0,P|471:307|401:320,1,135,0|0,1:0|2:0,2:0:0:0:
400,228,107975,69,4,1:2:0:0:
376,100,108156,2,0,B|414:111|448:79|419:67|451:39|488:54,1,135,2|2,1:2|2:0,2:0:0:0:
316,52,108698,5,8,2:1:0:0:
307,66,108879,1,2,2:0:0:0:
292,62,109060,1,2,2:0:0:0:
307,66,109421,5,2,1:2:0:0:
271,126,109602,1,2,2:0:0:0:
244,28,109783,1,2,2:0:0:0:
208,88,109963,1,2,2:0:0:0:
91,24,110144,5,8,2:1:0:0:
91,24,110506,2,0,P|101:92|22:83,1,135,0|0,1:0|2:0,2:0:0:0:
100,192,110867,69,4,1:2:0:0:
96,204,111048,1,2,1:2:0:0:
100,216,111228,1,2,2:0:0:0:
112,224,111409,1,2,2:0:0:0:
112,180,111590,5,8,2:1:0:0:
24,232,111771,1,2,2:0:0:0:
124,228,111951,1,2,2:0:0:0:
128,152,112313,5,0,1:0:0:0:
24,232,112494,1,2,2:0:0:0:
152,244,112674,1,2,2:0:0:0:
280,256,112855,1,2,2:0:0:0:
176,336,113036,1,8,2:1:0:0:
412,192,113759,5,4,1:2:0:0:
416,180,113939,1,2,1:2:0:0:
412,168,114120,1,2,2:0:0:0:
400,160,114301,1,2,2:0:0:0:
400,204,114481,69,8,2:1:0:0:
488,152,114662,1,2,2:0:0:0:
388,156,114843,1,2,2:0:0:0:
388,156,114933,1,2,2:0:0:0:
388,156,115024,2,0,L|340:160,1,33.7500000000001,2|0,2:0|2:0,2:0:0:0:
384,232,115204,6,0,P|386:202|396:172,1,45,4|0,1:0|2:0,2:0:0:0:
488,152,115385,2,0,P|486:179|477:206,1,33.7500000000001,2|2,2:0|2:0,2:0:0:0:
412,40,115566,6,0,P|410:70|400:100,1,45,4|0,1:2|2:0,2:0:0:0:
308,120,115747,2,0,P|304:101|304:80,1,33.7500000000001,2|2,2:0|2:0,2:0:0:0:
136,0,115927,5,12,2:1:0:0:
