osu file format v14

[General]
AudioFilename: audio.mp3
AudioLeadIn: 0
PreviewTime: 58002
Countdown: 0
SampleSet: Soft
StackLeniency: 0.5
Mode: 0
LetterboxInBreaks: 0
WidescreenStoryboard: 1

[Editor]
Bookmarks: 34869,41465
DistanceSpacing: 1
BeatDivisor: 4
GridSize: 32
TimelineZoom: 2

[Metadata]
Title:Shiratsuyu no Kaze
TitleUnicode:白露の風
Artist:Qrispy Joybox feat. Yu Tokiwa
ArtistUnicode:Qrispy Joybox feat. 常盤ゆう
Creator:MianYa
Version:Yua's Insane
Source:beatmania IIDX 22 PENDUAL
Tags:想歌 風 japanese SOUKA KAZE tatsuya iyama __ag LeeGod yua -yua Sanayui game reflec beat groovin'!! upper plus bemani konami arcade video not your kitty not_your_kitty electronic arronchu1207
BeatmapID:4366349
BeatmapSetID:2081690

[Difficulty]
HPDrainRate:5
CircleSize:3.8
OverallDifficulty:8
ApproachRate:9
SliderMultiplier:1.6
SliderTickRate:1

[Events]
//Background and Video events
0,0,"104320878_p0.jpg",0,0
//Break Periods
//Storyboard Layer 0 (Background)
//Storyboard Layer 1 (Fail)
//Storyboard Layer 2 (Pass)
//Storyboard Layer 3 (Foreground)
//Storyboard Layer 4 (Overlay)
//Storyboard Sound Samples

[TimingPoints]
622,361.44578313253,4,2,1,100,1,0
984,361.44578313253,4,2,1,45,1,0
984,-125,4,2,1,45,0,0
1255,-125,4,2,1,5,0,0
1345,-125,4,2,1,45,0,0
2700,-125,4,2,1,45,0,0
2791,-125,4,2,1,45,0,0
4146,-125,4,2,1,45,0,0
4237,-125,4,2,1,45,0,0
4508,-125,4,2,1,45,0,0
4598,-125,4,2,1,45,0,0
4869,-125,4,2,1,5,0,0
4959,-125,4,2,1,45,0,0
5953,-125,4,2,1,45,0,0
6044,-200,4,2,1,45,0,0
6767,-125,4,2,1,45,0,0
7038,-125,4,2,1,45,0,0
7128,-125,4,2,1,45,0,0
8483,-125,4,2,1,45,0,0
8574,-125,4,2,1,45,0,0
8845,-125,4,2,1,45,0,0
8935,-125,4,2,1,45,0,0
9206,-125,4,2,1,45,0,0
9297,-125,4,2,1,45,0,0
9568,-125,4,2,1,45,0,0
9658,-125,4,2,1,45,0,0
9929,-125,4,2,1,5,0,0
10020,-125,4,2,1,45,0,0
10291,-125,4,2,1,45,0,0
10381,-125,4,2,1,45,0,0
10652,-125,4,2,1,5,0,0
10743,-125,4,2,1,45,0,0
11827,-200,4,2,1,45,0,0
12459,-200,4,2,1,45,0,0
12550,-100,4,2,1,70,0,0
15351,-100,4,2,1,70,0,0
15441,-100,4,2,1,70,0,0
18243,-100,4,2,1,70,0,0
18333,-100,4,2,1,80,0,0
24116,-111.111111111111,4,2,1,60,0,0
26646,-142.857142857143,4,2,1,60,0,0
27008,-100,4,2,1,50,0,0
29176,-166.666666666667,4,2,1,50,0,0
29809,-166.666666666667,4,2,1,50,0,0
29899,-100,4,2,1,70,0,0
32429,-83.3333333333333,4,2,1,70,0,0
32791,-100,4,2,1,70,0,0
38212,-83.3333333333333,4,2,1,70,0,0
38574,-90.9090909090909,4,2,1,70,0,0
38755,-90.9090909090909,4,2,1,70,0,0
38815,-90.9090909090909,4,2,1,70,0,0
38996,-90.9090909090909,4,2,1,70,0,0
39056,-90.9090909090909,4,2,1,70,0,0
39237,-90.9090909090909,4,2,1,70,0,0
39297,-90.9090909090909,4,2,1,70,0,0
39477,-90.9090909090909,4,2,1,70,0,0
39538,-90.9090909090909,4,2,1,70,0,0
39718,-90.9090909090909,4,2,1,70,0,0
39779,-90.9090909090909,4,2,1,70,0,0
39959,-90.9090909090909,4,2,1,70,0,0
40020,-90.9090909090909,4,2,1,70,0,0
40923,-90.9090909090909,4,2,1,30,0,0
41465,-90.9090909090909,4,2,1,70,0,0
43182,-90.9090909090909,4,2,1,70,0,0
43273,-90.9090909090909,4,2,1,70,0,0
48604,-90.9090909090909,4,2,1,70,0,0
48694,-90.9090909090909,4,2,1,70,0,0
50140,-100,4,2,1,70,0,0
50411,-100,4,2,1,70,0,0
50502,-100,4,2,1,70,0,0
50773,-100,4,2,1,70,0,0
50863,-100,4,2,1,70,0,0
51134,-100,4,2,1,70,0,0
51224,-100,4,2,1,70,0,0
51496,-100,4,2,1,70,0,0
51586,-100,4,2,1,70,0,0
51676,-100,4,2,1,70,0,0
51767,-100,4,2,1,70,0,0
52038,-100,4,2,1,70,0,0
52128,-100,4,2,1,70,0,0
53032,-100,4,2,1,60,0,0
54477,-100,4,2,1,55,0,0
55923,-100,4,2,1,45,0,0
56646,-100,4,2,1,35,0,0
57369,-100,4,2,1,25,0,0
58092,-100,4,2,1,80,0,0
58724,-100,4,2,1,80,0,0
58815,-83.3333333333333,4,2,1,90,0,0
60396,-83.3333333333333,4,2,1,90,0,0
60441,-83.3333333333333,4,2,1,90,0,0
60758,-83.3333333333333,4,2,1,90,0,0
60803,-83.3333333333333,4,2,1,90,0,0
61119,-83.3333333333333,4,2,1,90,0,0
61164,-83.3333333333333,4,2,1,90,0,0
63288,-83.3333333333333,4,2,1,90,0,0
63333,-83.3333333333333,4,2,1,90,0,0
63649,-83.3333333333333,4,2,1,90,0,0
63694,-83.3333333333333,4,2,1,90,0,0
66360,-83.3333333333333,4,2,1,90,0,0
66405,-83.3333333333333,4,2,1,90,0,0
66721,-83.3333333333333,4,2,1,90,0,0
66767,-83.3333333333333,4,2,1,90,0,0
67399,-83.3333333333333,4,2,1,90,0,0
67490,-83.3333333333333,4,2,1,90,0,0
69658,-83.3333333333333,4,2,1,70,0,0
70381,-83.3333333333333,4,2,1,90,0,0
77023,-83.3333333333333,4,2,1,90,0,0
77068,-83.3333333333333,4,2,1,90,0,0
77384,-83.3333333333333,4,2,1,90,0,0
77429,-83.3333333333333,4,2,1,90,0,0
78107,-83.3333333333333,4,2,1,90,0,0
78152,-83.3333333333333,4,2,1,90,0,0
80502,-125,4,2,1,50,0,0
81224,-125,4,2,1,80,0,0
81405,-125,4,2,1,80,0,0
81586,-125,4,2,1,80,0,0
81767,-125,4,2,1,80,0,0
81857,-125,4,2,1,5,0,0
81947,-83.3333333333333,4,2,1,90,0,0
83890,-83.3333333333333,4,2,1,90,0,0
83935,-83.3333333333333,4,2,1,90,0,0
84252,-83.3333333333333,4,2,1,90,0,0
84297,-83.3333333333333,4,2,1,90,0,0
89493,-83.3333333333333,4,2,1,90,0,0
89538,-83.3333333333333,4,2,1,90,0,0
89854,-83.3333333333333,4,2,1,90,0,0
89899,-83.3333333333333,4,2,1,90,0,0
90215,-83.3333333333333,4,2,1,90,0,0
90261,-83.3333333333333,4,2,1,90,0,0
90577,-83.3333333333333,4,2,1,90,0,0
90622,-83.3333333333333,4,2,1,90,0,0
92791,-83.3333333333333,4,2,1,70,0,0
93152,-125,4,2,1,70,0,0
93514,-76.9230769230769,4,2,1,90,0,0
101059,-76.9230769230769,4,2,1,90,0,0
101104,-76.9230769230769,4,2,1,90,0,0
101420,-76.9230769230769,4,2,1,90,0,0
101465,-76.9230769230769,4,2,1,90,0,0
101782,-76.9230769230769,4,2,1,90,0,0
101827,-76.9230769230769,4,2,1,90,0,0
102143,-76.9230769230769,4,2,1,90,0,0
102188,-100,4,2,1,90,0,0
103634,-125,4,2,1,50,0,0
105080,-100,4,2,1,55,0,0
105170,-100,4,2,1,55,0,0
105261,-100,4,2,1,55,0,0
106616,-100,4,2,1,55,0,0
106706,-100,4,2,1,55,0,0
107881,-100,4,2,1,55,0,0
107971,-100,4,2,1,55,0,0
108062,-100,4,2,1,55,0,0
108152,-100,4,2,1,55,0,0
110140,-83.3333333333333,4,2,1,55,0,0
110773,-83.3333333333333,4,2,1,55,0,0
110863,-100,4,2,1,65,0,0
110953,-100,4,2,1,65,0,0
111044,-100,4,2,1,65,0,0
113845,-100,4,2,1,65,0,0
113935,-100,4,2,1,65,0,0
115200,-83.3333333333333,4,2,1,65,0,0

[Colours]
Combo1 : 128,128,255
Combo2 : 255,128,128
Combo3 : 255,0,0
Combo4 : 128,0,255

[HitObjects]
398,337,984,6,0,B|414:317|427:314|427:314|409:243,1,96,12|0,3:1|0:0,0:0:0:0:
406,249,1345,2,0,L|417:213,3,32,2|2|2|0,0:0|0:0|0:0|0:0,0:0:0:0:
496,104,1887,1,2,0:0:0:0:
496,104,2068,2,0,P|472:73|459:26,1,64,2|2,0:0|0:0,0:0:0:0:
382,0,2429,6,0,P|351:7|322:21,1,64,10|2,3:1|0:0,0:0:0:0:
233,65,2791,1,2,0:0:0:0:
243,85,2971,1,2,0:0:0:0:
319,139,3152,6,0,P|297:165|288:215,1,64,2|2,0:0|0:0,0:0:0:0:
239,264,3514,1,2,0:0:0:0:
239,264,3694,1,2,0:0:0:0:
239,264,3875,6,0,P|207:217|133:212,1,128,10|2,3:1|0:0,0:0:0:0:
13,294,4598,2,0,P|45:341|101:328,1,96,10|0,3:1|0:0,0:0:0:0:
118,307,4959,2,0,L|109:344,2,32,2|2|2,0:0|0:0|0:0,0:0:0:0:
141,210,5321,2,0,P|154:137|168:74,1,128,10|0,3:1|0:0,0:0:0:0:
165,84,6044,6,0,B|163:59|154:46|154:46|166:39|179:26|179:26|183:43|189:57|189:57|177:62|163:84,1,140,2|0,0:0|0:0,0:0:0:0:
164,81,6767,5,10,3:1:0:0:
47,64,7128,2,0,B|78:68|95:96|95:96|171:29|298:45,1,256
346,112,8212,2,0,P|320:187|309:245,1,128,10|0,3:1|0:0,0:0:0:0:
166,317,8935,2,0,P|152:254|130:194,1,128,2|0,0:0|0:0,0:0:0:0:
242,364,9658,6,0,P|264:324|327:322,1,96,10|0,3:1|0:0,0:0:0:0:
326,325,10020,1,2,0:0:0:0:
508,317,10381,6,0,P|486:357|423:359,1,96,10|0,3:1|0:0,0:0:0:0:
424,356,10743,2,0,L|369:369,2,32,2|2|2,0:0|0:0|0:0,0:0:0:0:
508,317,11104,6,0,P|419:297|412:189,1,192,10|0,3:1|0:0,0:0:0:0:
488,140,11827,2,0,P|471:195|409:195,1,120,10|0,3:1|0:0,0:0:0:0:
345,158,12550,5,4,3:2:0:0:
407,108,12730,1,2,0:0:0:0:
380,35,12911,2,0,P|334:46|272:52,1,80,10|2,0:0|0:0,0:0:0:0:
143,26,13273,2,0,P|189:15|251:9,1,80,2|2,0:0|0:0,0:0:0:0:
221,10,13544,1,0,0:0:0:0:
221,10,13634,2,0,P|205:50|191:96,1,80,10|2,0:0|0:0,0:0:0:0:
133,214,13996,5,14,3:1:0:0:
77,158,14176,1,2,0:0:0:0:
12,206,14357,1,10,0:0:0:0:
12,206,14538,1,2,0:0:0:0:
32,281,14718,2,0,P|83:273|110:313,1,80,2|0,0:0|0:0,0:0:0:0:
116,371,15080,2,0,P|197:348|253:341,1,120,4|0,0:1|0:0,0:0:0:0:
240,352,15441,5,4,3:1:0:0:
287,266,15622,1,2,0:0:0:0:
372,219,15803,2,0,P|421:234|445:274,1,80,10|2,0:0|0:0,0:0:0:0:
350,375,16164,2,0,P|365:313|374:267,1,80,2|2,0:0|0:0,0:0:0:0:
268,188,16526,2,0,P|283:250|292:296,1,80,10|2,0:0|0:0,0:0:0:0:
386,128,16887,5,14,3:1:0:0:
372,219,17068,1,2,0:0:0:0:
268,188,17249,5,10,0:0:0:0:
254,97,17430,1,2,0:0:0:0:
274,201,17610,5,2,3:0:0:0:
194,16,17971,2,0,P|133:37|61:52,1,120,4|0,0:1|0:0,0:0:0:0:
62,45,18333,5,4,3:2:0:0:
10,117,18514,1,10,0:3:0:0:
81,173,18694,2,0,P|121:154|137:121,1,80,2|10,0:0|0:3,0:0:0:0:
0,201,19056,2,0,P|21:257|22:302,1,80,2|10,0:0|0:3,0:0:0:0:
4,363,19417,1,2,0:0:0:0:
106,313,19598,1,10,0:3:0:0:
106,313,19688,1,0,0:0:0:0:
106,313,19779,5,12,3:1:0:0:
176,365,19959,1,10,0:3:0:0:
233,295,20140,1,2,0:0:0:0:
239,278,20320,1,10,0:3:0:0:
220,198,20502,2,0,P|189:174|188:117,1,80,2|8,3:0|0:3,0:0:0:0:
258,89,20863,6,0,P|331:123|391:128,1,120,4|0,0:1|0:0,0:0:0:0:
379,120,21224,5,4,3:1:0:0:
474,96,21405,1,10,0:3:0:0:
498,191,21586,1,10,0:3:0:0:
403,215,21767,1,2,0:0:0:0:
308,239,21947,5,6,3:1:0:0:
332,334,22128,1,10,0:3:0:0:
427,310,22309,2,0,L|505:289,1,80,10|2,0:3|0:0,0:0:0:0:
403,215,22670,5,14,0:3:0:0:
364,225,22760,1,8,0:3:0:0:
325,235,22850,1,8,0:3:0:0:
287,246,22941,1,8,0:3:0:0:
248,256,23032,2,0,L|180:241,3,40,10|8|8|8,0:3|0:3|0:3|0:3,0:0:0:0:
134,186,23393,5,10,0:3:0:0:
139,173,23483,1,8,0:3:0:0:
145,161,23574,2,0,L|130:93,1,40,8|0,0:3|0:3,0:3:0:0:
178,41,23755,6,0,P|206:25|243:31,2,53.3333333333333,10|8|8,0:3|0:3|0:3,0:0:0:0:
136,121,24116,6,0,B|33:97|33:97|23:119|-5:137,1,143.999995605469,12|2,3:1|0:0,0:0:0:0:
9,126,24658,1,2,0:0:0:0:
35,229,24839,1,2,0:0:0:0:
86,213,25019,1,2,0:0:0:0:
138,198,25200,1,2,0:0:0:0:
163,319,25562,5,2,0:0:0:0:
137,311,25742,1,2,0:0:0:0:
111,303,25923,1,2,0:0:0:0:
85,295,26104,1,2,0:0:0:0:
35,229,26284,5,2,0:0:0:0:
5,346,26646,6,0,P|53:343|81:310,1,83.9999974365235,4|0,1:1|0:0,0:0:0:0:
85,295,27008,6,0,L|268:352,1,160,4|2,3:1|0:0,0:0:0:0:
237,342,27550,1,2,0:0:0:0:
312,277,27730,1,2,0:0:0:0:
296,225,27910,1,2,0:0:0:0:
281,173,28091,1,2,0:0:0:0:
329,289,28453,5,2,0:0:0:0:
313,237,28633,1,2,0:0:0:0:
298,185,28814,1,2,0:0:0:0:
282,133,28996,1,2,0:0:0:0:
310,51,29176,6,0,B|342:27|374:26|442:51|366:112|344:68|360:29,1,143.999995605469,10|0,0:1|0:0,0:0:0:0:
459,103,29899,6,0,P|415:146|343:148,1,120,4|0,0:0|0:0,0:0:0:0:
283,138,30261,1,2,1:0:0:0:
283,138,30441,1,2,0:0:0:0:
223,251,30622,2,0,L|203:156,1,80,10|0,1:3|0:0,0:0:0:0:
175,62,30983,1,2,1:0:0:0:
175,62,31164,1,2,0:0:0:0:
119,154,31345,5,10,1:0:0:0:
175,62,31526,2,0,B|92:54|92:54|28:103,1,160,0|2,0:0|3:0,0:0:0:0:
19,129,31977,1,0,3:0:0:0:
19,129,32068,2,0,L|38:217,1,80,10|0,1:3|3:0,0:0:0:0:
91,364,32429,2,0,P|30:368|40:290,1,143.999995605469,6|2,1:0|0:0,0:0:0:0:
104,270,32791,6,0,B|173:280|138:329|214:346,1,120,4|2,1:0|0:0,0:0:0:0:
278,344,33152,1,2,1:0:0:0:
278,344,33333,1,2,0:0:0:0:
300,238,33514,2,0,P|255:259|216:267,1,80,10|2,1:3|0:0,0:0:0:0:
123,155,33875,1,2,1:0:0:0:
123,155,34056,1,2,0:0:0:0:
206,189,34237,5,10,1:0:0:0:
123,155,34417,2,0,P|152:115|200:103,1,80,0|2,0:0|1:0,0:0:0:0:
278,26,34779,1,2,3:0:0:0:
297,26,34869,1,0,3:0:0:0:
312,36,34959,6,0,L|285:141,1,80,10|0,1:3|3:0,0:0:0:0:
333,192,35321,1,6,1:0:0:0:
179,103,35502,1,2,0:0:0:0:
333,192,35682,6,0,L|467:164,1,120,4|2,1:0|0:0,0:0:0:0:
386,99,36044,1,2,1:0:0:0:
386,99,36224,1,2,0:0:0:0:
333,192,36405,2,0,L|352:278,1,80,10|0,1:3|0:0,0:0:0:0:
467,343,36767,1,2,1:0:0:0:
467,343,36947,1,2,0:0:0:0:
505,230,37128,5,10,1:0:0:0:
467,343,37309,2,0,B|443:341|425:330|425:330|297:359,1,160,2|2,0:0|3:0,0:0:0:0:
300,372,37761,1,0,3:0:0:0:
300,372,37851,2,0,L|199:344,1,80,10|0,1:3|3:0,0:0:0:0:
113,261,38212,2,0,B|97:204|128:184|128:184|115:220|139:249,1,143.999995605469,6|2,1:0|0:0,0:0:0:0:
205,272,38574,6,0,P|147:286|86:311,2,117.333336914063,6|0|0,1:0|0:0|0:0,0:0:0:0:
132,192,39297,2,0,P|77:213|20:227,2,117.333336914063,10|2|2,1:3|0:0|0:0,0:0:0:0:
192,48,40020,6,0,P|139:9|116:97,1,176.000005371094,6|0,1:0|1:0,0:0:0:0:
183,127,40562,1,0,3:0:0:0:
195,133,40652,1,0,3:0:0:0:
206,141,40743,2,0,P|266:122|309:114,1,88.000002685547,10|0,1:3|3:0,0:0:0:0:
494,24,41465,6,0,B|469:41|451:47|451:47|422:161,1,132.00000402832,4|0,3:2|0:0,0:0:0:0:
357,164,41827,1,2,1:0:0:0:
488,227,42008,1,2,3:0:0:0:
369,278,42188,2,0,P|321:260|262:249,1,88.000002685547,10|0,1:3|3:0,0:0:0:0:
145,172,42550,1,2,1:0:0:0:
145,172,42730,1,2,0:0:0:0:
249,122,42911,5,10,1:0:0:0:
145,172,43092,2,0,B|183:214|183:214|160:359,1,176.000005371094,0|2,3:0|3:0,0:0:0:0:
151,349,43544,1,0,3:0:0:0:
151,349,43634,5,10,1:3:0:0:
34,300,43815,1,0,3:0:0:0:
65,191,43996,2,0,P|102:167|168:189,1,88.000002685547,2|0,1:0|3:0,0:0:0:0:
284,102,44357,6,0,P|283:49|202:57,1,132.00000402832,4|0,1:0|0:0,0:0:0:0:
172,102,44718,1,2,1:0:0:0:
252,178,44899,1,2,3:0:0:0:
352,142,45080,2,0,P|368:103|361:40,1,88.000002685547,10|0,1:3|3:0,0:0:0:0:
476,127,45441,1,2,1:0:0:0:
476,127,45622,1,2,0:0:0:0:
385,213,45803,5,10,1:0:0:0:
476,127,45983,2,0,B|466:197|466:197|469:204|469:204|452:327,1,176.000005371094,2|2,3:0|3:0,0:0:0:0:
469,325,46435,1,0,3:0:0:0:
469,325,46526,2,0,L|368:310,1,88.000002685547,10|0,1:3|3:0,0:0:0:0:
262,222,46887,2,0,B|292:198|292:198|401:215,1,132.00000402832,0|0,1:0|3:0,0:0:0:0:
464,203,47249,6,0,B|472:140|408:154|440:68,1,132.00000402832,4|0,1:0|0:0,0:0:0:0:
400,10,47610,1,0,1:0:0:0:
336,128,47791,1,2,3:0:0:0:
242,28,47971,2,0,P|251:89|253:128,1,88.000002685547,10|0,1:3|3:0,0:0:0:0:
253,140,48243,1,2,3:0:0:0:
253,140,48333,1,2,1:0:0:0:
160,74,48514,1,0,0:0:0:0:
146,180,48694,5,10,1:0:0:0:
160,74,48875,2,0,P|128:29|70:41,1,88.000002685547,0|2,3:0|1:0,0:0:0:0:
5,100,49237,1,2,3:0:0:0:
4,114,49327,1,0,3:0:0:0:
11,127,49417,2,0,B|23:149|38:157|38:157|17:234,1,88.000002685547,10|0,1:3|3:0,0:0:0:0:
46,280,49779,1,2,1:0:0:0:
146,180,49959,1,0,3:0:0:0:
209,264,50140,6,0,L|121:285,1,80,6|0,1:0|0:0,0:0:0:0:
46,280,50502,1,2,1:0:0:0:
46,280,50682,1,0,3:0:0:0:
106,369,50863,6,0,L|194:348,1,80,14|0,1:3|3:0,0:0:0:0:
269,353,51225,1,2,1:0:0:0:
269,353,51405,1,0,0:0:0:0:
209,264,51586,6,0,L|188:176,1,80,2|0,1:0|3:0,0:0:0:0:
227,113,51947,1,0,1:0:0:0:
170,59,52128,1,0,3:0:0:0:
170,59,52218,1,0,3:0:0:0:
170,59,52309,6,0,B|186:26|227:23|227:23|324:41,1,160,14|0,1:3|1:0,0:0:0:0:
314,39,52851,1,0,3:0:0:0:
227,113,53032,1,6,0:2:0:0:
256,192,53122,12,2,57369,0:0:0:0:
256,192,58092,5,2,0:0:0:0:
256,192,58453,1,2,0:0:0:0:
256,192,58815,6,0,P|239:232|233:303,1,95.9999970703126,4|2,3:2|1:3,0:0:0:0:
272,361,59086,1,2,0:3:0:0:
282,370,59176,2,0,B|306:361|320:342|320:342|363:361,1,95.9999970703126,0|2,3:0|1:3,0:0:0:0:
512,258,59538,1,8,3:1:0:0:
420,197,59718,5,2,1:3:0:0:
432,289,59899,1,2,3:0:0:0:
445,381,60080,1,2,1:3:0:0:
512,258,60261,6,0,L|502:151,1,95.9999970703126,2|10,3:0|1:2,0:0:0:0:
510,81,60532,1,0,0:0:0:0:
512,67,60622,2,0,P|480:49|456:52,1,47.9999985351563,2|0,3:0|0:0,0:0:0:0:
433,13,60803,2,0,P|401:31|392:53,1,47.9999985351563,10|0,1:2|0:0,0:0:0:0:
409,124,60983,2,0,P|361:111|299:101,1,95.9999970703126,10|8,3:1|1:2,0:0:0:0:
224,50,61255,1,0,0:0:0:0:
238,62,61345,2,0,P|215:118|165:107,1,95.9999970703126,2|8,3:0|1:2,0:0:0:0:
24,93,61706,6,0,P|16:37|0:-7,1,95.9999970703126,2|2,3:0|1:0,0:0:0:0:
106,63,61977,1,2,0:3:0:0:
114,79,62068,2,0,P|99:124|93:172,1,95.9999970703126,0|2,3:0|1:0,0:0:0:0:
118,320,62429,1,8,3:1:0:0:
34,252,62610,5,2,1:0:0:0:
126,240,62791,1,2,3:0:0:0:
218,226,62972,1,2,1:0:0:0:
307,309,63152,6,0,B|288:320|282:332|282:332|294:231,1,95.9999970703126,2|2,3:0|1:0,0:0:0:0:
368,156,63514,1,2,3:0:0:0:
218,226,63694,1,2,1:0:0:0:
370,256,63875,6,0,L|464:236,1,95.9999970703126,10|0,3:1|1:0,0:0:0:0:
454,70,64237,1,6,3:1:0:0:
512,133,64417,1,2,1:2:0:0:
363,8,64598,6,0,B|304:30|340:86|245:103,1,143.999995605469,6|0,3:1|0:0,0:0:0:0:
202,41,64959,1,10,1:2:0:0:
209,25,65140,1,2,0:0:0:0:
105,82,65321,6,0,B|164:104|128:160|223:177,1,143.999995605469,6|0,3:1|0:0,0:0:0:0:
266,115,65682,1,10,1:2:0:0:
259,99,65863,1,2,0:0:0:0:
362,156,66044,5,6,0:1:0:0:
299,305,66224,1,10,1:2:0:0:
208,173,66405,1,4,0:1:0:0:
334,231,66585,1,10,1:2:0:0:
172,376,66767,6,0,P|157:274|148:232,1,143.999995605469,6|0,3:1|0:0,0:0:0:0:
208,173,67128,2,0,P|183:131|111:155,1,95.9999970703126,4|0,3:1|0:0,0:0:0:0:
8,242,67490,6,0,P|33:284|105:260,1,95.9999970703126,2|2,3:0|1:0,0:0:0:0:
148,234,67761,1,2,0:0:0:0:
166,247,67851,2,0,P|151:298|142:357,1,95.9999970703126,0|2,3:0|1:0,0:0:0:0:
78,188,68212,1,8,3:1:0:0:
6,119,68393,6,0,P|20:68|30:9,1,95.9999970703126,2|0,1:0|3:0,0:0:0:0:
78,188,68755,1,2,1:0:0:0:
186,138,68935,2,0,B|258:147|277:90|257:86|311:49|380:63,1,191.999994140625,2|0,3:0|3:0,0:0:0:0:
476,25,69477,1,0,1:0:0:0:
461,41,69568,1,0,1:0:0:0:
456,82,69658,5,10,3:1:0:0:
456,82,70020,1,2,0:0:0:0:
456,82,70381,5,4,3:2:0:0:
508,163,70562,1,2,1:0:0:0:
502,175,70652,1,0,0:0:0:0:
493,184,70743,2,0,P|454:174|426:172,1,47.9999985351563,2|0,3:0|0:0,0:0:0:0:
382,129,70923,2,0,P|359:135|335:139,1,47.9999985351563,2|0,1:0|0:0,0:0:0:0:
275,189,71104,5,8,3:1:0:0:
399,249,71285,1,2,1:0:0:0:
335,139,71465,1,2,3:0:0:0:
375,53,71646,1,2,1:0:0:0:
274,11,71827,6,0,P|233:27|181:44,1,95.9999970703126,0|2,3:0|1:0,0:0:0:0:
110,22,72098,1,2,0:0:0:0:
102,17,72188,2,0,P|63:37|52:60,1,47.9999985351563,2|0,3:0|0:0,0:0:0:0:
0,89,72369,2,0,P|-2:132|12:153,1,47.9999985351563,2|0,1:0|0:0,0:0:0:0:
29,209,72550,5,8,3:1:0:0:
120,133,72730,1,2,1:0:0:0:
133,137,72821,1,0,0:0:0:0:
139,148,72911,1,2,3:0:0:0:
91,258,73092,1,2,1:0:0:0:
170,315,73273,6,0,B|243:300|243:300|265:259,1,95.9999970703126,0|2,3:0|1:0,0:0:0:0:
269,200,73544,1,2,0:0:0:0:
263,188,73634,1,2,3:0:0:0:
343,136,73815,1,2,1:0:0:0:
468,181,73996,6,0,B|416:170|416:170|405:199|371:214,1,95.9999970703126,8|2,3:1|1:0,0:0:0:0:
343,136,74267,1,0,0:0:0:0:
349,124,74357,1,2,3:0:0:0:
269,72,74538,1,2,1:0:0:0:
157,43,74718,5,2,3:0:0:0:
186,187,74899,1,2,1:0:0:0:
47,259,75080,1,2,3:0:0:0:
76,115,75261,1,2,1:0:0:0:
186,187,75441,6,0,P|170:245|160:323,1,95.9999970703126,10|0,3:1|1:0,0:0:0:0:
310,356,75803,2,0,P|294:298|284:220,1,95.9999970703126,2|0,3:0|1:0,0:0:0:0:
387,162,76164,6,0,P|440:170|449:236,1,95.9999970703126,4|2,3:1|1:0,0:0:0:0:
496,278,76435,1,0,0:0:0:0:
491,288,76526,1,2,3:0:0:0:
385,241,76706,1,2,1:0:0:0:
310,356,76887,5,10,3:1:0:0:
457,204,77068,1,2,1:0:0:0:
496,278,77249,1,2,3:0:0:0:
349,126,77430,1,2,1:0:0:0:
413,66,77610,6,0,P|371:39|301:57,1,95.9999970703126,6|2,3:1|1:0,0:0:0:0:
246,11,77881,1,0,0:0:0:0:
235,15,77971,1,2,3:0:0:0:
137,71,78152,1,2,1:0:0:0:
175,186,78333,6,0,P|233:170|283:162,1,95.9999970703126,10|2,3:1|1:0,0:0:0:0:
349,126,78604,1,0,0:0:0:0:
360,130,78694,1,2,3:0:0:0:
253,88,78875,1,2,1:0:0:0:
333,216,79056,6,0,B|306:366|306:366|287:341|265:330,1,191.999994140625,6|0,3:1|0:0,0:0:0:0:
278,338,79598,1,2,1:0:0:0:
137,273,79779,1,2,3:0:0:0:
232,233,79959,1,2,0:0:0:0:
151,368,80140,6,0,L|137:272,1,95.9999970703126,2|0,0:0|1:0,0:0:0:0:
333,216,80502,6,0,L|305:366,1,128,6|0,0:0|0:0,0:0:0:0:
309,341,81224,5,2,0:0:0:0:
309,341,81586,2,0,P|349:307|402:319,1,96,2|0,0:0|0:0,0:0:0:0:
403,321,81947,5,4,3:2:0:0:
491,248,82128,1,2,1:3:0:0:
484,230,82218,1,2,0:3:0:0:
474,217,82309,2,0,P|485:173|498:143,1,47.9999985351563,2|0,3:0|0:0,0:0:0:0:
436,99,82490,2,0,P|401:133|335:136,1,95.9999970703126,2|8,1:3|3:1,0:0:0:0:
436,99,82851,6,0,P|402:60|380:57,1,47.9999985351563,2|0,1:3|0:0,0:0:0:0:
360,0,83032,2,0,P|309:9|295:27,1,47.9999985351563,2|0,3:0|0:0,0:0:0:0:
253,56,83212,1,2,1:3:0:0:
259,72,83303,1,0,0:0:0:0:
271,97,83393,6,0,P|257:153|244:228,1,95.9999970703126,2|10,3:0|1:2,0:0:0:0:
177,241,83664,1,0,0:0:0:0:
188,255,83755,2,0,P|200:307|200:319,1,47.9999985351563,2|0,3:0|0:0,0:0:0:0:
275,365,83935,2,0,P|278:341|286:318,1,47.9999985351563,10|0,1:2|0:0,0:0:0:0:
324,214,84116,6,0,P|257:245|161:255,1,143.999995605469,10|0,3:1|0:0,0:0:0:0:
117,217,84477,1,2,3:0:0:0:
43,344,84658,1,8,1:2:0:0:
117,217,84839,5,2,3:0:0:0:
26,138,85020,1,2,1:0:0:0:
33,122,85110,1,2,0:3:0:0:
48,113,85200,2,0,P|81:101|121:112,1,47.9999985351563,2|0,3:0|0:0,0:0:0:0:
161,46,85381,2,0,P|178:82|144:170,1,95.9999970703126,2|8,1:0|3:1,0:0:0:0:
161,46,85743,6,0,P|203:37|221:29,1,47.9999985351563,2|0,1:0|0:0,0:0:0:0:
289,9,85923,2,0,P|331:18|349:26,1,47.9999985351563,2|0,3:0|0:0,0:0:0:0:
414,49,86104,1,2,1:0:0:0:
408,70,86194,1,0,0:0:0:0:
412,102,86285,6,0,B|481:84|481:84|441:133,1,95.9999970703126,2|2,3:0|1:0,0:0:0:0:
492,180,86556,1,0,0:0:0:0:
497,197,86646,2,0,L|444:184,1,47.9999985351563,2|0,3:0|0:0,0:0:0:0:
484,277,86827,2,0,L|431:264,1,47.9999985351563,2|0,1:0|0:0,0:0:0:0:
475,357,87008,2,0,B|412:341|412:341|349:363,1,95.9999970703126,10|0,3:1|1:0,0:0:0:0:
306,375,87279,1,0,0:0:0:0:
290,362,87369,5,6,3:1:0:0:
292,345,87459,1,0,0:0:0:0:
296,329,87549,1,2,1:2:0:0:
299,312,87640,1,0,0:0:0:0:
303,296,87730,6,0,P|281:241|274:129,1,143.999995605469,6|0,3:1|0:0,0:0:0:0:
314,90,88092,1,10,1:2:0:0:
209,17,88273,1,2,0:0:0:0:
314,90,88453,6,0,P|259:112|147:119,1,143.999995605469,14|0,3:1|0:0,0:0:0:0:
108,79,88815,1,10,1:2:0:0:
40,192,88996,1,2,0:0:0:0:
130,249,89176,5,6,0:1:0:0:
108,79,89357,1,10,1:2:0:0:
205,293,89538,1,6,0:1:0:0:
227,107,89719,1,10,1:2:0:0:
273,346,89899,1,14,3:1:0:0:
337,157,90080,1,2,0:0:0:0:
443,281,90261,2,0,P|395:265|335:251,1,95.9999970703126,6|0,3:1|0:0,0:0:0:0:
363,356,90622,6,0,B|381:330|408:322|408:322|444:177,1,191.999994140625,6|0,3:1|3:0,0:0:0:0:
440,191,91164,1,2,1:0:0:0:
502,117,91345,1,8,3:1:0:0:
497,106,91435,1,0,0:0:0:0:
492,96,91526,1,2,1:0:0:0:
429,28,91706,1,0,3:0:0:0:
412,22,91887,1,0,1:0:0:0:
339,74,92068,2,0,L|360:180,1,95.9999970703126,0|0,3:0|1:0,0:0:0:0:
316,245,92429,1,0,3:0:0:0:
311,259,92610,1,0,1:0:0:0:
363,356,92791,5,10,0:1:0:0:
363,356,93152,2,0,B|322:359|322:359|310:355|310:355|261:360,1,96,2|0,0:0|0:0,0:0:0:0:
265,375,93514,6,0,L|191:358,1,51.999997619629,4|0,3:2|0:0,0:0:0:0:
171,288,93694,1,2,1:3:0:0:
146,295,93785,1,2,0:3:0:0:
121,303,93875,2,0,L|47:286,1,51.999997619629,2|0,3:0|0:0,0:0:0:0:
41,205,94056,2,0,B|80:186|80:186|173:205,1,103.999995239258,2|8,1:3|3:1,0:0:0:0:
140,199,94417,6,0,P|135:165|125:136,1,51.999997619629,2|0,1:3|0:0,0:0:0:0:
228,87,94598,2,0,P|221:112|217:137,1,51.999997619629,2|0,3:0|0:0,0:0:0:0:
139,64,94779,2,0,P|132:38|128:13,1,51.999997619629,2|0,1:3|0:0,0:0:0:0:
228,87,94959,6,0,P|272:51|336:57,1,103.999995239258,2|10,3:0|1:2,0:0:0:0:
401,23,95230,1,0,0:0:0:0:
428,44,95321,2,0,P|431:66|408:95,1,51.999997619629,2|0,3:0|0:0,0:0:0:0:
454,159,95502,2,0,P|436:172|399:167,1,51.999997619629,10|0,1:2|0:0,0:0:0:0:
300,129,95682,6,0,P|330:169|324:246,1,103.999995239258,10|8,3:1|1:2,0:0:0:0:
264,280,95953,1,0,0:0:0:0:
245,249,96044,1,0,3:0:0:0:
143,353,96224,1,8,1:2:0:0:
245,249,96405,6,0,L|255:196,1,51.999997619629,0|0,3:0|0:0,0:0:0:0:
300,129,96586,1,2,1:0:0:0:
293,103,96676,1,2,0:3:0:0:
289,83,96767,2,0,P|256:74|227:64,1,51.999997619629,2|0,3:0|0:0,0:0:0:0:
152,21,96947,2,0,P|99:31|44:28,1,103.999995239258,2|8,1:0|3:1,0:0:0:0:
50,29,97309,6,0,P|78:50|85:98,1,51.999997619629,2|0,1:0|0:0,0:0:0:0:
183,120,97490,2,0,P|150:133|105:115,1,51.999997619629,2|0,3:0|0:0,0:0:0:0:
37,189,97670,1,2,1:0:0:0:
37,163,97760,1,0,0:0:0:0:
50,140,97851,6,0,P|71:176|70:267,1,103.999995239258,0|2,3:0|1:0,0:0:0:0:
23,306,98122,1,0,0:0:0:0:
51,329,98212,2,0,P|87:312|122:312,1,51.999997619629,2|0,3:0|0:0,0:0:0:0:
208,267,98393,2,0,P|182:261|160:248,1,51.999997619629,2|0,1:0|0:0,0:0:0:0:
190,363,98574,2,0,P|270:304|343:345,1,155.999992858887,10|0,3:1|0:0,0:0:0:0:
336,338,98935,1,4,3:1:0:0:
361,343,99025,1,0,0:0:0:0:
386,338,99115,1,0,1:2:0:0:
407,323,99206,1,0,0:0:0:0:
430,290,99297,6,0,B|436:256|436:256|416:209|407:167,1,103.999995239258,6|0,3:1|1:0,0:0:0:0:
438,109,99568,1,0,0:0:0:0:
438,109,99658,1,2,3:0:0:0:
318,205,99839,1,2,1:0:0:0:
326,24,100020,6,0,B|320:58|320:58|340:105|349:147,1,103.999995239258,14|0,3:1|1:0,0:0:0:0:
318,205,100291,1,0,0:0:0:0:
318,205,100381,1,2,3:0:0:0:
438,109,100562,1,2,1:0:0:0:
504,199,100743,5,6,3:1:0:0:
343,123,100923,1,2,1:0:0:0:
504,285,101104,1,6,3:1:0:0:
318,205,101285,1,2,1:0:0:0:
506,371,101465,1,14,3:1:0:0:
295,285,101646,1,2,1:0:0:0:
504,199,101827,2,0,P|491:137|487:89,1,103.999995239258,6|2,3:1|1:0,0:0:0:0:
417,11,102188,6,0,P|326:53|240:66,1,160,6|0,3:1|0:0,0:0:0:0:
176,126,102730,1,0,1:0:0:0:
94,15,102911,1,8,3:1:0:0:
94,15,103002,1,0,0:0:0:0:
94,15,103092,1,0,0:0:0:0:
15,49,103273,1,0,0:0:0:0:
19,131,103453,1,0,1:0:0:0:
61,236,103634,6,0,P|151:238|65:210,1,256,4|2,0:0|0:0,0:0:0:0:
315,4,105080,5,6,3:2:0:0:
315,4,105261,2,0,P|272:53|256:180,1,160,2|2,3:0|0:0,0:0:0:0:
325,189,105803,1,10,3:1:0:0:
370,153,105983,1,2,0:0:0:0:
425,160,106164,1,2,0:0:0:0:
491,297,106526,5,2,3:0:0:0:
491,297,106706,2,0,B|410:306|438:368|340:371,1,160,2|2,3:0|0:0,0:0:0:0:
273,319,107249,2,0,P|286:271|353:293,1,120,8|0,1:3|0:0,0:0:0:0:
345,278,107610,1,0,1:0:0:0:
128,337,107971,5,2,3:0:0:0:
128,337,108152,2,0,B|122:286|160:261|160:261|149:214|115:195,1,160,0|2,3:0|0:0,0:0:0:0:
48,150,108694,1,10,3:1:0:0:
43,92,108874,1,2,0:0:0:0:
79,50,109055,1,2,0:0:0:0:
27,167,109417,5,2,3:0:0:0:
22,108,109597,1,2,0:0:0:0:
57,65,109778,1,2,0:0:0:0:
116,63,109959,1,2,0:0:0:0:
188,121,110140,6,0,B|253:109|253:109|258:113|258:113|360:94,1,143.999995605469,10|0,1:3|0:0,0:0:0:0:
413,74,110502,2,0,B|462:85|462:85|397:106,1,95.9999970703126,2|0,1:0|1:0,0:0:0:0:
300,31,110863,5,4,3:2:0:0:
300,31,111044,2,0,P|345:99|322:200,1,160,0|2,3:0|0:0,0:0:0:0:
408,233,111586,1,10,3:1:0:0:
363,269,111766,1,2,0:0:0:0:
308,262,111947,1,2,0:0:0:0:
181,222,112309,5,2,3:0:0:0:
191,195,112489,1,2,0:0:0:0:
218,185,112670,1,2,0:0:0:0:
242,194,112851,1,2,0:0:0:0:
308,262,113032,6,0,B|264:324|264:324|151:301,1,160,8|0,1:3|1:0,0:0:0:0:
15,137,113755,5,0,3:0:0:0:
15,137,113935,2,0,P|76:149|181:88,1,160,0|2,3:0|0:0,0:0:0:0:
216,39,114477,1,10,3:1:0:0:
271,32,114658,1,2,0:0:0:0:
316,68,114838,1,2,0:0:0:0:
249,267,115200,6,0,P|244:240|236:212,1,47.9999985351563,6|0,1:1|0:0,0:0:0:0:
325,192,115381,1,2,0:0:0:0:
335,298,115562,2,0,P|352:282|370:266,1,47.9999985351563,6|0,1:0|0:0,0:0:0:0:
325,192,115743,1,2,0:0:0:0:
265,342,115923,2,0,P|254:372|271:343,1,95.9999970703126,6|0,1:0|0:0,0:0:0:0:
