osu file format v14

[General]
AudioFilename: audio.mp3
AudioLeadIn: 0
PreviewTime: 58002
Countdown: 0
SampleSet: Soft
StackLeniency: 0.4
Mode: 0
LetterboxInBreaks: 0
WidescreenStoryboard: 1

[Editor]
DistanceSpacing: 1
BeatDivisor: 3
GridSize: 16
TimelineZoom: 1.5

[Metadata]
Title:Shiratsuyu no Kaze
TitleUnicode:白露の風
Artist:Qrispy Joybox feat. Yu Tokiwa
ArtistUnicode:Qrispy Joybox feat. 常盤ゆう
Creator:MianYa
Version:Sana's Normal
Source:beatmania IIDX 22 PENDUAL
Tags:想歌 風 japanese SOUKA KAZE tatsuya iyama __ag LeeGod yua -yua Sanayui game reflec beat groovin'!! upper plus bemani konami arcade video not your kitty not_your_kitty electronic arronchu1207
BeatmapID:4373897
BeatmapSetID:2081690

[Difficulty]
HPDrainRate:3
CircleSize:3.6
OverallDifficulty:4.5
ApproachRate:5.5
SliderMultiplier:1
SliderTickRate:1

[Events]
//Background and Video events
0,0,"104320878_p0.jpg",0,0
//Break Periods
//Storyboard Layer 0 (Background)
//Storyboard Layer 1 (Fail)
//Storyboard Layer 2 (Pass)
//Storyboard Layer 3 (Foreground)
//Storyboard Layer 4 (Overlay)
//Storyboard Sound Samples

[TimingPoints]
622,361.44578313253,4,2,1,100,1,0
984,361.44578313253,4,2,1,45,1,0
984,-125,4,2,1,45,0,0
12550,-111.111111111111,4,2,1,70,0,0
18333,-111.111111111111,4,2,1,80,0,0
24116,-111.111111111111,4,2,1,60,0,0
26646,-125,4,2,1,60,0,0
27008,-111.111111111111,4,2,1,50,0,0
29899,-111.111111111111,4,2,1,70,0,0
40923,-111.111111111111,4,2,1,30,0,0
41465,-111.111111111111,4,2,1,70,0,0
53032,-111.111111111111,4,2,1,60,0,0
54477,-111.111111111111,4,2,1,55,0,0
55923,-111.111111111111,4,2,1,45,0,0
56646,-111.111111111111,4,2,1,35,0,0
57369,-111.111111111111,4,2,1,25,0,0
58092,-111.111111111111,4,2,1,80,0,0
58815,-100,4,2,1,90,0,1
69658,-100,4,2,1,70,0,0
70381,-100,4,2,1,90,0,1
80502,-100,4,2,1,50,0,0
81224,-100,4,2,1,80,0,0
81947,-100,4,2,1,90,0,1
92791,-100,4,2,1,70,0,0
93514,-100,4,2,1,90,0,1
103634,-100,4,2,1,50,0,0
105080,-125,4,2,1,55,0,0
110863,-111.111111111111,4,2,1,65,0,0

[Colours]
Combo1 : 128,128,255
Combo2 : 255,128,128
Combo3 : 255,0,0
Combo4 : 128,0,255

[HitObjects]
496,352,984,6,0,P|412:329|253:349,1,240,12|2,3:1|0:0,0:0:0:0:
182,360,2429,2,0,P|70:346|36:229,1,240,10|2,3:1|0:0,0:0:0:0:
99,189,3875,2,0,L|108:109,1,80,10|2,3:1|0:0,0:0:0:0:
188,118,4598,2,0,L|178:197,1,80,10|2,3:1|0:0,0:0:0:0:
229,259,5321,1,10,3:1:0:0:
229,259,6767,6,0,P|281:330|423:312,1,240,10|0,3:1|0:0,0:0:0:0:
487,273,8212,2,0,P|478:207|490:112,1,160,10|2,3:1|0:0,0:0:0:0:
450,44,9297,1,0,0:0:0:0:
377,76,9658,2,0,L|297:66,1,80,10|2,3:1|0:0,0:0:0:0:
226,28,10381,2,0,L|146:18,1,80,10|2,3:1|0:0,0:0:0:0:
69,40,11104,1,10,3:1:0:0:
0,184,11827,1,10,3:1:0:0:
80,345,12550,6,0,L|175:333,1,89.9999972534181,4|10,3:2|0:0,0:0:0:0:
216,349,13092,1,2,0:0:0:0:
216,349,13273,2,0,L|279:356,1,44.999998626709,2|2,0:0|0:0,0:0:0:0:
295,325,13634,1,10,0:0:0:0:
384,319,13996,2,0,P|409:370|457:376,2,89.9999972534181,14|10|2,3:1|0:0|0:0,0:0:0:0:
451,258,15080,1,4,0:1:0:0:
401,182,15441,6,0,L|412:92,1,89.9999972534181,4|10,3:1|0:0,0:0:0:0:
406,52,15983,1,2,0:0:0:0:
406,52,16164,2,0,L|361:47,1,44.999998626709,2|2,0:0|0:0,0:0:0:0:
319,28,16526,1,10,0:0:0:0:
237,64,16887,2,0,P|189:58|163:6,2,89.9999972534181,14|10|2,3:1|0:0|3:0,0:0:0:0:
298,129,17971,1,4,0:1:0:0:
231,190,18333,6,0,L|242:279,1,89.9999972534181,4|2,3:2|0:0,0:0:0:0:
250,327,18875,1,10,0:3:0:0:
250,327,19056,2,0,L|205:331,1,44.999998626709,2|10,0:0|0:3,0:0:0:0:
168,357,19417,1,2,0:0:0:0:
83,326,19779,2,0,P|39:363|-8:369,2,89.9999972534181,12|2|2,3:1|0:0|3:0,0:0:0:0:
43,244,20863,1,4,0:1:0:0:
117,193,21224,6,0,L|128:103,1,89.9999972534181,4|10,3:1|0:3,0:0:0:0:
122,63,21767,1,2,0:0:0:0:
122,63,21947,2,0,L|211:74,1,89.9999972534181,6|10,3:1|0:3,0:0:0:0:
257,94,22490,1,2,0:0:0:0:
257,94,22670,5,14,0:3:0:0:
341,62,23032,1,10,0:3:0:0:
398,132,23393,1,10,0:3:0:0:
349,207,23755,1,10,0:3:0:0:
262,184,24116,1,12,3:1:0:0:
262,184,26646,6,0,L|269:247,1,40,4|0,1:1|1:0,0:0:0:0:
251,266,27008,1,4,3:1:0:0:
98,360,29899,6,0,P|34:352|6:316,2,89.9999972534181,4|2|10,0:0|1:0|1:3,0:0:0:0:
172,309,30983,1,2,1:0:0:0:
248,356,31345,2,0,L|375:340,1,89.9999972534181,10|2,1:0|1:0,0:0:0:0:
424,367,32068,1,10,1:3:0:0:
480,297,32429,1,4,1:0:0:0:
428,223,32791,6,0,P|437:143|457:113,2,89.9999972534181,6|2|10,1:0|1:0|1:3,0:0:0:0:
347,263,33875,1,2,1:0:0:0:
265,224,34237,2,0,L|153:237,2,89.9999972534181,10|2|10,1:0|1:0|1:3,0:0:0:0:
347,263,35321,1,6,1:0:0:0:
307,343,35682,6,0,L|195:356,2,89.9999972534181,6|2|10,1:0|1:0|1:3,0:0:0:0:
391,373,36767,1,2,1:0:0:0:
471,333,37128,2,0,P|462:267|468:219,1,89.9999972534181,10|2,1:0|1:0,0:0:0:0:
509,165,37851,1,10,1:3:0:0:
466,86,38212,1,4,1:0:0:0:
382,120,38574,6,0,L|374:184,2,59.9999981689454,6|2|2,1:0|0:0|0:0,0:0:0:0:
343,73,39297,2,0,L|352:6,2,59.9999981689454,10|2|0,1:3|0:0|0:0,0:0:0:0:
293,106,40020,2,0,L|285:169,2,59.9999981689454,6|2|0,1:0|0:0|3:0,0:0:0:0:
257,57,40743,1,10,1:3:0:0:
98,141,41465,6,0,P|50:135|24:83,2,89.9999972534181,4|2|10,3:2|1:0|1:3,0:0:0:0:
177,187,42550,1,2,1:0:0:0:
139,268,42911,2,0,L|228:278,1,89.9999972534181,10|2,1:0|1:0,0:0:0:0:
313,249,43634,1,10,1:3:0:0:
373,315,43996,1,2,1:0:0:0:
458,288,44357,6,0,P|477:317|485:381,2,89.9999972534181,4|2|10,1:0|1:0|1:3,0:0:0:0:
411,210,45441,1,2,1:0:0:0:
484,158,45803,2,0,L|494:68,2,89.9999972534181,10|2|10,1:0|1:0|1:3,0:0:0:0:
411,210,46887,1,0,1:0:0:0:
331,168,47249,6,0,L|341:78,2,89.9999972534181,4|0|10,1:0|1:0|1:3,0:0:0:0:
268,233,48333,1,2,1:0:0:0:
324,303,48694,2,0,P|294:322|230:330,1,89.9999972534181,10|2,1:0|1:0,0:0:0:0:
152,316,49417,1,10,1:3:0:0:
76,365,49779,1,2,1:0:0:0:
12,301,50140,6,0,L|22:211,1,89.9999972534181,6|2,1:0|1:0,0:0:0:0:
92,154,50863,1,14,1:3:0:0:
164,207,51224,1,2,1:0:0:0:
250,182,51586,2,0,P|345:193|402:249,2,179.999994506836,2|14|6,1:0|1:3|0:2,0:0:0:0:
256,192,53122,12,2,57369,0:0:0:0:
256,192,58815,6,0,L|319:184,1,50,4|2,3:2|1:3,0:0:0:0:
357,204,59176,1,0,3:0:0:0:
357,204,59357,2,0,P|420:196|448:160,1,100,2|2,1:3|1:3,0:0:0:0:
464,126,59899,2,0,L|457:76,1,50,2|2,3:0|1:3,0:0:0:0:
430,33,60261,1,2,3:0:0:0:
350,93,60622,1,2,3:0:0:0:
266,38,60983,1,10,3:1:0:0:
186,98,61344,1,2,3:0:0:0:
91,64,61706,6,0,L|84:113,1,50,2|2,3:0|1:0,0:0:0:0:
50,150,62068,1,0,3:0:0:0:
50,150,62249,2,0,P|75:201|123:207,1,100,2|2,1:0|1:0,0:0:0:0:
158,232,62791,2,0,L|207:225,1,50,2|2,3:0|1:0,0:0:0:0:
255,239,63152,1,2,3:0:0:0:
328,171,63514,2,0,L|377:177,1,50,2|2,3:0|1:0,0:0:0:0:
427,169,63875,1,10,3:1:0:0:
498,253,64237,1,6,3:1:0:0:
498,253,64417,1,2,1:2:0:0:
498,253,64598,5,6,3:1:0:0:
442,335,64959,2,0,L|392:341,1,50,10|2,1:2|0:0,0:0:0:0:
343,327,65321,1,6,3:1:0:0:
250,363,65682,2,0,L|200:356,1,50,10|2,1:2|0:0,0:0:0:0:
152,372,66044,2,0,L|102:365,1,50,6|10,0:1|1:2,0:0:0:0:
52,364,66405,2,0,L|59:314,1,50,6|10,0:1|1:2,0:0:0:0:
31,272,66767,1,6,3:1:0:0:
100,200,67128,1,4,3:1:0:0:
42,117,67490,6,0,L|48:67,1,50,2|2,3:0|1:0,0:0:0:0:
87,36,67851,1,0,3:0:0:0:
87,36,68032,1,2,1:0:0:0:
174,84,68393,2,0,P|237:76|267:56,1,100,2|2,1:0|1:0,0:0:0:0:
307,28,68935,2,0,L|356:34,1,50,2|0,3:0|1:0,0:0:0:0:
390,71,69297,2,0,L|439:77,1,50,0|0,3:0|1:0,0:0:0:0:
488,64,69658,1,10,3:1:0:0:
380,234,70381,5,4,3:2:0:0:
380,234,70562,2,0,L|386:283,1,50,2|2,1:0|3:0,0:0:0:0:
355,323,70923,1,2,1:0:0:0:
255,317,71285,2,0,L|249:366,2,50,2|2|2,1:0|3:0|1:0,0:0:0:0:
174,257,72008,2,0,L|125:251,1,50,2|2,1:0|3:0,0:0:0:0:
75,260,72369,1,2,1:0:0:0:
58,161,72730,2,0,L|9:155,2,50,2|2|2,1:0|3:0|1:0,0:0:0:0:
107,144,73273,5,0,3:0:0:0:
107,144,73453,2,0,L|113:95,1,50,2|2,1:0|3:0,0:0:0:0:
144,55,73815,1,2,1:0:0:0:
242,70,74176,2,0,L|236:21,2,50,2|2|2,1:0|3:0|1:0,0:0:0:0:
280,101,74718,2,0,L|329:95,1,50,2|2,3:0|1:0,0:0:0:0:
371,67,75080,2,0,L|420:73,1,50,2|2,3:0|1:0,0:0:0:0:
460,102,75441,1,10,3:1:0:0:
402,184,75803,1,2,3:0:0:0:
454,275,76164,5,4,3:1:0:0:
454,275,76345,2,0,L|503:269,2,50,2|2|2,1:0|3:0|1:0,0:0:0:0:
404,278,76887,2,0,P|356:272|300:329,1,100,10|2,3:1|3:0,0:0:0:0:
275,329,77429,1,2,1:0:0:0:
275,329,77610,1,6,3:1:0:0:
180,362,77971,1,2,3:0:0:0:
99,302,78333,2,0,L|105:253,1,50,10|2,3:1|1:0,0:0:0:0:
124,206,78694,2,0,L|173:212,1,50,2|2,3:0|1:0,0:0:0:0:
217,237,79056,6,0,P|308:193|302:145,1,150,6|2,3:1|1:0,0:0:0:0:
322,110,79779,2,0,L|316:61,1,50,2|2,3:0|0:0,0:0:0:0:
346,20,80140,1,2,0:0:0:0:
445,35,80502,1,6,0:0:0:0:
204,354,81947,6,0,L|140:346,1,50,4|2,3:2|1:3,0:0:0:0:
109,364,82309,1,2,3:0:0:0:
109,364,82490,2,0,P|61:358|35:306,1,100,2|2,1:3|1:3,0:0:0:0:
46,268,83032,2,0,L|53:204,1,50,2|2,3:0|1:3,0:0:0:0:
75,174,83393,1,2,3:0:0:0:
151,238,83755,1,2,3:0:0:0:
243,201,84116,1,10,3:1:0:0:
319,265,84478,1,2,3:0:0:0:
416,243,84839,6,0,L|423:179,1,50,2|2,3:0|1:0,0:0:0:0:
468,171,85200,1,2,3:0:0:0:
468,171,85381,2,0,L|481:59,1,100,2|2,1:0|1:0,0:0:0:0:
450,31,85924,2,0,L|386:23,1,50,2|2,3:0|1:0,0:0:0:0:
352,40,86285,1,2,3:0:0:0:
280,110,86646,2,0,L|216:102,1,50,2|2,3:0|1:0,0:0:0:0:
181,116,87007,1,10,3:1:0:0:
106,66,87369,1,6,3:1:0:0:
106,66,87550,1,2,1:2:0:0:
106,66,87730,5,6,3:1:0:0:
26,126,88092,2,0,L|32:176,1,50,10|2,1:2|0:0,0:0:0:0:
23,225,88454,1,14,3:1:0:0:
114,264,88815,2,0,L|107:314,1,50,10|2,1:2|0:0,0:0:0:0:
123,361,89177,2,0,L|173:368,1,50,6|10,0:1|1:2,0:0:0:0:
215,341,89538,1,6,0:1:0:0:
215,341,89718,1,10,1:2:0:0:
261,359,89899,2,0,L|311:352,1,50,14|2,3:1|0:0,0:0:0:0:
358,367,90261,1,6,3:1:0:0:
453,336,90623,6,0,L|459:286,1,50,6|0,3:1|1:0,0:0:0:0:
438,240,90984,1,0,3:0:0:0:
343,272,91345,2,0,P|295:266|251:228,1,100,8|0,3:1|3:0,0:0:0:0:
257,188,91887,1,0,1:0:0:0:
257,188,92068,2,0,L|207:195,1,50,0|0,3:0|1:0,0:0:0:0:
169,227,92429,2,0,L|119:234,1,50,0|0,3:0|1:0,0:0:0:0:
73,212,92791,1,10,0:1:0:0:
168,38,93514,5,4,3:2:0:0:
168,38,93694,2,0,L|218:45,1,50,2|2,1:3|3:0,0:0:0:0:
265,28,94056,1,2,1:3:0:0:
353,74,94417,2,0,L|403:67,2,50,2|2|2,1:3|3:0|1:3,0:0:0:0:
328,119,94959,2,0,L|335:169,1,50,2|10,3:0|1:2,0:0:0:0:
376,196,95321,2,0,L|369:246,1,50,2|10,3:0|1:2,0:0:0:0:
385,292,95682,1,10,3:1:0:0:
313,361,96044,1,0,3:0:0:0:
221,335,96405,5,0,3:0:0:0:
221,335,96586,2,0,L|171:342,1,50,2|2,1:0|3:0,0:0:0:0:
127,365,96947,1,2,1:0:0:0:
35,323,97309,2,0,L|28:273,1,50,2|2,1:0|3:0,0:0:0:0:
61,237,97670,1,2,1:0:0:0:
61,237,97851,2,0,L|54:187,1,50,0|2,3:0|1:0,0:0:0:0:
23,147,98212,2,0,L|30:97,1,50,2|2,3:0|1:0,0:0:0:0:
59,56,98574,1,10,3:1:0:0:
142,110,98935,1,4,3:1:0:0:
231,65,99297,5,6,3:1:0:0:
321,107,99658,2,0,L|371:100,1,50,2|2,3:0|1:0,0:0:0:0:
409,68,100020,1,14,3:1:0:0:
488,128,100381,2,0,L|495:178,1,50,2|2,3:0|1:0,0:0:0:0:
474,223,100743,2,0,L|424:230,1,50,6|2,3:1|1:0,0:0:0:0:
378,250,101104,1,6,3:1:0:0:
378,250,101285,1,2,1:0:0:0:
338,219,101465,2,0,L|288:212,1,50,14|2,3:1|1:0,0:0:0:0:
240,227,101827,1,6,3:1:0:0:
154,175,102188,6,0,P|90:182|64:234,1,100,6|0,3:1|0:0,0:0:0:0:
38,246,102730,1,0,1:0:0:0:
38,246,102911,1,8,3:1:0:0:
72,340,103273,1,0,0:0:0:0:
171,344,103634,1,4,0:0:0:0:
473,233,105080,5,6,3:2:0:0:
473,233,105261,2,0,P|462:183|474:88,1,120,2|10,3:0|3:1,0:0:0:0:
334,33,106526,1,2,3:0:0:0:
334,33,106706,2,0,P|284:43|205:33,1,120,2|8,3:0|1:3,0:0:0:0:
138,55,107610,1,0,1:0:0:0:
66,30,107971,5,2,3:0:0:0:
66,30,108152,2,0,P|54:125|64:174,1,120,0|10,3:0|3:1,0:0:0:0:
23,305,109417,2,0,P|118:293|167:303,1,120,2|2,3:0|0:0,0:0:0:0:
167,326,110140,2,0,P|212:347|260:353,1,80,10|2,1:3|1:0,0:0:0:0:
334,368,110863,5,4,3:2:0:0:
334,368,111044,2,0,P|375:314|455:304,1,134.999995880127,0|10,3:0|3:1,0:0:0:0:
496,130,112309,2,0,P|450:108|307:90,1,179.999994506836,2|8,3:0|1:3,0:0:0:0:
217,236,113755,5,0,3:0:0:0:
217,236,113935,2,0,P|137:245|56:239,1,134.999995880127,0|10,3:0|3:1,0:0:0:0:
32,70,115200,1,6,1:1:0:0:
117,40,115562,1,6,1:0:0:0:
182,101,115923,1,6,1:0:0:0:
