osu file format v14

[General]
AudioFilename: audio.mp3
AudioLeadIn: 0
PreviewTime: 58002
Countdown: 0
SampleSet: Soft
StackLeniency: 0.3
Mode: 0
LetterboxInBreaks: 0
WidescreenStoryboard: 0

[Editor]
Bookmarks: 34869,41465,61345
DistanceSpacing: 1
BeatDivisor: 8
GridSize: 4
TimelineZoom: 2.3

[Metadata]
Title:Shiratsuyu no Kaze
TitleUnicode:白露の風
Artist:Qrispy Joybox feat. Yu Tokiwa
ArtistUnicode:Qrispy Joybox feat. 常盤ゆう
Creator:MianYa
Version:Extra
Source:beatmania IIDX 22 PENDUAL
Tags:想歌 風 japanese SOUKA KAZE tatsuya iyama __ag LeeGod yua -yua Sanayui game reflec beat groovin'!! upper plus bemani konami arcade video not your kitty not_your_kitty electronic arronchu1207
BeatmapID:4359640
BeatmapSetID:2081690

[Difficulty]
HPDrainRate:5
CircleSize:4.5
OverallDifficulty:9
ApproachRate:9.3
SliderMultiplier:1.8
SliderTickRate:1

[Events]
//Background and Video events
0,0,"104320878_p0.jpg",0,0
//Break Periods
//Storyboard Layer 0 (Background)
//Storyboard Layer 1 (Fail)
//Storyboard Layer 2 (Pass)
//Storyboard Layer 3 (Foreground)
//Storyboard Layer 4 (Overlay)
//Storyboard Sound Samples

[TimingPoints]
622,361.44578313253,4,2,1,55,1,0
622,-100,4,2,1,55,0,0
984,361.44578313253,4,2,1,45,1,0
984,-55.5555555555556,4,2,1,45,0,0
1255,-55.5555555555556,4,2,1,5,0,0
1345,-55.5555555555556,4,2,1,45,0,0
1526,-83.3333333333333,4,2,1,45,0,0
2429,-55.5555555555556,4,2,1,45,0,0
2700,-55.5555555555556,4,2,1,5,0,0
2791,-55.5555555555556,4,2,1,45,0,0
3875,-66.6666666666667,4,2,1,45,0,0
4146,-66.6666666666667,4,2,1,5,0,0
4237,-200,4,2,1,45,0,0
4508,-200,4,2,1,5,0,0
4598,-66.6666666666667,4,2,1,45,0,0
4869,-66.6666666666667,4,2,1,5,0,0
4959,-66.6666666666667,4,2,1,45,0,0
5050,-83.3333333333333,4,2,1,45,0,0
5953,-83.3333333333333,4,2,1,5,0,0
6044,-333.333333333333,4,2,1,45,0,0
6767,-66.6666666666667,4,2,1,45,0,0
7038,-66.6666666666667,4,2,1,5,0,0
7128,-333.333333333333,4,2,1,45,0,0
8212,-83.3333333333333,4,2,1,45,0,0
8483,-83.3333333333333,4,2,1,5,0,0
8574,-200,4,2,1,45,0,0
8845,-200,4,2,1,5,0,0
8935,-125,4,2,1,45,0,0
9206,-125,4,2,1,5,0,0
9297,-200,4,2,1,45,0,0
9568,-200,4,2,1,5,0,0
9658,-66.6666666666667,4,2,1,45,0,0
9929,-66.6666666666667,4,2,1,5,0,0
10020,-133.333333333333,4,2,1,45,0,0
10291,-133.333333333333,4,2,1,5,0,0
10381,-66.6666666666667,4,2,1,45,0,0
10652,-66.6666666666667,4,2,1,5,0,0
10743,-200,4,2,1,45,0,0
11827,-1000,4,2,1,45,0,0
12459,-333.333333333333,4,2,1,5,0,0
12550,-50,4,2,1,70,0,0
12730,-200,4,2,1,70,0,0
13996,-50,4,2,1,70,0,0
14176,-200,4,2,1,70,0,0
15080,-50,4,2,1,70,0,0
15351,-66.6666666666667,4,2,1,5,0,0
15441,-50,4,2,1,70,0,0
15622,-200,4,2,1,70,0,0
16887,-50,4,2,1,70,0,0
17068,-200,4,2,1,70,0,0
17610,-50,4,2,1,70,0,0
17971,-71.4285714285714,4,2,1,70,0,0
18243,-71.4285714285714,4,2,1,5,0,0
18333,-50,4,2,1,80,0,0
18514,-200,4,2,1,80,0,0
19779,-50,4,2,1,80,0,0
19959,-200,4,2,1,80,0,0
20863,-66.6666666666667,4,2,1,80,0,0
21224,-50,4,2,1,80,0,0
21405,-200,4,2,1,80,0,0
21947,-50,4,2,1,80,0,0
22128,-200,4,2,1,80,0,0
23393,-55.5555555555556,4,2,1,80,0,0
24116,-55.5555555555556,4,2,1,60,0,0
27008,-55.5555555555556,4,2,1,50,0,0
29176,-333.333333333333,4,2,1,50,0,0
29809,-333.333333333333,4,2,1,5,0,0
29899,-100,4,2,1,70,0,0
30622,-66.6666666666667,4,2,1,70,0,0
30803,-100,4,2,1,70,0,0
33514,-66.6666666666667,4,2,1,70,0,0
33694,-100,4,2,1,70,0,0
34237,-100,4,2,1,70,0,0
36405,-66.6666666666667,4,2,1,70,0,0
36586,-100,4,2,1,70,0,0
38755,-100,4,2,1,5,0,0
38815,-100,4,2,1,70,0,0
38996,-100,4,2,1,5,0,0
39056,-100,4,2,1,70,0,0
39237,-100,4,2,1,5,0,0
39297,-100,4,2,1,70,0,0
39477,-100,4,2,1,5,0,0
39538,-100,4,2,1,70,0,0
39718,-100,4,2,1,5,0,0
39779,-100,4,2,1,70,0,0
39959,-100,4,2,1,5,0,0
40020,-100,4,2,1,70,0,0
40923,-100,4,2,1,30,0,0
41465,-100,4,2,1,70,0,0
42188,-66.6666666666667,4,2,1,70,0,0
42369,-100,4,2,1,70,0,0
43182,-100,4,2,1,5,0,0
43273,-100,4,2,1,70,0,0
45080,-66.6666666666667,4,2,1,70,0,0
45261,-100,4,2,1,70,0,0
47971,-66.6666666666667,4,2,1,70,0,0
48333,-100,4,2,1,70,0,0
48604,-100,4,2,1,5,0,0
48694,-100,4,2,1,70,0,0
50411,-100,4,2,1,5,0,0
50502,-200,4,2,1,70,0,0
50773,-100,4,2,1,5,0,0
50863,-100,4,2,1,70,0,0
51134,-100,4,2,1,70,0,0
51224,-200,4,2,1,70,0,0
51496,-100,4,2,1,5,0,0
51586,-50,4,2,1,70,0,0
51676,-100,4,2,1,5,0,0
51767,-100,4,2,1,70,0,0
52038,-100,4,2,1,5,0,0
52128,-100,4,2,1,70,0,0
53032,-100,4,2,1,60,0,0
54477,-100,4,2,1,55,0,0
55923,-100,4,2,1,45,0,0
56646,-100,4,2,1,35,0,0
57369,-100,4,2,1,25,0,0
58092,-100,4,2,1,80,0,0
58453,-500,4,2,1,80,0,0
58724,-500,4,2,1,5,0,0
58815,-55.5555555555556,4,2,1,90,0,1
60622,-47.6190476190476,4,2,1,90,0,1
60758,-47.6190476190476,4,2,1,5,0,1
60803,-100,4,2,1,90,0,1
60983,-47.6190476190476,4,2,1,90,0,1
61706,-55.5555555555556,4,2,1,90,0,1
64598,-43.4782608695652,4,2,1,90,0,1
64959,-133.333333333333,4,2,1,90,0,0
65321,-43.4782608695652,4,2,1,90,0,1
65682,-133.333333333333,4,2,1,90,0,0
66044,-28.5714285714286,4,2,1,90,0,1
66224,-142.857142857143,4,2,1,90,0,1
66405,-28.5714285714286,4,2,1,90,0,1
66586,-142.857142857143,4,2,1,90,0,1
66767,-55.5555555555556,4,2,1,90,0,1
68935,-33.3333333333333,4,2,1,90,0,1
69116,-55.5555555555556,4,2,1,90,0,1
69297,-33.3333333333333,4,2,1,90,0,1
69477,-55.5555555555556,4,2,1,90,0,1
69658,-55.5555555555556,4,2,1,70,0,0
70381,-55.5555555555556,4,2,1,90,0,1
78107,-55.5555555555556,4,2,1,5,0,1
78152,-55.5555555555556,4,2,1,90,0,1
80502,-55.5555555555556,4,2,1,50,0,0
81224,-55.5555555555556,4,2,1,80,0,0
81947,-55.5555555555556,4,2,1,90,0,1
83755,-47.6190476190476,4,2,1,90,0,1
83890,-47.6190476190476,4,2,1,5,0,1
83935,-100,4,2,1,90,0,1
84116,-47.6190476190476,4,2,1,90,0,1
84839,-55.5555555555556,4,2,1,90,0,1
87730,-43.4782608695652,4,2,1,90,0,1
88092,-133.333333333333,4,2,1,90,0,0
88453,-43.4782608695652,4,2,1,90,0,1
88815,-133.333333333333,4,2,1,90,0,0
89176,-25,4,2,1,90,0,1
89357,-142.857142857143,4,2,1,90,0,1
89538,-25,4,2,1,90,0,1
89718,-142.857142857143,4,2,1,90,0,1
89899,-25,4,2,1,90,0,1
90080,-142.857142857143,4,2,1,90,0,1
90261,-25,4,2,1,90,0,1
90441,-142.857142857143,4,2,1,90,0,1
90622,-55.5555555555556,4,2,1,90,0,1
92791,-55.5555555555556,4,2,1,70,0,0
93514,-55.5555555555556,4,2,1,90,0,1
99297,-43.4782608695652,4,2,1,90,0,1
100743,-23.8095238095238,4,2,1,90,0,1
100923,-142.857142857143,4,2,1,90,0,1
101104,-23.8095238095238,4,2,1,90,0,1
101285,-142.857142857143,4,2,1,90,0,1
101465,-23.8095238095238,4,2,1,90,0,1
101646,-142.857142857143,4,2,1,90,0,1
101827,-23.8095238095238,4,2,1,90,0,1
102008,-142.857142857143,4,2,1,90,0,1
102188,-100,4,2,1,90,0,1
102911,-55.5555555555556,4,2,1,90,0,1
103634,-55.5555555555556,4,2,1,50,0,0
105080,-55.5555555555556,4,2,1,55,0,0
105170,-55.5555555555556,4,2,1,5,0,0
105261,-125,4,2,1,55,0,0
106526,-55.5555555555556,4,2,1,55,0,0
106616,-55.5555555555556,4,2,1,5,0,0
106706,-125,4,2,1,55,0,0
107610,-333.333333333333,4,2,1,55,0,0
107881,-333.333333333333,4,2,1,5,0,0
107971,-55.5555555555556,4,2,1,55,0,0
108062,-55.5555555555556,4,2,1,5,0,0
108152,-125,4,2,1,55,0,0
110502,-333.333333333333,4,2,1,55,0,0
110773,-333.333333333333,4,2,1,5,0,0
110863,-55.5555555555556,4,2,1,65,0,0
110953,-55.5555555555556,4,2,1,5,0,0
111044,-125,4,2,1,65,0,0
113755,-55.5555555555556,4,2,1,65,0,0
113845,-55.5555555555556,4,2,1,5,0,0
113935,-125,4,2,1,65,0,0
115200,-55.5555555555556,4,2,1,65,0,0

[Colours]
Combo1 : 128,128,255
Combo2 : 255,128,128
Combo3 : 255,0,0
Combo4 : 128,0,255

[HitObjects]
491,291,622,5,0,0:0:0:0:
491,291,803,1,0,0:0:0:0:
430,337,984,6,0,B|319:381|282:314|282:314|325:346|366:329,1,242.999992584229,12|0,3:1|0:0,0:0:0:0:
347,242,1345,1,2,0:0:0:0:
349,234,1435,1,2,0:0:0:0:
353,227,1526,2,0,L|357:170,2,53.9999983520508,2|0|0,0:0|0:0|0:0,0:0:0:0:
337,44,1887,5,2,0:0:0:0:
324,35,2068,1,2,0:0:0:0:
313,29,2249,1,2,0:0:0:0:
161,108,2429,6,0,B|137:67|176:17|254:24|263:123|195:183,1,242.999992584229,10|0,3:1|0:0,0:0:0:0:
190,189,2791,5,2,0:0:0:0:
67,233,2971,1,2,0:0:0:0:
73,249,3152,1,2,0:0:0:0:
117,303,3333,1,2,0:0:0:0:
111,319,3514,1,2,0:0:0:0:
76,379,3694,1,2,0:0:0:0:
223,281,3875,6,0,B|330:283|330:283|333:277|333:277|435:281,1,202.500007724762,10|0,3:1|0:0,0:0:0:0:
472,351,4237,6,0,L|404:349,1,67.5,2|0,0:0|0:0,0:0:0:0:
288,203,4598,6,0,B|181:201|181:201|178:207|178:207|76:203,1,202.500007724762,10|0,3:1|0:0,0:0:0:0:
52,130,4959,1,2,0:0:0:0:
71,131,5050,1,2,0:0:0:0:
90,132,5140,2,0,L|143:135,1,53.9999983520508,2|0,0:0|0:0,0:0:0:0:
216,44,5321,6,0,B|279:20|279:20|504:84|504:84|399:113,1,377.999988464356,10|0,3:1|0:0,0:0:0:0:
360,118,6044,6,0,L|282:94,1,80.9999975280763,2|0,0:0|0:0,0:0:0:0:
11,106,6767,6,0,B|49:72|49:72|77:133|77:133|56:225,1,202.500007724762,10|0,3:1|0:0,0:0:0:0:
13,279,7128,6,0,L|31:363,1,80.9999975280763
33,370,7851,1,0,0:0:0:0:
206,326,8212,6,0,L|372:301,1,161.999995056153,10|0,3:1|0:0,0:0:0:0:
429,340,8574,6,0,L|498:349,1,67.5
433,258,8935,6,0,L|401:137,1,108,2|0,0:0|0:0,0:0:0:0:
497,349,9297,6,0,L|431:341,1,67.5
256,252,9658,6,0,B|213:252|156:298|178:326|178:326|203:308|207:266|147:245,1,202.500007724762,10|0,3:1|0:0,0:0:0:0:
119,213,10020,2,0,B|98:187|66:195|66:195|76:216|105:211,1,101.250003862381,2|0,0:0|0:0,0:0:0:0:
276,169,10381,6,0,B|319:169|376:215|354:243|354:243|329:225|325:183|385:162,1,202.500007724762,10|0,3:1|0:0,0:0:0:0:
410,133,10743,1,2,0:0:0:0:
428,104,10833,1,2,0:0:0:0:
460,110,10923,1,2,0:0:0:0:
440,136,11104,5,10,3:1:0:0:
216,49,11827,6,0,L|222:81,1,31.5,10|0,3:1|0:0,0:0:0:0:
259,148,12550,6,0,L|231:260,1,90,4|0,3:2|0:0,0:0:0:0:
112,255,12730,6,0,L|89:277,1,22.5,2|0,0:0|0:0,0:0:0:0:
53,189,12911,2,0,L|22:173,1,22.5,10|0,0:0|0:0,0:0:0:0:
78,102,13092,2,0,L|81:80,1,22.5,2|0,0:0|0:0,0:0:0:0:
259,148,13273,6,0,L|229:135,1,22.5,2|0,0:0|0:0,0:0:0:0:
172,173,13454,2,0,L|150:176,1,22.5,2|0,0:0|0:0,0:0:0:0:
304,58,13634,6,0,L|312:91,1,22.5,10|0,0:0|0:0,0:0:0:0:
356,155,13815,2,0,L|368:133,1,22.5,2|0,0:0|0:0,0:0:0:0:
508,255,13996,6,0,L|397:271,1,90,14|0,3:1|0:0,0:0:0:0:
357,311,14176,6,0,L|316:303,1,22.5,2|0,0:0|0:0,0:0:0:0:
174,343,14357,6,0,L|178:365,1,22.5,10|0,0:0|0:0,0:0:0:0:
119,279,14538,2,0,L|111:300,1,22.5,2|0,0:0|0:0,0:0:0:0:
232,262,14718,6,0,L|227:284,1,22.5,2|0,0:0|0:0,0:0:0:0:
287,198,14899,2,0,L|294:219,1,22.5
100,124,15080,6,0,B|-8:152|-22:274|90:273|8:125,1,270,4|0,0:1|0:0,0:0:0:0:
158,64,15441,6,0,L|279:75,1,90,4|0,3:1|0:0,0:0:0:0:
448,108,15622,6,0,L|464:72,1,22.5,2|0,0:0|0:0,0:0:0:0:
326,106,15803,2,0,L|310:70,1,22.5,10|0,0:0|0:0,0:0:0:0:
387,54,15983,2,0,L|385:26,1,22.5,2|0,0:0|0:0,0:0:0:0:
492,211,16164,6,0,L|452:220,1,22.5,2|0,0:0|0:0,0:0:0:0:
387,267,16345,2,0,L|427:273,1,22.5,2|0,0:0|0:0,0:0:0:0:
305,207,16526,6,0,L|296:247,1,22.5,10|0,0:0|0:0,0:0:0:0:
244,306,16707,2,0,L|227:267,1,22.5,2|0,0:0|0:0,0:0:0:0:
195,133,16887,6,0,P|167:170|125:195,1,90,14|0,3:1|0:0,0:0:0:0:
60,236,17068,6,0,P|41:226|27:215,1,22.5,2|0,0:0|0:0,0:0:0:0:
23,34,17249,6,0,P|34:45|46:68,1,22.5,10|0,0:0|0:0,0:0:0:0:
114,88,17429,2,0,P|115:104|110:129,1,22.5,2|0,0:0|0:0,0:0:0:0:
71,325,17610,6,0,B|124:381|181:362|181:362|151:329|106:348,1,180,2|0,3:0|0:0,0:0:0:0:
155,239,17881,1,0,0:0:0:0:
168,243,17971,6,0,B|249:238|272:185|272:185|223:184|201:225,1,188.999994232178,4|0,0:1|0:0,0:0:0:0:
315,39,18333,6,0,L|338:152,1,90,4|0,3:2|0:0,0:0:0:0:
389,284,18514,6,0,L|373:318,1,22.5,10|0,0:3|0:0,0:0:0:0:
476,238,18694,2,0,L|460:272,1,22.5,2|0,0:0|0:0,0:0:0:0:
490,337,18875,2,0,L|474:371,1,22.5,10|0,0:3|0:0,0:0:0:0:
286,273,19055,6,0,L|316:280,1,22.5,2|0,0:0|0:0,0:0:0:0:
211,346,19237,2,0,L|239:334,1,22.5,10|0,0:3|0:0,0:0:0:0:
146,259,19417,6,0,L|176:266,1,22.5,2|0,0:0|0:0,0:0:0:0:
71,332,19599,2,0,L|99:320,1,22.5,10|0,0:3|0:0,0:0:0:0:
37,187,19779,6,0,L|6:77,1,90,12|0,3:1|0:0,0:0:0:0:
50,31,19959,6,0,L|57:-2,1,22.5,10|0,0:3|0:0,0:0:0:0:
245,140,20140,6,0,L|217:132,1,22.5,2|0,0:0|0:0,0:0:0:0:
126,86,20321,2,0,L|160:76,1,22.5,10|0,0:3|0:0,0:0:0:0:
288,26,20502,6,0,L|283:48,1,22.5,2|0,3:0|0:0,0:0:0:0:
364,85,20683,2,0,L|371:106,1,22.5,8|0,0:3|0:0,0:0:0:0:
433,295,20863,6,0,B|477:258|464:221|460:193|460:193|499:157|499:157|503:197|492:203,1,202.500007724762,4|0,0:1|0:0,0:0:0:0:
376,226,21224,6,0,B|287:247,1,90,4|0,3:1|0:0,0:0:0:0:
129,344,21405,6,0,L|124:366,1,22.5,10|0,0:3|0:0,0:0:0:0:
39,270,21586,2,0,L|45:291,1,22.5,10|0,0:3|0:0,0:0:0:0:
159,243,21767,2,0,L|162:220,1,22.5,2|0,0:0|0:0,0:0:0:0:
19,157,21947,6,0,L|121:143,1,90,6|0,3:1|0:0,0:0:0:0:
380,153,22128,6,0,L|358:146,1,22.5,10|0,0:3|0:0,0:0:0:0:
470,213,22309,2,0,L|447:217,1,22.5,10|0,0:3|0:0,0:0:0:0:
298,229,22490,2,0,L|275:232,1,22.5,2|0,0:0|0:0,0:0:0:0:
98,102,22670,5,14,0:3:0:0:
114,94,22760,1,8,0:3:0:0:
182,110,22851,5,8,0:3:0:0:
198,118,22941,1,8,0:3:0:0:
262,86,23032,5,10,0:3:0:0:
278,78,23122,1,8,0:3:0:0:
346,94,23213,5,8,0:3:0:0:
362,102,23303,1,8,0:3:0:0:
440,84,23393,6,0,L|462:35,5,53.9999983520508,10|8|8|8|8|8,0:3|0:3|0:3|0:3|0:3|0:3,0:0:0:0:
418,191,23755,6,0,P|379:188|347:208,1,53.9999983520508,10|8,0:3|0:3,0:0:0:0:
347,173,23875,6,0,P|322:203|319:241,1,53.9999983520508,8|8,0:3|0:3,0:0:0:0:
292,209,23996,6,0,P|301:247|330:271,1,53.9999983520508,8|8,0:3|0:3,0:0:0:0:
395,286,24116,5,12,3:1:0:0:
395,286,24477,5,2,0:0:0:0:
310,258,24658,1,2,0:0:0:0:
310,169,24839,1,2,0:0:0:0:
395,141,25020,1,2,0:0:0:0:
447,213,25200,1,2,0:0:0:0:
447,213,25562,5,2,0:0:0:0:
395,141,25742,1,2,0:0:0:0:
310,169,25923,1,2,0:0:0:0:
310,258,26104,1,2,0:0:0:0:
395,286,26285,1,2,0:0:0:0:
395,286,26646,5,4,1:1:0:0:
239,212,26827,1,0,1:0:0:0:
395,141,27008,1,4,3:1:0:0:
239,212,27369,5,2,0:0:0:0:
103,163,27550,1,2,0:0:0:0:
185,281,27731,1,2,0:0:0:0:
188,137,27912,1,2,0:0:0:0:
100,253,28092,1,2,0:0:0:0:
100,253,28453,5,2,0:0:0:0:
188,137,28633,1,2,0:0:0:0:
185,281,28814,1,2,0:0:0:0:
103,163,28995,1,2,0:0:0:0:
239,212,29176,6,0,B|265:203|284:222|284:222|256:232|239:212,1,94.4999971160889,10|0,0:1|0:0,0:0:0:0:
103,163,29899,5,4,0:0:0:0:
214,16,30080,2,0,L|191:125,2,90,2|2|2,0:0|1:0|0:0,0:0:0:0:
180,175,30622,6,0,P|220:172|252:152,1,67.5000025749208,10|0,1:3|0:0,0:0:0:0:
370,137,30803,1,0,0:0:0:0:
496,179,30983,1,2,1:0:0:0:
504,194,31164,1,2,0:0:0:0:
363,130,31345,5,10,1:0:0:0:
512,76,31526,1,0,0:0:0:0:
488,166,31706,1,2,1:0:0:0:
361,31,31887,1,2,3:0:0:0:
374,26,31977,1,0,3:0:0:0:
426,77,32068,2,0,P|389:60|321:52,1,90,10|0,1:3|3:0,0:0:0:0:
176,112,32429,6,0,P|154:108|133:100,1,45,6|2,1:0|0:0,0:0:0:0:
63,71,32610,2,0,P|41:75|19:82,1,45,2|0,0:0|0:0,0:0:0:0:
229,16,32791,5,6,1:0:0:0:
212,191,32971,2,0,P|196:138|165:102,2,90,2|2|2,0:0|1:0|0:0,0:0:0:0:
64,196,33514,6,0,P|103:180|150:195,1,67.5000025749208,10|0,1:3|0:0,0:0:0:0:
247,308,33694,1,2,0:0:0:0:
94,268,33875,1,2,1:0:0:0:
107,251,34056,1,2,0:0:0:0:
307,195,34237,6,0,L|216:166,1,90,10|0,1:0|0:0,0:0:0:0:
366,126,34598,1,2,1:0:0:0:
478,256,34779,1,2,3:0:0:0:
460,260,34869,1,0,3:0:0:0:
443,264,34959,2,0,L|345:285,1,90,10|0,1:3|3:0,0:0:0:0:
201,250,35321,6,0,P|186:265|174:286,1,45,6|2,1:0|0:0,0:0:0:0:
103,367,35502,2,0,P|91:347|76:331,1,45,2|0,0:0|0:0,0:0:0:0:
5,180,35682,5,6,1:0:0:0:
134,80,35863,2,0,L|105:177,2,90,2|2|2,0:0|1:0|0:0,0:0:0:0:
116,251,36405,6,0,P|69:244|42:221,1,67.5000025749208,10|0,1:3|0:0,0:0:0:0:
167,320,36586,1,0,0:0:0:0:
331,286,36767,1,2,1:0:0:0:
323,310,36947,1,2,0:0:0:0:
164,336,37128,5,10,1:0:0:0:
196,176,37309,1,2,0:0:0:0:
216,92,37489,1,2,1:0:0:0:
96,56,37670,1,2,3:0:0:0:
100,72,37760,1,0,3:0:0:0:
116,140,37851,2,0,L|144:36,1,90,10|0,1:3|3:0,0:0:0:0:
287,37,38212,6,0,P|319:45|343:63,1,45,6|2,1:0|0:0,0:0:0:0:
375,158,38393,2,0,P|402:141|435:136,1,45,0|0,3:0|0:0,0:0:0:0:
272,221,38574,6,0,P|246:177|198:178,1,90,6|0,1:0|0:0,0:0:0:0:
54,244,38815,6,0,P|104:235|120:191,1,90,2|0,0:0|0:0,0:0:0:0:
173,39,39056,6,0,P|136:75|149:119,1,90,2|0,0:0|0:0,0:0:0:0:
303,292,39297,6,0,P|258:268|218:293,1,90,10|0,1:3|0:0,0:0:0:0:
225,284,39538,6,0,P|267:257|268:211,1,90,2|0,0:0|0:0,0:0:0:0:
272,222,39779,6,0,P|273:272|315:294,1,90,2|0,0:0|0:0,0:0:0:0:
486,366,40020,6,0,L|396:359,1,90,4|0,1:0|0:0,0:0:0:0:
360,369,40261,6,0,B|480:377,1,120,2|2,0:0|0:0,0:0:0:0:
254,359,40562,5,0,3:0:0:0:
246,359,40652,1,0,3:0:0:0:
238,359,40742,1,10,1:3:0:0:
61,334,40923,5,0,3:0:0:0:
61,334,41465,5,4,3:2:0:0:
176,190,41646,2,0,P|164:235|155:290,2,90,2|2|2,0:0|1:0|3:0,0:0:0:0:
44,154,42188,6,0,P|76:149|124:129,1,67.5000025749208,10|0,1:3|0:0,0:0:0:0:
180,53,42369,1,0,3:0:0:0:
302,193,42550,1,2,1:0:0:0:
291,174,42730,1,2,0:0:0:0:
467,189,42911,6,0,P|448:256|428:344,1,135,10|0,1:0|0:0,0:0:0:0:
429,343,43273,1,2,1:0:0:0:
241,342,43453,1,2,3:0:0:0:
228,336,43543,1,0,3:0:0:0:
294,289,43634,2,0,P|319:330|335:383,1,90,10|0,1:3|3:0,0:0:0:0:
131,373,43996,6,0,P|139:348|143:312,1,45,2|0,1:0|0:0,0:0:0:0:
71,311,44177,2,0,P|67:333|60:355,1,45,0|0,3:0|0:0,0:0:0:0:
218,232,44357,5,4,1:0:0:0:
116,100,44538,2,0,P|136:139|131:183,2,90,2|2|2,0:0|1:0|3:0,0:0:0:0:
3,182,45080,6,0,P|40:156|76:153,1,67.5000025749208,10|0,1:3|0:0,0:0:0:0:
209,119,45261,1,0,3:0:0:0:
300,296,45441,1,2,1:0:0:0:
279,304,45622,1,2,0:0:0:0:
455,305,45803,5,10,1:0:0:0:
380,213,45983,1,2,3:0:0:0:
482,118,46164,1,2,1:0:0:0:
366,210,46345,1,2,3:0:0:0:
353,208,46435,1,0,3:0:0:0:
300,161,46526,2,0,P|254:165|204:187,1,90,10|0,1:3|3:0,0:0:0:0:
52,334,46887,6,0,P|37:319|16:307,1,45,0|0,1:0|0:0,0:0:0:0:
97,269,47068,2,0,P|80:253|61:242,1,45,0|0,3:0|3:0,0:0:0:0:
200,328,47249,5,4,1:0:0:0:
370,250,47429,2,0,P|334:277|292:293,2,90,2|0|2,0:0|1:0|3:0,0:0:0:0:
443,367,47971,2,0,P|421:343|407:302,1,67.5000025749208,10|0,1:3|0:0,0:0:0:0:
471,148,48152,1,0,3:0:0:0:
481,153,48243,1,2,3:0:0:0:
485,221,48333,2,0,B|414:231|433:167|340:178,1,135,2|0,1:0|0:0,0:0:0:0:
265,195,48694,6,0,B|262:127|304:120|304:120|279:141|283:169,1,135,10|0,1:0|0:0,0:0:0:0:
156,272,49056,6,0,P|129:249|114:243,1,45,2|0,1:0|0:0,0:0:0:0:
271,201,49237,2,0,P|244:212|216:236,1,45,2|0,3:0|3:0,0:0:0:0:
365,326,49417,2,0,P|321:303|265:293,1,90,10|0,1:3|3:0,0:0:0:0:
126,343,49779,2,0,P|82:353|42:374,1,90,2|0,1:0|3:0,0:0:0:0:
309,89,50140,6,0,P|381:70|448:40,1,135,6|0,1:0|0:0,0:0:0:0:
362,154,50502,6,0,P|404:143|443:125,1,67.5,2|0,1:0|0:0,0:0:0:0:
203,89,50863,6,0,P|153:78|104:59,1,90,14|0,1:3|3:0,0:0:0:0:
167,159,51134,1,0,3:0:0:0:
150,154,51225,6,0,P|108:143|69:125,1,67.5,2|0,1:0|0:0,0:0:0:0:
234,281,51586,6,0,L|254:179,1,90,2|0,1:0|0:0,0:0:0:0:
269,165,51767,6,0,L|238:309,1,135,0|0,3:0|0:0,0:0:0:0:
179,348,52128,1,0,3:0:0:0:
170,331,52218,1,0,3:0:0:0:
109,297,52309,5,14,1:3:0:0:
184,215,52490,1,0,3:0:0:0:
339,286,52670,1,0,1:0:0:0:
397,244,52851,1,0,3:0:0:0:
419,257,53032,5,6,0:2:0:0:
256,192,53122,12,2,57369,0:0:0:0:
320,330,58092,5,2,0:0:0:0:
319,317,58453,2,0,P|325:298|328:288,1,27,2|0,0:0|0:0,0:0:0:0:
395,243,58815,6,0,P|363:216|323:198,1,80.9999975280763,4|0,3:2|0:0,0:0:0:0:
142,123,58995,1,2,1:3:0:0:
226,103,59086,2,0,P|198:172|180:263,1,161.999995056153,2|0,0:3|0:0,0:0:0:0:
134,382,59357,2,0,B|83:364|69:316|100:275|100:275|101:308|133:335,1,161.999995056153,2|8,1:3|3:1,0:0:0:0:
343,73,59718,6,0,P|317:104|315:144,1,80.9999975280763,2|0,1:3|0:0,0:0:0:0:
209,254,59899,2,0,P|248:251|278:225,1,80.9999975280763,2|0,3:0|0:0,0:0:0:0:
430,249,60080,2,0,P|405:216|368:203,1,80.9999975280763,2|0,1:3|0:0,0:0:0:0:
70,217,60261,6,0,P|88:251|104:304,1,80.9999975280763,2|0,3:0|0:0,0:0:0:0:
189,96,60441,1,10,1:2:0:0:
181,107,60532,1,0,0:0:0:0:
172,117,60622,6,0,P|95:131|65:73,1,141.749995674133,2|0,3:0|0:0,0:0:0:0:
78,59,60803,2,0,P|78:84|87:106,1,45,10|0,1:2|0:0,0:0:0:0:
293,178,60983,6,0,P|358:198|412:102,1,188.999994232178,10|8,3:1|1:2,0:0:0:0:
279,104,61255,1,0,0:0:0:0:
290,168,61345,6,0,P|374:186|406:100,1,188.999994232178,2|8,3:0|1:2,0:0:0:0:
163,33,61706,6,0,L|144:112,1,80.9999975280763,2|0,3:0|0:0,0:0:0:0:
43,281,61887,1,2,1:0:0:0:
28,207,61978,2,0,B|108:229|108:229|117:237|117:237|202:258,1,161.999995056153,2|0,0:3|0:0,0:0:0:0:
271,364,62249,2,0,B|324:307|260:261|260:261|256:296|227:317,1,161.999995056153,2|8,1:0|3:1,0:0:0:0:
313,131,62610,6,0,P|352:136|387:117,1,80.9999975280763,2|0,1:0|0:0,0:0:0:0:
512,163,62791,2,0,P|483:190|476:230,1,80.9999975280763,2|0,3:0|0:0,0:0:0:0:
368,305,62971,2,0,P|351:268|316:248,1,80.9999975280763,2|0,1:0|0:0,0:0:0:0:
120,138,63152,6,0,P|89:172|92:215,1,80.9999975280763,2|0,3:0|0:0,0:0:0:0:
32,264,63333,2,0,P|45:301|80:320,1,80.9999975280763,2|0,1:0|0:0,0:0:0:0:
368,305,63514,6,0,P|334:274|291:277,1,80.9999975280763,2|0,3:0|0:0,0:0:0:0:
242,217,63695,2,0,P|204:230|185:265,1,80.9999975280763,2|0,1:0|0:0,0:0:0:0:
457,345,63875,6,0,L|446:396,2,40.4999987640381,10|0|0,3:1|0:0|0:0,0:0:0:0:
347,156,64056,2,0,L|336:104,2,40.4999987640381,0|0|0,1:0|0:0|0:0,0:0:0:0:
475,318,64237,5,6,3:1:0:0:
450,290,64327,5,0,0:0:0:0:
485,224,64417,5,2,1:2:0:0:
436,158,64508,5,0,0:0:0:0:
506,90,64598,6,0,B|385:99|427:3|298:34,1,207.000003948212,6|0,3:1|0:0,0:0:0:0:
95,119,64959,6,0,L|89:83,1,33.7500012874604,10|0,1:2|0:0,0:0:0:0:
208,210,65140,2,0,L|202:244,1,33.7500012874604,2|0,0:0|0:0,0:0:0:0:
162,153,65321,5,6,3:1:0:0:
162,153,65502,1,0,3:0:0:0:
213,103,65682,6,0,L|263:89,1,33.7500012874604,10|0,1:2|0:0,0:0:0:0:
113,208,65863,2,0,L|73:201,1,33.7500012874604,2|0,0:0|0:0,0:0:0:0:
216,110,66044,6,0,B|289:91|289:91|287:85|287:85|374:63,1,157.500001502037,6|0,0:1|0:0,0:0:0:0:
429,54,66224,2,0,L|430:98,1,31.4999990386963,10|0,1:2|0:0,0:0:0:0:
512,273,66406,6,0,B|438:254|438:254|440:248|440:248|353:226,1,157.500001502037,4|0,0:1|0:0,0:0:0:0:
299,217,66586,2,0,L|295:262,1,31.4999990386963,10|0,1:2|0:0,0:0:0:0:
203,346,66767,6,0,B|166:366|126:352|81:329|85:297|85:297|117:307|131:338|107:359|89:364,1,242.999992584229,6|0,3:1|0:0,0:0:0:0:
6,336,67128,6,0,P|0:329|7:340,1,80.9999975280763,4|0,3:1|0:0,0:0:0:0:
338,81,67490,6,0,P|318:116|303:154,1,80.9999975280763,2|0,3:0|0:0,0:0:0:0:
402,321,67670,1,2,1:0:0:0:
448,270,67761,2,0,B|435:238|403:214|349:220|349:220|362:244|348:283,1,161.999995056153,2|0,0:0|0:0,0:0:0:0:
200,281,68032,2,0,P|249:299|255:215,1,161.999995056153,2|8,1:0|3:1,0:0:0:0:
3,115,68393,6,0,B|121:108|12:196|183:190,1,161.999995056153,2|0,1:0|3:0,0:0:0:0:
269,48,68664,1,0,0:0:0:0:
200,42,68755,2,0,P|167:65|149:101,1,80.9999975280763,2|0,1:0|0:0,0:0:0:0:
46,321,68935,6,0,P|19:237|-1:188,1,135.000005149842,2|0,3:0|0:0,0:0:0:0:
216,308,69116,6,0,P|238:310|214:311,1,80.9999975280763,0|0,1:0|0:0,0:0:0:0:
9,191,69297,6,0,P|33:253|53:318,1,135.000005149842,0|0,3:0|0:0,0:0:0:0:
216,308,69477,6,0,P|238:310|214:311,1,80.9999975280763,0|0,1:0|0:0,0:0:0:0:
53,318,69658,5,10,3:1:0:0:
138,355,70020,1,2,0:0:0:0:
409,137,70381,6,0,L|514:156,1,80.9999975280763,4|0,3:2|0:0,0:0:0:0:
417,3,70562,1,2,1:0:0:0:
402,8,70652,1,0,0:0:0:0:
389,14,70743,2,0,P|362:37|331:96,1,80.9999975280763,2|0,3:0|0:0,0:0:0:0:
339,154,70923,2,0,P|321:104|215:79,1,161.999995056153,2|8,1:0|3:1,0:0:0:0:
84,229,71285,6,0,P|125:241|161:234,1,80.9999975280763,2|0,1:0|0:0,0:0:0:0:
225,194,71465,2,0,B|254:182|253:153|253:153|246:176|220:191,1,80.9999975280763,2|0,3:0|0:0,0:0:0:0:
78,320,71646,2,0,P|55:242|17:170,1,161.999995056153,2|0,1:0|3:0,0:0:0:0:
188,280,72008,5,2,1:0:0:0:
201,274,72098,1,2,0:0:0:0:
215,273,72188,2,0,P|256:285|300:325,1,80.9999975280763,2|0,3:0|0:0,0:0:0:0:
370,368,72369,2,0,B|386:277|437:328|467:229,1,161.999995056153,2|8,1:0|3:1,0:0:0:0:
294,197,72730,6,0,B|251:208|237:188|237:188|257:177|276:192,1,80.9999975280763,2|0,1:0|0:0,0:0:0:0:
418,84,72911,2,0,B|461:73|475:93|475:93|455:104|436:89,1,80.9999975280763,2|0,3:0|0:0,0:0:0:0:
378,221,73092,2,0,B|394:132|328:161|335:71,1,161.999995056153,2|0,1:0|3:0,0:0:0:0:
50,74,73453,6,0,P|89:63|137:84,1,80.9999975280763,2|2,1:0|0:0,0:0:0:0:
256,122,73634,2,0,P|217:134|179:123,1,80.9999975280763,2|0,3:0|0:0,0:0:0:0:
181,7,73815,2,0,P|157:91|140:181,1,161.999995056153,2|8,1:0|3:1,0:0:0:0:
292,360,74176,6,0,P|331:354|364:331,1,80.9999975280763,2|0,1:0|0:0,0:0:0:0:
224,218,74357,2,0,P|207:255|215:294,1,80.9999975280763,2|0,3:0|0:0,0:0:0:0:
378,221,74537,2,0,P|351:192|312:182,1,80.9999975280763,2|0,1:0|0:0,0:0:0:0:
93,349,74719,5,2,3:0:0:0:
85,333,74809,1,0,0:0:0:0:
117,269,74900,5,2,1:0:0:0:
125,253,74990,1,0,0:0:0:0:
83,186,75080,6,0,L|3:176,1,80.9999975280763,2|0,3:0|0:0,0:0:0:0:
169,123,75261,1,2,1:0:0:0:
365,171,75441,6,0,B|353:143|307:116|247:156|230:174|230:174|210:118|168:122,1,242.999992584229,10|0,3:1|0:0,0:0:0:0:
368,160,75803,6,0,B|356:132|310:105|250:145|233:163|233:163|213:107|171:111,1,242.999992584229,2|0,3:0|0:0,0:0:0:0:
83,186,76164,6,0,L|72:148,2,40.4999987640381,4|0|0,3:1|0:0|0:0,0:0:0:0:
211,305,76345,6,0,P|242:279|282:277,1,80.9999975280763,2|0,1:0|0:0,0:0:0:0:
368,160,76526,2,0,P|374:199|355:234,1,80.9999975280763,2|0,3:0|0:0,0:0:0:0:
416,361,76707,2,0,P|378:346|356:313,1,80.9999975280763,2|0,1:0|0:0,0:0:0:0:
350,84,76887,6,0,P|427:94|432:109,1,80.9999975280763,10|0,3:1|0:0,0:0:0:0:
494,88,77068,2,0,B|507:127|483:149|483:149|473:127|481:103,1,80.9999975280763,2|0,1:0|0:0,0:0:0:0:
266,158,77249,6,0,P|189:148|184:133,1,80.9999975280763,2|0,3:0|0:0,0:0:0:0:
122,154,77430,2,0,B|109:115|133:93|133:93|143:115|135:139,1,80.9999975280763,2|0,1:0|0:0,0:0:0:0:
235,81,77610,6,0,L|254:33,2,40.4999987640381,6|0|0,3:1|0:0|0:0,0:0:0:0:
143,226,77791,2,0,L|165:319,1,80.9999975280763,2|0,1:0|0:0,0:0:0:0:
395,355,77971,6,0,P|323:358|299:312,1,121.499996292114,2|0,3:0|0:0,0:0:0:0:
310,283,78152,2,0,P|312:328|346:357,1,80.9999975280763,2|0,1:0|0:0,0:0:0:0:
143,226,78333,6,0,L|47:201,1,80.9999975280763,10|0,3:1|0:0,0:0:0:0:
222,284,78514,2,0,P|237:235|273:194,1,80.9999975280763,2|0,1:0|0:0,0:0:0:0:
0,290,78694,6,0,L|82:313,1,80.9999975280763,2|0,3:0|0:0,0:0:0:0:
254,211,78875,2,0,P|232:244|221:283,1,80.9999975280763,2|0,1:0|0:0,0:0:0:0:
165,364,79056,5,6,3:1:0:0:
430,242,79237,1,0,1:0:0:0:
412,231,79327,1,0,0:0:0:0:
365,257,79417,1,0,0:0:0:0:
143,295,79598,5,2,1:0:0:0:
126,339,79688,1,0,0:0:0:0:
165,364,79779,2,0,P|195:355|217:302,1,80.9999975280763,2|0,3:0|0:0,0:0:0:0:
287,97,79959,5,2,0:0:0:0:
271,148,80049,1,0,0:0:0:0:
216,151,80140,2,0,P|188:126|186:86,1,80.9999975280763,2|0,0:0|0:0,0:0:0:0:
422,213,80321,5,0,1:0:0:0:
412,231,80502,5,6,0:0:0:0:
325,124,81224,5,2,0:0:0:0:
263,82,81586,1,2,0:0:0:0:
183,314,81947,6,0,P|164:269|149:238,1,80.9999975280763,4|0,3:2|0:0,0:0:0:0:
24,103,82128,1,2,1:3:0:0:
33,96,82218,1,2,0:3:0:0:
44,91,82309,2,0,P|85:90|133:106,1,80.9999975280763,2|0,3:0|0:0,0:0:0:0:
217,211,82490,2,0,B|195:169|147:167|147:167|199:156|199:83,1,161.999995056153,2|8,1:3|3:1,0:0:0:0:
417,120,82851,6,0,B|355:146|360:222|360:222|334:147|264:149,1,242.999992584229,2|0,1:3|0:0,0:0:0:0:
512,235,83212,2,0,P|470:227|439:201,1,80.9999975280763,2|0,1:3|0:0,0:0:0:0:
270,237,83393,6,0,P|228:254|217:315,1,80.9999975280763,2|0,3:0|0:0,0:0:0:0:
328,86,83574,2,0,P|322:56|331:84,1,80.9999975280763,10|0,1:2|0:0,0:0:0:0:
152,135,83755,6,0,P|75:149|45:91,1,141.749995674133,2|0,3:0|0:0,0:0:0:0:
58,77,83935,2,0,P|58:102|67:124,1,45,10|0,1:2|0:0,0:0:0:0:
270,237,84116,6,0,P|321:192|409:258,1,188.999994232178,10|8,3:1|1:2,0:0:0:0:
289,314,84388,1,0,0:0:0:0:
272,248,84478,6,0,P|341:195|404:259,1,188.999994232178,2|8,3:0|1:2,0:0:0:0:
15,184,84839,6,0,P|55:177|93:190,1,80.9999975280763,2|0,3:0|0:0,0:0:0:0:
188,339,85020,1,2,1:0:0:0:
202,339,85110,1,2,0:3:0:0:
213,336,85201,2,0,P|240:297|237:243,1,80.9999975280763,2|0,3:0|0:0,0:0:0:0:
161,152,85381,2,0,B|179:186|164:217|164:217|151:249|171:270|171:270|165:247|184:212,1,161.999995056153,2|8,1:0|3:1,0:0:0:0:
321,114,85743,6,0,P|327:153|350:186,1,80.9999975280763,2|0,1:0|0:0,0:0:0:0:
463,46,85924,2,0,P|426:29|387:37,1,80.9999975280763,2|0,3:0|0:0,0:0:0:0:
460,200,86104,2,0,P|489:173|499:134,1,80.9999975280763,2|0,1:0|0:0,0:0:0:0:
247,116,86285,6,0,P|202:98|161:72,1,80.9999975280763,2|0,3:0|0:0,0:0:0:0:
95,147,86465,2,0,P|59:166|20:178,1,80.9999975280763,2|0,1:0|0:0,0:0:0:0:
233,261,86646,6,0,P|278:279|319:305,1,80.9999975280763,2|0,3:0|0:0,0:0:0:0:
385,230,86826,2,0,P|421:211|460:199,1,80.9999975280763,2|0,1:0|0:0,0:0:0:0:
169,384,87008,6,0,L|233:369,6,40.4999987640381,10|0|0|0|0|0|0,3:1|0:0|0:0|0:0|1:0|0:0|0:0,0:0:0:0:
47,360,87369,5,6,3:1:0:0:
66,335,87459,5,0,0:0:0:0:
31,272,87550,5,2,1:2:0:0:
82,216,87640,5,0,0:0:0:0:
27,133,87730,6,0,B|117:146|117:146|135:138|135:138|255:155,1,207.000003948212,6|0,3:1|0:0,0:0:0:0:
458,304,88092,6,0,L|464:268,1,33.7500012874604,10|0,1:2|0:0,0:0:0:0:
356,114,88273,2,0,L|362:148,1,33.7500012874604,2|0,0:0|0:0,0:0:0:0:
417,198,88454,5,14,3:1:0:0:
417,198,88635,1,0,3:0:0:0:
333,269,88815,6,0,L|365:259,1,33.7500012874604,10|0,1:2|0:0,0:0:0:0:
508,149,88996,2,0,L|474:143,1,33.7500012874604,2|0,0:0|0:0,0:0:0:0:
348,109,89176,6,0,B|270:133|270:133|264:148|264:148|172:176,1,180,6|0,0:1|0:0,0:0:0:0:
49,158,89357,2,0,L|58:121,1,31.4999990386963,10|0,1:2|0:0,0:0:0:0:
132,95,89538,6,0,B|143:46|143:46|94:3|94:3|64:40|64:40|102:95,1,180,6|0,0:1|0:0,0:0:0:0:
146,252,89718,2,0,L|137:289,1,31.4999990386963,10|0,1:2|0:0,0:0:0:0:
28,361,89899,6,0,B|106:337|106:337|112:322|112:322|204:294,1,180,14|0,3:1|0:0,0:0:0:0:
323,340,90080,2,0,L|360:349,1,31.4999990386963,2|0,0:0|0:0,0:0:0:0:
433,376,90261,6,0,B|476:351|476:351|475:286|475:286|428:288|428:288|412:353,1,180,6|0,3:1|0:0,0:0:0:0:
252,188,90441,2,0,L|258:149,1,31.4999990386963
473,77,90622,6,0,L|486:167,1,80.9999975280763,6|0,3:1|0:0,0:0:0:0:
247,191,90803,2,0,L|260:95,1,80.9999975280763,0|0,1:0|0:0,0:0:0:0:
470,79,90983,6,0,L|483:169,1,80.9999975280763,0|0,3:0|0:0,0:0:0:0:
244,193,91164,2,0,L|257:97,1,80.9999975280763,2|0,1:0|0:0,0:0:0:0:
466,83,91345,6,0,L|479:173,1,80.9999975280763,8|0,3:1|0:0,0:0:0:0:
240,197,91526,2,0,L|253:101,1,80.9999975280763,2|0,1:0|0:0,0:0:0:0:
462,87,91706,6,0,L|475:177,1,80.9999975280763,0|0,3:0|0:0,0:0:0:0:
236,201,91887,2,0,L|249:105,1,80.9999975280763,0|0,1:0|0:0,0:0:0:0:
458,91,92068,6,0,L|471:181,1,80.9999975280763,0|0,3:0|0:0,0:0:0:0:
232,205,92249,2,0,L|245:109,1,80.9999975280763,0|0,1:0|0:0,0:0:0:0:
454,95,92429,6,0,L|467:185,1,80.9999975280763,0|0,3:0|0:0,0:0:0:0:
228,209,92610,2,0,L|241:113,1,80.9999975280763,0|0,1:0|0:0,0:0:0:0:
454,95,92791,5,10,0:1:0:0:
501,157,93152,1,2,0:0:0:0:
395,352,93514,6,0,P|410:309|429:274,1,80.9999975280763,4|0,3:2|0:0,0:0:0:0:
278,139,93694,1,2,1:3:0:0:
274,149,93785,1,2,0:3:0:0:
271,159,93875,2,0,P|285:211|303:258,1,80.9999975280763,2|0,3:0|0:0,0:0:0:0:
432,264,94056,2,0,B|327:244|384:307|284:311,1,161.999995056153,2|8,1:3|3:1,0:0:0:0:
47,208,94417,6,0,P|86:204|116:178,1,80.9999975280763,2|0,1:3|0:0,0:0:0:0:
224,241,94598,2,0,P|195:268|188:308,1,80.9999975280763,2|0,3:0|0:0,0:0:0:0:
73,361,94779,2,0,P|48:328|10:316,1,80.9999975280763,2|0,1:3|0:0,0:0:0:0:
271,159,94959,6,0,P|305:166|344:215,1,80.9999975280763,2|0,3:0|0:0,0:0:0:0:
417,190,95140,2,0,P|431:233|412:268,1,80.9999975280763,10|0,1:2|0:0,0:0:0:0:
104,374,95321,6,0,P|136:359|163:304,1,80.9999975280763,2|0,3:0|0:0,0:0:0:0:
241,314,95502,2,0,P|245:269|219:238,1,80.9999975280763,10|0,1:2|0:0,0:0:0:0:
20,143,95682,6,0,L|-13:88,2,40.4999987640381,10|0|0,3:1|0:0|0:0,0:0:0:0:
143,189,95863,2,0,P|126:226|114:265,1,80.9999975280763,8|0,1:2|0:0,0:0:0:0:
312,320,96044,6,0,P|319:337|320:371,6,40.4999987640381,0|0|0|0|8|0|0,3:0|0:0|0:0|0:0|1:2|0:0|0:0,0:0:0:0:
351,248,96405,6,0,P|337:197|342:156,1,80.9999975280763,0|0,3:0|0:0,0:0:0:0:
394,26,96586,1,2,1:0:0:0:
386,33,96676,1,2,0:3:0:0:
377,39,96767,2,0,L|298:23,1,80.9999975280763,2|0,3:0|0:0,0:0:0:0:
206,128,96947,2,0,B|153:71|217:25|217:25|221:60|250:81,1,161.999995056153,2|8,1:0|3:1,0:0:0:0:
13,26,97309,6,0,P|53:30|82:57,1,80.9999975280763,2|0,1:0|0:0,0:0:0:0:
231,62,97490,2,0,P|200:86|160:87,1,80.9999975280763,2|0,3:0|0:0,0:0:0:0:
74,211,97671,2,0,P|67:170|85:135,1,80.9999975280763,2|0,1:0|0:0,0:0:0:0:
312,150,97851,6,0,L|396:144,1,80.9999975280763,0|0,3:0|0:0,0:0:0:0:
464,212,98032,2,0,P|493:186|494:135,1,80.9999975280763,2|0,1:0|0:0,0:0:0:0:
231,62,98212,6,0,L|236:146,1,80.9999975280763,2|0,3:0|0:0,0:0:0:0:
169,214,98393,2,0,P|194:243|246:244,1,80.9999975280763,2|0,1:0|0:0,0:0:0:0:
508,337,98574,6,0,P|474:302|435:296,1,80.9999975280763,10|0,3:1|0:0,0:0:0:0:
326,280,98755,2,0,P|321:256|313:235,2,40.4999987640381,0|0|0,1:0|0:0|0:0,0:0:0:0:
289,369,98935,5,4,3:1:0:0:
245,380,99026,5,0,0:0:0:0:
184,335,99116,5,0,1:2:0:0:
109,374,99206,5,0,0:0:0:0:
35,314,99297,6,0,B|46:255|46:255|116:287|169:249|175:177,1,207.000003948212,6|0,3:1|1:0,0:0:0:0:
41,100,99568,1,0,0:0:0:0:
39,113,99658,6,0,P|48:160|114:190,1,103.500001974106,2|0,3:0|0:0,0:0:0:0:
295,112,99839,2,0,P|245:100|195:133,1,103.500001974106,2|0,1:0|0:0,0:0:0:0:
347,248,100020,6,0,B|322:252|299:243|254:220|258:188|258:188|290:198|304:229|280:250|262:255,1,207.000003948212,14|0,3:1|1:0,0:0:0:0:
122,302,100291,1,0,0:0:0:0:
133,295,100381,6,0,P|184:317|225:350,1,103.500001974106,2|0,3:0|0:0,0:0:0:0:
448,115,100562,2,0,P|396:137|356:170,1,103.500001974106,2|0,1:0|0:0,0:0:0:0:
122,302,100743,6,0,B|91:171|203:228|174:82,1,188.999994232178,6|0,3:1|0:0,0:0:0:0:
45,116,100923,2,0,L|81:134,1,31.4999990386963,2|0,1:0|0:0,0:0:0:0:
375,315,101104,6,0,B|244:346|301:234|155:263,1,188.999994232178,6|0,3:1|0:0,0:0:0:0:
24,350,101285,2,0,L|42:314,1,31.4999990386963,2|0,1:0|0:0,0:0:0:0:
338,230,101465,6,0,P|429:200|448:297,1,188.999994232178,14|0,3:1|0:0,0:0:0:0:
214,370,101646,2,0,L|206:331,1,31.4999990386963,2|0,1:0|0:0,0:0:0:0:
147,43,101827,6,0,P|56:13|37:110,1,188.999994232178,6|0,3:1|0:0,0:0:0:0:
265,184,102008,2,0,L|273:145,1,31.4999990386963,2|0,1:0|0:0,0:0:0:0:
122,120,102188,6,0,B|232:128|187:53|308:69,1,180,6|0,3:1|0:0,0:0:0:0:
383,106,102730,1,0,1:0:0:0:
382,249,102911,6,0,P|345:221|344:188,1,80.9999975280763,8|0,3:1|0:0,0:0:0:0:
383,106,103092,1,0,0:0:0:0:
512,25,103273,6,0,P|500:68|472:84,1,80.9999975280763
383,106,103454,1,0,1:0:0:0:
248,34,103634,6,0,P|289:20|318:38,1,80.9999975280763,4|0,0:0|0:0,0:0:0:0:
422,249,105080,6,0,L|436:154,1,80.9999975280763,6|0,3:2|0:0,0:0:0:0:
409,106,105261,6,0,L|423:256,1,144,2|2,3:0|0:0,0:0:0:0:
332,352,105803,1,10,3:1:0:0:
264,344,105983,1,2,0:0:0:0:
196,336,106164,1,2,0:0:0:0:
93,176,106526,6,0,L|185:162,1,80.9999975280763,2|0,3:0|0:0,0:0:0:0:
19,193,106706,6,0,L|175:209,1,144,2|2,3:0|0:0,0:0:0:0:
284,221,107249,1,8,1:3:0:0:
284,221,107610,6,0,P|286:233|287:219,1,40.4999987640381,0|0,1:0|0:0,0:0:0:0:
216,179,107971,6,0,P|194:139|202:104,1,80.9999975280763,2|0,3:0|0:0,0:0:0:0:
229,62,108152,6,0,P|185:124|213:192,1,144,0|2,3:0|0:0,0:0:0:0:
409,163,108694,1,10,3:1:0:0:
341,151,108875,1,2,0:0:0:0:
273,135,109056,1,2,0:0:0:0:
208,228,109417,5,2,3:0:0:0:
100,192,109598,1,2,0:0:0:0:
100,79,109779,1,2,0:0:0:0:
208,44,109960,1,2,0:0:0:0:
273,135,110140,1,10,1:3:0:0:
273,135,110502,6,0,P|275:123|276:137,1,40.4999987640381,2|0,1:0|0:0,0:0:0:0:
311,201,110863,6,0,L|411:225,1,80.9999975280763,4|0,3:2|0:0,0:0:0:0:
167,235,111044,6,0,L|322:217,1,144,0|2,3:0|0:0,0:0:0:0:
472,328,111586,1,10,3:1:0:0:
432,264,111767,1,2,0:0:0:0:
472,201,111947,1,2,0:0:0:0:
407,110,112309,5,2,3:0:0:0:
299,258,112490,1,2,0:0:0:0:
472,201,112670,1,2,0:0:0:0:
299,145,112852,1,2,0:0:0:0:
407,294,113031,1,8,1:3:0:0:
407,294,113755,6,0,P|356:295|328:320,1,80.9999975280763,0|0,3:0|0:0,0:0:0:0:
511,312,113935,6,0,P|440:294|388:213,1,144,0|2,3:0|0:0,0:0:0:0:
460,90,114477,1,10,3:1:0:0:
512,146,114658,1,2,0:0:0:0:
492,218,114839,1,2,0:0:0:0:
412,268,115200,6,0,L|332:228,1,80.9999975280763,6|0,1:1|0:0,0:0:0:0:
256,192,115381,1,2,0:0:0:0:
100,268,115562,6,0,L|180:228,1,80.9999975280763,6|0,1:0|0:0,0:0:0:0:
256,192,115743,1,2,0:0:0:0:
260,19,115923,6,0,L|260:108,1,80.9999975280763,6|0,1:0|0:0,0:0:0:0:
