osu file format v14

[General]
AudioFilename: audio.mp3
AudioLeadIn: 0
PreviewTime: 58002
Countdown: 0
SampleSet: Soft
StackLeniency: 0.2
Mode: 0
LetterboxInBreaks: 0
WidescreenStoryboard: 1

[Editor]
Bookmarks: 34869,41465
DistanceSpacing: 1
BeatDivisor: 4
GridSize: 4
TimelineZoom: 2.899999

[Metadata]
Title:Shiratsuyu no Kaze
TitleUnicode:白露の風
Artist:Qrispy Joybox feat. Yu Tokiwa
ArtistUnicode:Qrispy Joybox feat. 常盤ゆう
Creator:MianYa
Version:Chu's Extra
Source:beatmania IIDX 22 PENDUAL
Tags:想歌 風 japanese SOUKA KAZE tatsuya iyama __ag LeeGod yua -yua Sanayui game reflec beat groovin'!! upper plus bemani konami arcade video not your kitty not_your_kitty electronic arronchu1207
BeatmapID:4406540
BeatmapSetID:2081690

[Difficulty]
HPDrainRate:5
CircleSize:4.2
OverallDifficulty:8.2
ApproachRate:9.3
SliderMultiplier:1.8
SliderTickRate:1

[Events]
//Background and Video events
0,0,"104320878_p0.jpg",0,0
//Break Periods
2,24316,26076
2,27388,29176
//Storyboard Layer 0 (Background)
//Storyboard Layer 1 (Fail)
//Storyboard Layer 2 (Pass)
//Storyboard Layer 3 (Foreground)
//Storyboard Layer 4 (Overlay)
//Storyboard Sound Samples

[TimingPoints]
622,361.44578313253,4,2,1,55,1,0
984,361.44578313253,4,2,1,45,1,0
984,-125,4,2,1,45,0,0
6044,-166.666666666667,4,2,1,45,0,0
6767,-125,4,2,1,45,0,0
12550,-100,4,2,1,70,0,0
15080,-71.4285714285714,4,2,1,70,0,0
15441,-100,4,2,1,70,0,0
17971,-71.4285714285714,4,2,1,70,0,0
18333,-100,4,2,1,80,0,0
20863,-71.4285714285714,4,2,1,80,0,0
21224,-100,4,2,1,80,0,0
24116,-111.111111111111,4,2,1,60,0,0
26646,-55.5555555555556,4,2,1,60,0,0
27007,-111.111111111111,4,2,1,50,0,0
29899,-100,4,2,1,70,0,0
32429,-50,4,2,1,70,0,0
32791,-100,4,2,1,70,0,0
35321,-50,4,2,1,70,0,0
35682,-100,4,2,1,70,0,0
38212,-50,4,2,1,70,0,0
38574,-100,4,2,1,70,0,0
40923,-100,4,2,1,30,0,0
41465,-100,4,2,1,70,0,0
52670,-166.666666666667,4,2,1,70,0,0
53032,-100,4,2,1,60,0,0
54477,-100,4,2,1,55,0,0
55923,-100,4,2,1,45,0,0
56646,-100,4,2,1,35,0,0
57369,-100,4,2,1,25,0,0
58092,-166.666666666667,4,2,1,80,0,0
58724,-166.666666666667,4,2,1,5,0,0
58815,-71.4285714285714,4,2,1,90,0,0
60396,-71.4285714285714,4,2,1,5,0,0
60441,-71.4285714285714,4,2,1,90,0,0
60758,-71.4285714285714,4,2,1,5,0,0
60803,-71.4285714285714,4,2,1,90,0,0
63288,-71.4285714285714,4,2,1,5,0,0
63333,-71.4285714285714,4,2,1,90,0,0
63649,-71.4285714285714,4,2,1,5,0,0
63694,-71.4285714285714,4,2,1,90,0,0
64598,-125,4,2,1,90,0,0
67399,-125,4,2,1,5,0,0
67490,-71.4285714285714,4,2,1,90,0,0
69658,-166.666666666667,4,2,1,70,0,0
70290,-166.666666666667,4,2,1,70,0,0
70381,-71.4285714285714,4,2,1,90,0,0
77023,-71.4285714285714,4,2,1,5,0,0
77068,-71.4285714285714,4,2,1,90,0,0
77384,-71.4285714285714,4,2,1,5,0,0
77429,-71.4285714285714,4,2,1,90,0,0
79056,-100,4,2,1,90,0,0
80501,-83.3333333333333,4,2,1,50,0,0
81224,-166.666666666667,4,2,1,80,0,0
81405,-166.666666666667,4,2,1,5,0,0
81586,-166.666666666667,4,2,1,80,0,0
81767,-166.666666666667,4,2,1,5,0,0
81947,-71.4285714285714,4,2,1,90,0,0
87459,-71.4285714285714,4,2,1,90,0,0
87549,-71.4285714285714,4,2,1,90,0,0
87640,-71.4285714285714,4,2,1,90,0,0
87730,-125,4,2,1,90,0,0
89176,-55.5555555555556,4,2,1,90,0,0
89357,-100,4,2,1,90,0,0
89538,-55.5555555555556,4,2,1,90,0,0
89718,-100,4,2,1,90,0,0
89899,-55.5555555555556,4,2,1,90,0,0
90080,-100,4,2,1,90,0,0
90261,-55.5555555555556,4,2,1,90,0,0
90441,-100,4,2,1,90,0,0
90622,-71.4285714285714,4,2,1,90,0,0
92791,-166.666666666667,4,2,1,70,0,0
93423,-166.666666666667,4,2,1,70,0,0
93514,-71.4285714285714,4,2,1,90,0,0
99297,-125,4,2,1,90,0,0
100743,-55.5555555555556,4,2,1,90,0,0
100924,-100,4,2,1,90,0,0
101104,-55.5555555555556,4,2,1,90,0,0
101285,-100,4,2,1,90,0,0
101465,-55.5555555555556,4,2,1,90,0,0
101646,-100,4,2,1,90,0,0
101827,-55.5555555555556,4,2,1,90,0,0
102008,-100,4,2,1,90,0,0
102188,-83.3333333333333,4,2,1,90,0,0
102550,-125,4,2,1,90,0,0
102911,-83.3333333333333,4,2,1,90,0,0
103273,-125,4,2,1,90,0,0
103634,-71.4285714285714,4,2,1,50,0,0
103724,-71.4285714285714,4,2,1,5,0,0
104356,-100,4,2,1,50,0,0
105080,-111.111111111111,4,2,1,55,0,0
110863,-111.111111111111,4,2,1,65,0,0

[Colours]
Combo1 : 128,128,255
Combo2 : 255,128,128
Combo3 : 255,0,0
Combo4 : 128,0,255

[HitObjects]
50,247,984,5,12,3:1:0:0:
133,221,1345,5,2,0:0:0:0:
138,222,1435,1,2,0:0:0:0:
143,223,1526,1,2,0:0:0:0:
50,247,1706,1,0,0:0:0:0:
133,361,1887,5,2,0:0:0:0:
50,334,2068,1,2,0:0:0:0:
50,247,2249,1,2,0:0:0:0:
185,151,2429,5,10,3:1:0:0:
266,178,2610,1,2,0:0:0:0:
267,264,2790,1,2,0:0:0:0:
184,292,2971,1,2,0:0:0:0:
133,221,3152,5,2,0:0:0:0:
134,216,3333,1,2,0:0:0:0:
135,211,3514,1,2,0:0:0:0:
136,206,3694,1,2,0:0:0:0:
376,206,3875,5,10,3:1:0:0:
376,206,4237,1,2,0:0:0:0:
136,206,4598,5,10,3:1:0:0:
136,206,4959,1,2,0:0:0:0:
135,211,5050,1,2,0:0:0:0:
134,216,5140,1,2,0:0:0:0:
376,206,5321,5,10,3:1:0:0:
244,32,6044,6,0,B|232:99|232:99|278:89|278:89|264:168,1,188.999994232178,2|0,0:0|0:0,0:0:0:0:
262,177,6767,5,10,3:1:0:0:
402,71,8212,5,10,3:1:0:0:
402,71,8935,1,2,0:0:0:0:
410,291,9658,5,10,3:1:0:0:
410,291,10020,1,2,0:0:0:0:
102,291,10381,5,10,3:1:0:0:
102,291,10743,1,2,0:0:0:0:
103,287,10833,1,2,0:0:0:0:
104,283,10923,1,2,0:0:0:0:
410,291,11104,5,10,3:1:0:0:
410,291,11827,1,10,3:1:0:0:
172,144,12550,5,4,3:2:0:0:
250,190,12730,1,2,0:0:0:0:
160,55,12911,2,0,L|174:155,1,90,10|2,0:0|0:0,0:0:0:0:
343,10,13273,2,0,L|329:110,1,90,2|2,0:0|0:0,0:0:0:0:
417,69,13634,2,0,L|403:169,1,90,10|2,0:0|0:0,0:0:0:0:
159,53,13996,5,14,3:1:0:0:
172,144,14176,1,2,0:0:0:0:
64,18,14357,5,10,0:0:0:0:
77,109,14537,1,2,0:0:0:0:
64,18,14718,1,2,0:0:0:0:
258,186,15080,6,0,B|268:207|268:207|249:351|249:351|269:387,1,188.999994232178,4|0,0:1|0:0,0:0:0:0:
335,329,15441,6,0,L|432:314,1,90,4|2,3:1|0:0,0:0:0:0:
367,235,15803,1,10,0:0:0:0:
505,272,15983,1,2,0:0:0:0:
313,133,16164,6,0,L|410:118,1,90,2|2,0:0|0:0,0:0:0:0:
339,42,16526,2,0,L|436:27,1,90,10|2,0:0|0:0,0:0:0:0:
335,329,16887,5,14,3:1:0:0:
423,315,17068,1,2,0:0:0:0:
279,225,17249,5,10,0:0:0:0:
367,239,17430,1,2,0:0:0:0:
229,143,17610,1,2,3:0:0:0:
59,357,17971,6,0,B|51:349|51:349|73:186|73:186|56:165,1,188.999994232178,4|0,0:1|0:0,0:0:0:0:
10,97,18333,5,4,3:2:0:0:
101,73,18514,1,10,0:3:0:0:
173,136,18694,1,2,0:0:0:0:
264,160,18875,1,10,0:3:0:0:
15,81,19056,5,2,0:0:0:0:
106,57,19237,1,10,0:3:0:0:
178,120,19417,1,2,0:0:0:0:
269,144,19598,1,10,0:3:0:0:
15,303,19779,5,12,3:1:0:0:
106,327,19960,1,10,0:3:0:0:
178,264,20140,1,2,0:0:0:0:
269,240,20321,1,10,0:3:0:0:
15,303,20502,5,2,3:0:0:0:
98,87,20863,6,0,B|118:75|118:75|253:92|253:92|287:72,1,188.999994232178,4|0,0:1|0:0,0:0:0:0:
352,25,21224,5,4,3:1:0:0:
459,9,21405,1,10,0:3:0:0:
475,116,21586,1,10,0:3:0:0:
368,132,21767,1,2,0:0:0:0:
222,239,21947,5,6,3:1:0:0:
206,346,22128,1,10,0:3:0:0:
313,362,22309,1,10,0:3:0:0:
329,255,22490,1,2,0:0:0:0:
202,60,22670,5,14,0:3:0:0:
150,42,22761,1,8,0:3:0:0:
99,59,22851,1,8,0:3:0:0:
73,106,22941,1,8,0:3:0:0:
101,187,23032,5,10,0:3:0:0:
153,205,23123,1,8,0:3:0:0:
204,188,23213,1,8,0:3:0:0:
230,141,23303,1,8,0:3:0:0:
202,60,23393,6,0,L|192:27,5,30,10|8|8|8|8|8,0:3|0:3|0:3|0:3|0:3|0:3,0:0:0:0:
280,38,23755,6,0,L|270:5,1,30,10|8,0:3|0:3,0:0:0:0:
302,22,23875,6,0,L|325:-3,1,30,8|8,0:3|0:3,0:0:0:0:
332,33,23996,6,0,L|365:40,1,30,8|8,0:3|0:3,0:0:0:0:
343,61,24116,5,12,3:1:0:0:
324,232,26646,6,0,L|338:131,1,80.9999975280763,4|0,1:1|0:0,0:0:0:0:
188,232,27008,6,0,L|174:131,1,80.9999975280763,4|0,3:1|0:0,0:0:0:0:
393,99,29899,5,4,0:0:0:0:
458,161,30080,1,2,0:0:0:0:
458,161,30261,1,2,1:0:0:0:
458,161,30441,1,2,0:0:0:0:
376,81,30622,6,0,B|331:70|331:70|271:95|271:95|196:77,1,180,10|2,1:3|1:0,0:0:0:0:
138,17,31164,1,2,0:0:0:0:
32,171,31345,2,0,B|80:182|80:182|42:157,1,90,10|0,1:0|0:0,0:0:0:0:
17,71,31706,5,2,1:0:0:0:
198,175,31887,1,2,3:0:0:0:
198,175,31977,1,0,3:0:0:0:
198,175,32068,2,0,L|296:157,1,90,10|0,1:3|3:0,0:0:0:0:
165,272,32429,6,0,L|263:254,1,90,6|2,1:0|0:0,0:0:0:0:
340,238,32610,1,2,0:0:0:0:
468,377,32791,5,6,1:0:0:0:
494,291,32971,1,2,0:0:0:0:
494,291,33152,1,2,1:0:0:0:
494,291,33333,1,2,0:0:0:0:
346,369,33514,6,0,B|287:379|287:379|323:354,1,90,10|2,1:3|0:0,0:0:0:0:
357,274,33875,1,2,1:0:0:0:
357,274,34056,1,2,0:0:0:0:
186,142,34237,6,0,B|161:124|161:124|220:134,1,90,10|0,1:0|0:0,0:0:0:0:
269,224,34598,1,2,1:0:0:0:
319,97,34779,1,2,3:0:0:0:
319,97,34869,1,0,3:0:0:0:
319,97,34959,2,0,L|410:115,1,90,10|0,1:3|3:0,0:0:0:0:
293,0,35321,6,0,L|384:18,1,90,6|2,1:0|0:0,0:0:0:0:
467,37,35502,1,2,0:0:0:0:
348,195,35682,5,6,1:0:0:0:
319,97,35863,1,2,0:0:0:0:
319,97,36044,1,2,1:0:0:0:
319,97,36224,1,2,0:0:0:0:
462,203,36405,6,0,B|486:244|486:244|469:337|469:337|446:298,1,180,10|2,1:3|1:0,0:0:0:0:
378,236,36947,1,2,0:0:0:0:
231,316,37128,5,10,1:0:0:0:
320,349,37309,1,2,0:0:0:0:
144,358,37490,5,2,1:0:0:0:
284,234,37670,1,2,3:0:0:0:
284,234,37761,1,0,3:0:0:0:
284,234,37851,2,0,L|270:140,1,90,10|0,1:3|3:0,0:0:0:0:
382,268,38212,6,0,L|368:174,1,90,6|2,1:0|0:0,0:0:0:0:
357,91,38393,1,0,3:0:0:0:
154,58,38574,6,0,B|105:76|105:76|42:50|42:50|74:32,1,135,6|2,1:0|0:0,0:0:0:0:
54,42,38935,2,0,L|65:106,1,45,0|0,1:0|0:0,0:0:0:0:
117,159,39116,2,0,L|106:222,1,45
54,284,39297,6,0,B|37:315|37:315|106:289,1,90,10|0,1:3|0:0,0:0:0:0:
172,328,39568,1,0,0:0:0:0:
172,328,39658,2,0,L|273:357,1,90,0|0,1:0|0:0,0:0:0:0:
397,221,40020,5,6,1:0:0:0:
312,251,40200,1,0,0:0:0:0:
470,74,40562,5,0,3:0:0:0:
470,74,40652,1,0,3:0:0:0:
470,74,40743,2,0,L|378:54,1,90,10|0,1:3|3:0,0:0:0:0:
75,124,41465,5,4,3:2:0:0:
159,84,41646,1,2,0:0:0:0:
99,14,41827,5,2,1:0:0:0:
250,79,42008,1,2,3:0:0:0:
166,187,42188,2,0,L|151:95,1,90,10|0,1:3|3:0,0:0:0:0:
346,187,42550,1,2,1:0:0:0:
359,98,42730,1,2,0:0:0:0:
324,286,42911,5,10,1:0:0:0:
417,255,43092,1,0,3:0:0:0:
236,252,43273,5,2,1:0:0:0:
391,367,43453,1,2,3:0:0:0:
391,367,43544,1,0,3:0:0:0:
391,367,43634,2,0,L|486:348,1,90,10|0,1:3|3:0,0:0:0:0:
354,163,43996,6,0,L|300:154,1,45,2|0,1:0|0:0,0:0:0:0:
236,109,44176,2,0,L|182:100,1,45,0|0,3:0|0:0,0:0:0:0:
114,141,44357,5,4,1:0:0:0:
187,201,44538,1,2,0:0:0:0:
109,265,44718,5,2,1:0:0:0:
272,230,44899,1,2,3:0:0:0:
189,376,45080,2,0,L|99:359,1,90,10|0,1:3|3:0,0:0:0:0:
323,376,45441,1,2,1:0:0:0:
411,359,45622,1,2,0:0:0:0:
486,201,45803,5,10,1:0:0:0:
395,221,45983,1,2,3:0:0:0:
428,128,46164,5,2,1:0:0:0:
326,288,46345,1,2,3:0:0:0:
326,288,46435,1,0,3:0:0:0:
326,288,46526,2,0,L|227:266,1,90,10|0,1:3|3:0,0:0:0:0:
95,363,46887,6,0,L|85:316,1,45,0|0,1:0|0:0,0:0:0:0:
135,248,47068,2,0,L|125:201,1,45,0|0,3:0|3:0,0:0:0:0:
175,134,47249,5,4,1:0:0:0:
264,163,47429,1,2,0:0:0:0:
248,73,47610,5,0,1:0:0:0:
283,257,47791,1,2,3:0:0:0:
373,109,47971,2,0,B|396:87|396:87|326:103,1,90,10|0,1:3|3:0,0:0:0:0:
141,143,48333,2,0,B|118:121|118:121|188:137,1,90,2|0,1:0|0:0,0:0:0:0:
111,262,48694,6,0,B|54:274|54:274|77:252,1,90,10|0,1:0|3:0,0:0:0:0:
265,158,49056,1,2,1:0:0:0:
192,330,49237,1,2,3:0:0:0:
192,330,49327,1,0,3:0:0:0:
192,330,49417,2,0,L|287:348,1,90,10|0,1:3|3:0,0:0:0:0:
456,269,49779,2,0,L|405:279,1,45,2|0,1:0|0:0,0:0:0:0:
468,181,49959,2,0,L|417:191,1,45,0|0,3:0|0:0,0:0:0:0:
354,125,50140,6,0,B|332:96|332:96|352:21|352:21|369:38,1,135,6|0,1:0|0:0,0:0:0:0:
366,35,50502,2,0,L|315:45,1,45,2|0,1:0|0:0,0:0:0:0:
234,11,50682,2,0,L|183:21,1,45,0|0,3:0|0:0,0:0:0:0:
76,106,50863,6,0,B|60:63|60:63|80:13,1,90,14|0,1:3|3:0,0:0:0:0:
161,271,51224,2,0,B|177:311|177:311|161:354,1,90,2|0,1:0|0:0,0:0:0:0:
33,194,51586,6,0,B|86:202|86:202|147:178|147:178|218:186,1,180,2|0,1:0|1:0,0:0:0:0:
380,61,52128,1,0,3:0:0:0:
380,61,52218,1,0,3:0:0:0:
380,61,52309,2,0,L|317:70,1,45,14|0,1:3|0:0,0:0:0:0:
405,140,52490,2,0,L|342:149,1,45,0|0,3:0|0:0,0:0:0:0:
463,257,52670,6,0,L|469:212,1,26.9999991760254,0|0,1:0|0:0,0:0:0:0:
382,250,52851,2,0,L|378:276,1,26.9999991760254,0|0,3:0|3:0,0:0:0:0:
469,357,53032,5,6,0:2:0:0:
256,192,53122,12,2,57369,0:0:0:0:
334,92,58092,5,2,0:0:0:0:
340,88,58453,2,0,B|384:77|384:77|342:102,1,80.9999975280763,2|0,0:0|0:0,0:0:0:0:
293,161,58815,6,0,L|224:150,1,62.9999980773926,4|0,3:2|0:0,0:0:0:0:
75,92,58996,1,2,1:3:0:0:
75,92,59086,2,0,L|214:68,1,125.999996154785,2|0,0:3|0:0,0:0:0:0:
277,246,59357,2,0,L|214:236,1,62.9999980773926,2|0,1:3|0:0,0:0:0:0:
138,182,59538,5,8,3:1:0:0:
314,89,59718,1,2,1:3:0:0:
335,44,59808,1,0,0:0:0:0:
311,0,59899,1,2,3:0:0:0:
228,47,60080,2,0,L|161:36,1,62.9999980773926,2|0,1:3|0:0,0:0:0:0:
314,186,60261,6,0,L|419:167,1,94.499997116089,2|0,3:0|0:0,0:0:0:0:
417,168,60441,2,0,B|459:179|459:179|429:185,1,62.9999980773926,10|0,1:2|0:0,0:0:0:0:
369,280,60622,2,0,L|388:385,1,94.499997116089,2|0,3:0|0:0,0:0:0:0:
395,379,60803,2,0,B|437:368|437:368|407:362,1,62.9999980773926,10|0,1:2|0:0,0:0:0:0:
261,309,60983,6,0,B|238:294|238:294|168:314|168:314|150:351,1,125.999996154785,10|8,3:1|1:2,0:0:0:0:
123,223,61255,1,0,0:0:0:0:
123,223,61345,2,0,B|146:238|146:238|216:218|216:218|234:181,1,125.999996154785,2|8,3:0|1:2,0:0:0:0:
285,3,61706,6,0,L|273:74,1,62.9999980773926,2|0,3:0|0:0,0:0:0:0:
351,217,61887,1,2,1:0:0:0:
351,217,61977,2,0,L|374:88,1,125.999996154785,2|0,0:3|0:0,0:0:0:0:
479,27,62249,2,0,L|468:89,1,62.9999980773926,2|0,1:0|0:0,0:0:0:0:
500,190,62429,5,8,3:1:0:0:
347,311,62610,1,2,1:0:0:0:
330,263,62700,1,0,0:0:0:0:
351,217,62791,1,2,3:0:0:0:
435,269,62971,2,0,L|497:280,1,62.9999980773926,2|0,1:0|0:0,0:0:0:0:
269,367,63152,6,0,L|161:383,1,94.499997116089,2|0,3:0|0:0,0:0:0:0:
167,377,63333,2,0,B|164:354|164:354|167:339|167:339|163:305,1,62.9999980773926,2|0,1:0|0:0,0:0:0:0:
18,224,63513,2,0,L|126:240,1,94.499997116089,2|0,3:0|0:0,0:0:0:0:
120,234,63694,2,0,B|123:211|123:211|120:196|120:196|124:162,1,62.9999980773926,2|0,1:0|0:0,0:0:0:0:
207,28,63875,6,0,B|280:10|280:10|253:132,1,188.999994232178,10|0,3:1|0:0,0:0:0:0:
337,227,64237,6,0,L|402:212,1,62.9999980773926,6|0,3:1|0:0,0:0:0:0:
412,122,64417,2,0,L|350:136,1,62.9999980773926,2|0,1:2|0:0,0:0:0:0:
210,222,64598,6,0,B|204:265|204:265|208:290|208:290|201:349,1,108,6|0,3:1|0:0,0:0:0:0:
122,374,64959,1,10,1:2:0:0:
114,372,65140,1,2,0:0:0:0:
302,222,65321,6,0,B|308:265|308:265|304:290|304:290|311:349,1,108,6|0,3:1|0:0,0:0:0:0:
390,374,65682,1,10,1:2:0:0:
398,372,65863,1,2,0:0:0:0:
210,222,66044,5,6,0:1:0:0:
403,134,66224,1,10,1:2:0:0:
167,105,66406,5,4,0:1:0:0:
360,17,66586,1,10,1:2:0:0:
199,233,66767,5,6,3:1:0:0:
199,233,67128,2,0,B|140:223|140:223|190:214,1,108,4|0,3:1|0:0,0:0:0:0:
270,161,67490,6,0,L|337:172,1,62.9999980773926,2|0,3:0|0:0,0:0:0:0:
482,58,67670,1,2,1:0:0:0:
482,58,67761,2,0,L|349:81,1,125.999996154785,2|0,0:0|0:0,0:0:0:0:
291,254,68032,2,0,L|353:264,1,62.9999980773926,2|0,1:0|0:0,0:0:0:0:
434,219,68212,5,8,3:1:0:0:
307,352,68393,2,0,B|239:366|239:366|187:342|187:342|121:356,1,188.999994232178,2|0,1:0|0:0,0:0:0:0:
126,354,68755,2,0,L|116:291,1,62.9999980773926,2|0,1:0|0:0,0:0:0:0:
166,182,68935,5,2,3:0:0:0:
4,69,69116,2,0,L|15:138,1,62.9999980773926,0|0,1:0|0:0,0:0:0:0:
28,215,69297,1,0,3:0:0:0:
190,36,69477,2,0,L|179:105,1,62.9999980773926,0|0,1:0|0:0,0:0:0:0:
166,182,69658,1,10,3:1:0:0:
166,182,70381,5,4,3:2:0:0:
324,115,70562,1,2,1:0:0:0:
343,68,70652,1,0,0:0:0:0:
320,22,70743,2,0,L|249:34,1,62.9999980773926,2|0,3:0|0:0,0:0:0:0:
417,124,70923,2,0,L|479:113,1,62.9999980773926,2|0,1:0|0:0,0:0:0:0:
435,34,71104,5,8,3:1:0:0:
360,212,71285,1,2,1:0:0:0:
341,259,71375,1,0,0:0:0:0:
364,305,71466,2,0,L|435:293,1,62.9999980773926,2|0,3:0|0:0,0:0:0:0:
267,203,71646,2,0,L|204:213,1,62.9999980773926,2|0,1:0|0:0,0:0:0:0:
143,285,71827,5,0,3:0:0:0:
38,158,72008,1,2,1:0:0:0:
18,111,72098,1,2,0:0:0:0:
41,66,72188,2,0,L|103:55,1,62.9999980773926,2|0,3:0|0:0,0:0:0:0:
246,16,72369,2,0,L|183:5,1,62.9999980773926,2|0,1:0|0:0,0:0:0:0:
157,125,72550,5,8,3:1:0:0:
361,273,72731,1,2,1:0:0:0:
381,226,72821,1,0,0:0:0:0:
358,181,72911,2,0,L|295:170,1,62.9999980773926,2|0,3:0|0:0,0:0:0:0:
157,125,73092,2,0,L|219:114,1,62.9999980773926,2|0,1:0|0:0,0:0:0:0:
198,215,73273,6,0,B|157:206|157:206|115:218|115:218|69:207,1,125.999996154785,0|2,3:0|1:0,0:0:0:0:
90,322,73544,1,2,0:0:0:0:
90,322,73634,2,0,L|102:390,1,62.9999980773926,2|0,3:0|0:0,0:0:0:0:
190,367,73815,2,0,L|179:304,1,62.9999980773926,2|0,1:0|0:0,0:0:0:0:
314,215,73996,6,0,B|355:206|355:206|397:218|397:218|443:207,1,125.999996154785,8|2,3:1|1:0,0:0:0:0:
422,322,74267,1,0,0:0:0:0:
422,322,74357,2,0,L|410:390,1,62.9999980773926,2|0,3:0|0:0,0:0:0:0:
322,367,74538,2,0,L|332:304,1,62.9999980773926,2|0,1:0|0:0,0:0:0:0:
400,125,74718,5,2,3:0:0:0:
419,78,74809,1,0,0:0:0:0:
397,32,74899,1,2,1:0:0:0:
349,15,74990,1,0,0:0:0:0:
305,40,75080,2,0,B|278:51|278:51|241:43,1,62.9999980773926,2|0,3:0|0:0,0:0:0:0:
121,121,75261,2,0,B|148:110|148:110|185:118,1,62.9999980773926,2|0,1:0|0:0,0:0:0:0:
257,180,75441,6,0,L|241:318,1,125.999996154785,10|0,3:1|1:0,0:0:0:0:
117,380,75712,1,0,0:0:0:0:
81,344,75803,2,0,L|95:218,1,125.999996154785,2|0,3:0|1:0,0:0:0:0:
205,30,76164,5,4,3:1:0:0:
311,142,76345,1,2,1:0:0:0:
358,158,76435,1,0,0:0:0:0:
400,129,76526,2,0,L|391:61,1,62.9999980773926,2|0,3:0|0:0,0:0:0:0:
481,175,76706,2,0,L|472:237,1,62.9999980773926,2|0,1:0|0:0,0:0:0:0:
380,286,76887,6,0,B|298:270|298:270|276:249,1,94.499997116089,10|0,3:1|0:0,0:0:0:0:
284,254,77068,2,0,L|298:338,1,62.9999980773926,2|0,1:0|0:0,0:0:0:0:
201,348,77249,2,0,B|119:364|119:364|97:385,1,94.499997116089,2|0,3:0|0:0,0:0:0:0:
106,380,77430,2,0,L|94:307,1,62.9999980773926,2|0,1:0|0:0,0:0:0:0:
4,192,77610,6,0,B|17:214|17:214|92:234|92:234|125:219,1,125.999996154785,6|2,3:1|1:0,0:0:0:0:
77,133,77881,1,0,0:0:0:0:
77,133,77971,2,0,L|66:64,1,62.9999980773926,2|0,3:0|0:0,0:0:0:0:
146,23,78152,2,0,L|155:85,1,62.9999980773926,2|0,1:0|0:0,0:0:0:0:
300,197,78333,6,0,L|311:128,1,62.9999980773926,10|0,3:1|0:0,0:0:0:0:
219,156,78514,2,0,L|209:218,1,62.9999980773926,2|0,1:0|0:0,0:0:0:0:
380,326,78694,6,0,L|369:257,1,62.9999980773926,2|0,3:0|0:0,0:0:0:0:
289,311,78875,2,0,L|298:373,1,62.9999980773926,2|0,1:0|0:0,0:0:0:0:
466,281,79056,5,6,3:1:0:0:
400,164,79237,1,0,1:0:0:0:
400,164,79327,1,0,0:0:0:0:
400,164,79417,2,0,P|404:117|421:71,1,90,0|2,0:0|1:0,0:0:0:0:
265,7,79779,5,2,3:0:0:0:
181,258,79959,1,2,0:0:0:0:
181,258,80049,1,0,0:0:0:0:
181,258,80139,2,0,P|185:305|202:351,1,90,2|0,0:0|1:0,0:0:0:0:
70,115,80502,5,6,0:0:0:0:
335,145,81224,6,0,B|341:139|341:139|333:193,1,53.9999983520508,2|0,0:0|0:0,0:0:0:0:
322,139,81586,2,0,B|328:133|328:133|320:187,1,53.9999983520508,2|0,0:0|0:0,0:0:0:0:
213,348,81947,6,0,B|195:335|195:335|79:357,1,125.999996154785,4|2,3:2|1:3,0:0:0:0:
35,272,82218,1,2,0:3:0:0:
35,272,82309,2,0,B|44:277|44:277|109:265,1,62.9999980773926,2|0,3:0|0:0,0:0:0:0:
162,204,82490,2,0,B|213:194|213:194|222:199,1,62.9999980773926,2|0,1:3|0:0,0:0:0:0:
320,280,82670,5,8,3:1:0:0:
453,156,82851,2,0,B|479:92|479:92|452:17,1,125.999996154785,2|2,1:3|3:0,0:0:0:0:
373,18,83122,1,0,0:0:0:0:
373,18,83212,2,0,L|310:9,1,62.9999980773926,2|0,1:3|0:0,0:0:0:0:
163,62,83393,6,0,B|152:81|152:81|159:126,1,62.9999980773926,2|0,3:0|0:0,0:0:0:0:
241,166,83574,2,0,B|252:147|252:147|245:102,1,62.9999980773926,10|0,1:2|0:0,0:0:0:0:
106,233,83755,6,0,B|114:229|114:229|153:235|153:235|174:228,1,62.9999980773926,2|0,3:0|0:0,0:0:0:0:
277,306,83935,2,0,B|263:310|263:310|224:304|224:304|216:308,1,62.9999980773926,10|0,1:2|0:0,0:0:0:0:
123,357,84116,6,0,L|105:225,1,125.999996154785,10|8,3:1|1:2,0:0:0:0:
4,177,84387,1,0,0:0:0:0:
38,140,84477,2,0,L|55:15,1,125.999996154785,2|8,3:0|1:2,0:0:0:0:
300,109,84839,5,2,3:0:0:0:
186,180,85020,1,2,1:0:0:0:
177,130,85110,1,2,0:3:0:0:
169,80,85200,2,0,L|179:13,1,62.9999980773926,2|0,3:0|0:0,0:0:0:0:
300,109,85381,2,0,L|290:171,1,62.9999980773926,2|0,1:0|0:0,0:0:0:0:
167,277,85562,6,0,B|132:284|132:284|74:275|74:275|36:283,1,125.999996154785,8|2,3:1|1:0,0:0:0:0:
124,384,85833,1,0,0:0:0:0:
124,384,85923,2,0,L|196:368,1,62.9999980773926,2|0,3:0|0:0,0:0:0:0:
271,308,86104,2,0,L|343:324,1,62.9999980773926,2|0,1:0|0:0,0:0:0:0:
485,291,86285,6,0,B|492:243|492:243|485:225,1,62.9999980773926,2|0,3:0|0:0,0:0:0:0:
396,181,86465,2,0,B|389:229|389:229|396:247,1,62.9999980773926,2|0,1:0|0:0,0:0:0:0:
496,92,86646,6,0,B|445:100|445:100|423:92,1,62.9999980773926,2|0,3:0|0:0,0:0:0:0:
280,62,86827,2,0,B|331:54|331:54|353:62,1,62.9999980773926,2|0,1:0|0:0,0:0:0:0:
217,201,87008,6,0,B|137:151|137:151|24:181,1,188.999994232178,10|0,3:1|0:0,0:0:0:0:
0,307,87369,1,6,3:1:0:0:
16,354,87459,1,0,0:0:0:0:
60,377,87550,1,2,1:2:0:0:
109,368,87640,1,0,0:0:0:0:
189,325,87730,6,0,B|227:321|227:321|250:327|250:327|312:320,1,108,6|0,3:1|0:0,0:0:0:0:
370,364,88092,2,0,L|406:357,1,36,10|0,1:2|0:0,0:0:0:0:
426,366,88273,2,0,L|462:359,1,36,2|0,0:0|0:0,0:0:0:0:
260,213,88453,6,0,L|331:228,1,72,14|0,3:1|3:0,0:0:0:0:
402,177,88724,1,0,0:0:0:0:
402,177,88815,2,0,L|438:184,1,36,10|0,1:2|0:0,0:0:0:0:
458,175,88996,2,0,L|494:182,1,36,2|0,0:0|0:0,0:0:0:0:
396,49,89176,6,0,P|380:26|389:54,1,80.9999975280763,6|0,0:1|0:0,0:0:0:0:
459,305,89357,2,0,L|465:253,1,45,10|0,1:2|0:0,0:0:0:0:
383,59,89538,6,0,P|367:36|376:64,1,80.9999975280763,6|0,0:1|0:0,0:0:0:0:
446,315,89719,2,0,L|452:263,1,45,10|0,1:2|0:0,0:0:0:0:
262,97,89899,6,0,P|246:74|255:102,1,80.9999975280763,14|0,3:1|0:0,0:0:0:0:
325,353,90080,2,0,L|331:301,1,45,2|0,0:0|0:0,0:0:0:0:
249,107,90261,6,0,P|233:84|242:112,1,80.9999975280763,6|0,3:1|0:0,0:0:0:0:
312,363,90442,2,0,L|318:311,1,45
107,225,90622,6,0,B|11:242|11:242|46:194,1,125.999996154785,6|0,3:1|1:0,0:0:0:0:
90,128,90893,1,0,0:0:0:0:
90,128,90983,2,0,L|156:137,1,62.9999980773926,0|0,3:0|0:0,0:0:0:0:
131,43,91164,2,0,L|68:34,1,62.9999980773926,2|0,1:0|0:0,0:0:0:0:
262,8,91345,6,0,B|255:53|255:53|263:82|263:82|252:143,1,125.999996154785,8|2,3:1|1:0,0:0:0:0:
329,228,91616,1,0,0:0:0:0:
329,228,91706,2,0,B|340:233|340:233|394:224,1,62.9999980773926,0|0,3:0|0:0,0:0:0:0:
427,131,91887,2,0,B|416:126|416:126|362:135,1,62.9999980773926,0|0,1:0|0:0,0:0:0:0:
226,230,92068,6,0,L|237:298,1,62.9999980773926,0|0,3:0|0:0,0:0:0:0:
156,355,92249,2,0,L|145:292,1,62.9999980773926,0|0,1:0|0:0,0:0:0:0:
236,215,92429,6,0,L|247:283,1,62.9999980773926,0|0,3:0|0:0,0:0:0:0:
146,371,92610,2,0,L|135:308,1,62.9999980773926,0|0,1:0|0:0,0:0:0:0:
50,206,92791,1,10,0:1:0:0:
242,21,93514,5,4,3:2:0:0:
343,149,93694,1,2,1:3:0:0:
390,167,93785,1,2,0:3:0:0:
429,136,93875,2,0,L|499:148,1,62.9999980773926,2|0,3:0|0:0,0:0:0:0:
512,242,94056,2,0,L|449:231,1,62.9999980773926,2|0,1:3|0:0,0:0:0:0:
338,294,94237,1,8,3:1:0:0:
179,195,94417,6,0,L|167:266,1,62.9999980773926,2|0,1:3|0:0,0:0:0:0:
239,375,94598,2,0,L|249:312,1,62.9999980773926,2|0,3:0|0:0,0:0:0:0:
168,180,94779,2,0,L|156:251,1,62.9999980773926,2|0,1:3|0:0,0:0:0:0:
306,213,94959,6,0,B|352:207|352:207|379:218|379:218|443:210,1,125.999996154785,2|10,3:0|1:2,0:0:0:0:
486,135,95230,1,0,0:0:0:0:
486,135,95321,2,0,B|492:117|492:117|484:67,1,62.9999980773926,2|0,3:0|0:0,0:0:0:0:
386,19,95502,2,0,B|380:37|380:37|388:87,1,62.9999980773926,10|0,1:2|0:0,0:0:0:0:
276,87,95682,6,0,L|206:74,1,62.9999980773926,10|0,3:1|0:0,0:0:0:0:
78,135,95863,2,0,L|139:146,1,62.9999980773926,8|0,1:2|0:0,0:0:0:0:
263,71,96044,2,0,L|193:58,1,62.9999980773926,0|0,3:0|0:0,0:0:0:0:
65,119,96225,2,0,L|126:130,1,62.9999980773926,8|0,1:2|0:0,0:0:0:0:
219,210,96405,5,0,3:0:0:0:
90,365,96586,1,2,1:0:0:0:
70,318,96676,1,2,0:3:0:0:
99,276,96767,2,0,B|114:269|114:269|167:279,1,62.9999980773926,2|0,3:0|0:0,0:0:0:0:
223,352,96947,2,0,B|238:359|238:359|291:349,1,62.9999980773926,2|0,1:0|0:0,0:0:0:0:
391,265,97128,1,8,3:1:0:0:
482,109,97309,6,0,L|472:178,1,62.9999980773926,2|0,1:0|0:0,0:0:0:0:
375,81,97490,2,0,L|384:18,1,62.9999980773926,2|0,3:0|0:0,0:0:0:0:
495,120,97670,2,0,L|485:189,1,62.9999980773926,2|0,1:0|0:0,0:0:0:0:
329,202,97851,6,0,B|282:196|282:196|251:205|251:205|191:197,1,125.999996154785,0|2,3:0|1:0,0:0:0:0:
90,131,98122,1,0,0:0:0:0:
90,131,98212,2,0,L|23:141,1,62.9999980773926,2|0,3:0|0:0,0:0:0:0:
147,35,98393,2,0,L|209:44,1,62.9999980773926,2|0,1:0|0:0,0:0:0:0:
369,113,98574,6,0,B|395:1|395:1|323:20,1,188.999994232178,10|0,3:1|0:0,0:0:0:0:
269,128,98935,1,4,3:1:0:0:
277,178,99026,1,0,0:0:0:0:
284,227,99116,1,0,1:2:0:0:
292,276,99206,1,0,0:0:0:0:
365,341,99297,6,0,B|451:356|451:356|481:346,1,108,6|0,3:1|0:0,0:0:0:0:
501,268,99658,2,0,L|496:227,1,36,2|0,3:0|0:0,0:0:0:0:
505,214,99839,2,0,L|500:173,1,36,2|0,1:0|0:0,0:0:0:0:
237,238,100020,6,0,B|323:253,1,72,14|0,3:1|1:0,0:0:0:0:
370,189,100291,1,0,0:0:0:0:
370,189,100381,2,0,L|365:148,1,36,2|0,3:0|0:0,0:0:0:0:
374,135,100562,2,0,L|369:94,1,36,2|0,1:0|0:0,0:0:0:0:
266,30,100743,6,0,P|250:7|259:35,1,80.9999975280763,6|0,3:1|0:0,0:0:0:0:
508,101,100924,2,0,L|456:107,1,45,2|0,1:0|0:0,0:0:0:0:
258,44,101104,6,0,P|242:21|251:49,1,80.9999975280763,6|0,3:1|0:0,0:0:0:0:
500,115,101285,2,0,L|448:121,1,45,2|0,1:0|0:0,0:0:0:0:
233,166,101465,6,0,P|217:143|226:171,1,80.9999975280763,14|0,3:1|0:0,0:0:0:0:
475,237,101646,2,0,L|423:243,1,45,2|0,1:0|0:0,0:0:0:0:
225,180,101827,6,0,P|209:157|218:185,1,80.9999975280763,6|0,3:1|0:0,0:0:0:0:
467,251,102008,2,0,L|415:257,1,45,2|0,1:0|0:0,0:0:0:0:
251,322,102188,6,0,B|319:343|319:343|294:249,1,161.999995056153,6|0,3:1|0:0,0:0:0:0:
216,185,102550,2,0,B|167:197|167:197|163:203|163:203|92:222,1,108
26,94,102911,6,0,B|2:6|2:6|70:27,1,161.999995056153,8|0,3:1|0:0,0:0:0:0:
162,75,103273,2,0,B|211:63|211:63|215:57|215:57|263:43,1,108
397,102,103634,2,0,P|408:117|390:104,1,62.9999980773926,4|0,0:0|0:0,0:0:0:0:
388,106,105080,5,6,3:2:0:0:
271,85,105441,5,2,0:0:0:0:
240,74,105622,5,2,0:0:0:0:
240,42,105803,5,10,3:1:0:0:
271,32,105983,5,2,0:0:0:0:
290,58,106164,5,2,0:0:0:0:
135,221,106526,5,2,3:0:0:0:
104,232,106707,5,2,3:0:0:0:
104,264,106888,5,2,0:0:0:0:
135,274,107068,5,2,0:0:0:0:
154,248,107249,5,8,1:3:0:0:
82,115,107610,6,0,L|51:109,1,20.2499993820191,0|0,1:0|0:0,0:0:0:0:
255,345,107971,5,2,3:0:0:0:
355,254,108333,5,2,0:0:0:0:
386,243,108514,5,2,0:0:0:0:
386,211,108695,5,10,3:1:0:0:
355,201,108875,5,2,0:0:0:0:
336,227,109056,5,2,0:0:0:0:
193,96,109417,5,2,3:0:0:0:
162,85,109598,5,2,0:0:0:0:
162,53,109779,5,2,0:0:0:0:
193,43,109959,5,2,0:0:0:0:
212,69,110140,5,10,1:3:0:0:
76,267,110502,6,0,L|71:240,1,20.2499993820191,2|0,1:0|0:0,0:0:0:0:
287,193,110863,5,4,3:2:0:0:
361,351,111224,5,2,0:0:0:0:
442,240,111405,5,2,0:0:0:0:
442,378,111586,5,10,3:1:0:0:
361,266,111767,5,2,0:0:0:0:
491,309,111947,5,2,0:0:0:0:
287,193,112309,5,2,3:0:0:0:
206,82,112490,5,2,0:0:0:0:
206,220,112671,5,2,0:0:0:0:
287,108,112852,5,2,0:0:0:0:
157,151,113032,5,8,1:3:0:0:
42,365,113755,5,0,3:0:0:0:
231,250,114116,5,2,0:0:0:0:
101,207,114296,5,2,0:0:0:0:
182,319,114477,5,10,3:1:0:0:
182,181,114658,5,2,0:0:0:0:
101,292,114839,5,2,0:0:0:0:
289,115,115200,6,0,L|253:109,1,20.2499993820191,6|0,1:1|0:0,0:0:0:0:
474,53,115380,5,2,0:0:0:0:
358,213,115562,6,0,L|363:246,1,20.2499993820191,6|0,1:0|0:0,0:0:0:0:
358,15,115742,5,2,0:0:0:0:
474,174,115923,6,0,L|511:169,1,20.2499993820191,6|0,1:0|0:0,0:0:0:0:
