osu file format v14

[General]
AudioFilename: audio.mp3
AudioLeadIn: 0
PreviewTime: 58002
Countdown: 0
SampleSet: Soft
StackLeniency: 0.4
Mode: 0
LetterboxInBreaks: 0
WidescreenStoryboard: 1

[Editor]
Bookmarks: 34869,41465
DistanceSpacing: 1
BeatDivisor: 4
GridSize: 4
TimelineZoom: 2.899999

[Metadata]
Title:Shiratsuyu no Kaze
TitleUnicode:白露の風
Artist:Qrispy Joybox feat. Yu Tokiwa
ArtistUnicode:Qrispy Joybox feat. 常盤ゆう
Creator:MianYa
Version:Ag's Hard
Source:beatmania IIDX 22 PENDUAL
Tags:想歌 風 japanese SOUKA KAZE tatsuya iyama __ag LeeGod yua -yua Sanayui game reflec beat groovin'!! upper plus bemani konami arcade video not your kitty not_your_kitty electronic arronchu1207
BeatmapID:4365508
BeatmapSetID:2081690

[Difficulty]
HPDrainRate:4
CircleSize:4
OverallDifficulty:7
ApproachRate:8
SliderMultiplier:1.4
SliderTickRate:1

[Events]
//Background and Video events
0,0,"104320878_p0.jpg",0,0
//Break Periods
2,53232,57342
//Storyboard Layer 0 (Background)
//Storyboard Layer 1 (Fail)
//Storyboard Layer 2 (Pass)
//Storyboard Layer 3 (Foreground)
//Storyboard Layer 4 (Overlay)
//Storyboard Sound Samples

[TimingPoints]
622,361.44578313253,4,2,1,100,1,0
984,361.44578313253,4,2,1,55,1,0
984,-125,4,2,1,55,0,0
6044,-166.666666666667,4,2,1,55,0,0
6767,-125,4,2,1,55,0,0
12550,-100,4,2,1,80,0,0
18151,-100,4,2,1,80,0,0
18333,-100,4,2,1,90,0,0
24116,-111.111111111111,4,2,1,70,0,0
27007,-111.111111111111,4,2,1,60,0,0
29446,-111.111111111111,4,2,1,60,0,0
29899,-100,4,2,1,80,0,0
32237,-100,4,2,1,80,0,0
40923,-100,4,2,1,40,0,0
41465,-100,4,2,1,80,0,0
53032,-100,4,2,1,70,0,0
54477,-100,4,2,1,65,0,0
55923,-100,4,2,1,55,0,0
56646,-100,4,2,1,45,0,0
57369,-100,4,2,1,35,0,0
58092,-166.666666666667,4,2,1,90,0,0
58815,-83.3333333333333,4,2,1,100,0,0
69658,-166.666666666667,4,2,1,80,0,0
70290,-166.666666666667,4,2,1,80,0,0
70381,-83.3333333333333,4,2,1,100,0,0
80501,-83.3333333333333,4,2,1,60,0,0
81224,-166.666666666667,4,2,1,90,0,0
81856,-166.666666666667,4,2,1,90,0,0
81947,-83.3333333333333,4,2,1,100,0,0
87459,-83.3333333333333,4,2,1,100,0,0
87549,-83.3333333333333,4,2,1,100,0,0
87640,-83.3333333333333,4,2,1,100,0,0
87730,-83.3333333333333,4,2,1,100,0,0
92791,-166.666666666667,4,2,1,80,0,0
93423,-166.666666666667,4,2,1,80,0,0
93514,-83.3333333333333,4,2,1,100,0,0
103634,-100,4,2,1,60,0,0
104356,-100,4,2,1,60,0,0
105080,-111.111111111111,4,2,1,65,0,0
110863,-111.111111111111,4,2,1,75,0,0
111771,-111.111111111111,4,2,1,75,0,0

[Colours]
Combo1 : 128,128,255
Combo2 : 255,128,128
Combo3 : 255,0,0
Combo4 : 128,0,255

[HitObjects]
9,196,984,6,0,B|67:210|92:150|92:150|115:83|190:80|190:80|119:87|113:156,1,336,12|2,3:1|0:0,0:0:0:0:
218,224,2429,6,0,B|252:273|233:324|233:324|317:223|317:223|304:281|357:329,1,336,10|2,3:1|0:0,0:0:0:0:
437,219,3875,6,0,P|479:216|410:130,2,224,10|10|10,3:1|3:1|3:1,0:0:0:0:
124,103,6044,6,0,P|108:66|173:87,1,146.999995513916,2|0,0:0|0:0,0:0:0:0:
192,95,6767,6,0,B|129:147|129:147|187:114|255:135|255:135|322:125|322:125|376:143,1,336,10|0,3:1|0:0,0:0:0:0:
408,270,8212,6,0,B|433:292|460:344|460:344|437:213|437:213|475:82,1,336,10|0,3:1|0:0,0:0:0:0:
320,66,9658,5,10,3:1:0:0:
361,211,10381,1,10,3:1:0:0:
236,295,11104,1,10,3:1:0:0:
117,202,11827,1,10,3:1:0:0:
168,60,12550,5,4,3:2:0:0:
241,99,12730,2,0,P|219:129|180:138,2,70,2|10|2,0:0|0:0|0:0,0:0:0:0:
281,24,13273,2,0,L|348:61,1,70,2|2,0:0|0:0,0:0:0:0:
421,29,13634,2,0,L|415:105,1,70,10|2,0:0|0:0,0:0:0:0:
410,182,13996,6,0,L|476:157,2,70,14|2|10,3:1|0:0|0:0,0:0:0:0:
331,210,14538,1,2,0:0:0:0:
250,231,14718,2,0,B|261:284|261:284|244:325,1,70,2|0,0:0|0:0,0:0:0:0:
174,273,15080,1,4,0:1:0:0:
174,273,15441,5,4,3:1:0:0:
250,231,15622,2,0,B|219:180|219:180|223:156,2,70,2|10|2,0:0|0:0|0:0,0:0:0:0:
321,186,16164,2,0,P|356:176|400:192,1,70,2|2,0:0|0:0,0:0:0:0:
394,312,16526,2,0,P|367:286|359:240,1,70,10|2,0:0|0:0,0:0:0:0:
468,189,16887,6,0,P|459:224|423:254,2,70,14|2|10,3:1|0:0|0:0,0:0:0:0:
451,106,17429,1,2,0:0:0:0:
471,24,17610,2,0,B|410:38|410:38|399:53,1,70,2|0,3:0|0:0,0:0:0:0:
367,119,17971,2,0,B|310:101|310:101|305:80,1,70,4|0,0:1|0:0,0:0:0:0:
258,22,18333,5,4,3:2:0:0:
178,49,18514,2,0,P|148:34|112:38,2,70,10|2|10,0:3|0:0|0:3,0:0:0:0:
128,118,19056,2,0,B|109:162|109:162|111:190,1,70,2|10,0:0|0:3,0:0:0:0:
98,268,19417,2,0,B|145:262|145:262|168:246,1,70,2|10,0:0|0:3,0:0:0:0:
243,219,19779,6,0,B|214:180|214:180|189:168,2,70,12|10|2,3:1|0:3|0:0,0:0:0:0:
243,303,20321,1,10,0:3:0:0:
313,256,20502,2,0,B|369:254|369:254|392:272,1,70,2|8,3:0|0:3,0:0:0:0:
433,327,20863,1,4,0:1:0:0:
433,327,21224,5,4,3:1:0:0:
459,247,21405,2,0,P|495:257|533:240,2,70,10|10|2,0:3|0:3|0:0,0:0:0:0:
480,165,21947,2,0,P|490:124|475:91,1,70,6|10,3:1|0:3,0:0:0:0:
401,127,22309,2,0,P|368:100|331:100,1,70,10|2,0:3|0:0,0:0:0:0:
338,182,22670,6,0,P|329:203|312:213,3,35,14|8|8|8,0:3|0:3|0:3|0:3,0:0:0:0:
322,253,23032,2,0,P|300:254|282:243,3,35,10|8|8|8,0:3|0:3|0:3|0:3,0:0:0:0:
251,268,23393,2,0,P|240:249|243:229,3,35,10|0|8|0,0:3|0:0|0:3|0:0,0:0:0:0:
200,224,23755,2,0,P|213:207|233:201,3,35,10|0|8|0,0:3|0:0|0:3|0:0,0:0:0:0:
164,226,24116,6,0,P|116:243|78:181,1,125.999996154785,12|2,3:1|0:0,0:0:0:0:
113,125,24658,1,2,0:0:0:0:
113,125,24839,2,0,L|172:67,2,62.9999980773926,2|2|2,0:0|0:0|0:0,0:0:0:0:
234,34,25562,2,0,L|254:111,1,62.9999980773926,2|2,0:0|0:0,0:0:0:0:
325,92,25923,2,0,L|340:31,1,62.9999980773926,2|2,0:0|0:0,0:0:0:0:
416,29,26285,1,2,0:0:0:0:
416,29,26646,6,0,B|408:66|408:66|434:113|434:113|420:162,1,125.999996154785,4|4,1:1|3:1,0:0:0:0:
446,330,27730,1,2,0:0:0:0:
446,330,27911,1,2,0:0:0:0:
446,330,28092,1,2,0:0:0:0:
297,356,28453,2,0,P|257:352|239:334,1,62.9999980773926,2|2,0:0|0:0,0:0:0:0:
165,246,28815,2,0,P|205:250|223:268,1,62.9999980773926,2|2,0:0|0:0,0:0:0:0:
171,321,29176,1,10,0:1:0:0:
67,53,29899,6,0,B|81:86|59:102|59:102|0:163|34:205,1,140,4|2,0:0|1:0,0:0:0:0:
51,255,30441,1,2,0:0:0:0:
102,188,30622,2,0,P|124:156|185:223,1,140,10|2,1:3|1:0,0:0:0:0:
207,281,31164,1,2,0:0:0:0:
287,255,31345,6,0,B|269:218|269:218|274:173|274:173|250:109,1,140,10|2,1:0|1:0,0:0:0:0:
312,60,31887,1,2,3:0:0:0:
312,60,31977,1,0,3:0:0:0:
312,60,32068,2,0,B|353:43|353:43|382:45,1,70,10|0,1:3|3:0,0:0:0:0:
478,102,32429,2,0,B|437:119|437:119|408:117,1,70,6|0,1:0|0:0,0:0:0:0:
336,156,32791,6,0,B|355:188|355:188|341:266|341:266|362:299,1,140,6|0,1:0|1:0,0:0:0:0:
352,369,33333,1,2,0:0:0:0:
429,336,33514,2,0,L|494:303,2,70,10|2|2,1:3|0:0|1:0,0:0:0:0:
352,369,34056,1,2,0:0:0:0:
280,324,34237,6,0,P|239:317|193:340,1,70,10|0,1:0|0:0,0:0:0:0:
142,371,34598,1,2,1:0:0:0:
127,290,34779,1,2,3:0:0:0:
127,290,34869,1,0,3:0:0:0:
127,290,34959,2,0,P|49:316|-9:275,1,140,10|6,1:3|1:0,0:0:0:0:
50,80,35682,6,0,B|71:111|71:111|129:79|191:124,1,140,6|2,1:0|1:0,0:0:0:0:
215,180,36224,1,2,0:0:0:0:
249,103,36405,2,0,P|261:67|308:44,1,70,10|0,1:3|0:0,0:0:0:0:
333,118,36767,2,0,P|370:113|411:146,1,70,2|2,1:0|0:0,0:0:0:0:
352,198,37128,6,0,B|356:220|356:220|345:272,1,70,10|2,1:0|0:0,0:0:0:0:
367,348,37490,1,2,1:0:0:0:
287,322,37670,1,2,3:0:0:0:
287,322,37761,1,0,3:0:0:0:
287,322,37851,2,0,L|202:360,1,70,10|0,1:3|3:0,0:0:0:0:
213,250,38212,2,0,L|298:212,1,70,6|0,1:0|0:0,0:0:0:0:
310,143,38574,6,0,B|290:102|290:102|227:85,2,93.3333333333333,6|2|2,1:0|0:0|0:0,0:0:0:0:
382,100,39297,6,0,B|434:98|434:98|476:56,2,93.3333333333333,10|2|0,1:3|0:0|0:0,0:0:0:0:
390,183,40020,6,0,B|365:229|365:229|381:286,2,93.3333333333333,6|2|0,1:0|0:0|3:0,0:0:0:0:
458,246,40743,2,0,P|500:255|522:300,1,70,10|0,1:3|3:0,0:0:0:0:
236,169,41465,6,0,B|258:206|241:235|241:235|215:284|250:322,1,140,4|2,3:2|1:0,0:0:0:0:
296,358,42008,1,2,3:0:0:0:
309,275,42188,2,0,P|350:267|382:279,1,70,10|0,1:3|3:0,0:0:0:0:
442,335,42550,1,2,1:0:0:0:
442,335,42730,1,2,0:0:0:0:
496,271,42911,6,0,B|454:255|454:255|446:217|446:217|390:190,1,140,10|2,1:0|1:0,0:0:0:0:
317,160,43453,1,2,3:0:0:0:
353,84,43634,2,0,L|386:10,1,70,10|0,1:3|3:0,0:0:0:0:
285,35,43996,2,0,L|252:109,1,70,2|0,1:0|3:0,0:0:0:0:
219,174,44357,6,0,B|178:145|178:145|177:120|177:120|105:73,1,140,4|2,1:0|1:0,0:0:0:0:
38,87,44899,1,2,3:0:0:0:
79,160,45080,2,0,L|30:235,1,70,10|0,1:3|3:0,0:0:0:0:
0,293,45441,2,0,L|87:293,1,70,2|2,1:0|0:0,0:0:0:0:
133,234,45803,6,0,L|159:308,1,70,10|2,1:0|3:0,0:0:0:0:
185,379,46164,1,2,1:0:0:0:
246,321,46345,1,2,3:0:0:0:
246,321,46435,1,0,3:0:0:0:
246,321,46526,1,10,1:3:0:0:
457,361,46887,2,0,B|493:287|493:287|452:311,1,105,0|0,1:0|3:0,0:0:0:0:
427,322,47249,6,0,P|408:325|364:294,1,70,4|2,1:0|0:0,0:0:0:0:
360,215,47610,2,0,P|379:212|423:243,2,70,0|2|10,1:0|3:0|1:3,0:0:0:0:
294,263,48152,1,0,3:0:0:0:
294,263,48243,1,2,3:0:0:0:
294,263,48333,2,0,L|217:292,1,70,2|10,1:0|1:0,0:0:0:0:
164,232,48694,6,0,P|177:314|119:318,1,140,10|2,1:0|1:0,0:0:0:0:
55,311,49237,1,2,3:0:0:0:
82,231,49417,2,0,B|73:201|73:201|84:184|84:184|66:94,1,140,10|2,1:3|1:0,0:0:0:0:
234,84,50140,6,0,P|288:42|354:68,1,140,6|2,1:0|1:0,0:0:0:0:
374,144,50682,1,0,3:0:0:0:
356,226,50863,2,0,P|328:245|288:238,1,70,14|0,1:3|3:0,0:0:0:0:
228,187,51224,2,0,B|218:205|218:205|219:230|219:230|206:260,1,70,2|0,1:0|0:0,0:0:0:0:
130,220,51586,6,0,P|85:187|41:259,1,140,2|0,1:0|1:0,0:0:0:0:
70,325,52128,1,0,3:0:0:0:
70,325,52218,1,0,3:0:0:0:
70,325,52309,2,0,L|138:303,1,70,14|0,1:3|3:0,0:0:0:0:
209,252,52670,1,0,1:0:0:0:
209,252,52851,1,0,3:0:0:0:
264,315,53032,1,6,0:2:0:0:
177,34,58092,6,0,B|186:78|186:78|134:127|157:184,1,146.999995513916,2|0,0:0|0:0,0:0:0:0:
162,192,58815,5,4,3:2:0:0:
241,257,58996,1,2,1:3:0:0:
241,257,59086,1,2,0:3:0:0:
241,257,59176,1,0,3:0:0:0:
241,164,59357,2,0,P|270:124|389:170,1,167.999994873047,2|2,1:3|1:3,0:0:0:0:
429,65,59899,1,2,3:0:0:0:
498,125,60080,1,2,1:3:0:0:
446,201,60261,6,0,L|456:298,1,83.9999974365235,2|10,3:0|1:2,0:0:0:0:
390,350,60622,1,2,3:0:0:0:
301,322,60803,1,10,1:2:0:0:
289,230,60983,2,0,L|355:167,1,83.9999974365235,10|8,3:1|1:2,0:0:0:0:
277,113,61345,2,0,P|232:110|214:73,1,83.9999974365235,2|8,3:0|1:2,0:0:0:0:
150,11,61706,5,2,3:0:0:0:
137,102,61887,1,2,1:0:0:0:
137,102,61977,1,2,0:3:0:0:
137,102,62068,1,0,3:0:0:0:
57,54,62249,2,0,B|8:107|111:168|34:230,1,167.999994873047,2|2,1:0|1:0,0:0:0:0:
6,293,62791,1,2,3:0:0:0:
91,326,62971,1,2,1:0:0:0:
132,243,63152,6,0,P|178:229|223:251,1,83.9999974365235,2|2,3:0|1:0,0:0:0:0:
219,375,63514,2,0,P|183:342|180:292,1,83.9999974365235,2|2,3:0|1:0,0:0:0:0:
268,296,63875,2,0,P|288:276|291:251,3,41.9999987182618,10|0|0|0,3:1|0:0|1:0|0:0,0:0:0:0:
320,257,64237,2,0,L|289:167,1,83.9999974365235,6|2,3:1|1:2,0:0:0:0:
356,110,64598,5,6,3:1:0:0:
356,110,64959,2,0,P|399:97|448:117,2,83.9999974365235,10|2|6,1:2|0:0|3:1,0:0:0:0:
205,217,65682,2,0,P|162:230|113:210,2,83.9999974365235,10|2|6,1:2|0:0|0:1,0:0:0:0:
272,153,66224,5,10,1:2:0:0:
353,197,66405,1,4,0:1:0:0:
337,287,66586,1,10,1:2:0:0:
246,301,66767,2,0,B|181:318|181:318|174:333|174:333|84:358,1,167.999994873047,6|4,3:1|3:1,0:0:0:0:
92,355,67490,5,2,3:0:0:0:
50,273,67670,1,2,1:0:0:0:
50,273,67761,1,2,0:0:0:0:
50,273,67851,1,0,3:0:0:0:
8,190,68032,1,2,1:0:0:0:
8,190,68393,2,0,P|54:180|95:194,1,83.9999974365235,2|0,1:0|3:0,0:0:0:0:
139,267,68755,1,2,1:0:0:0:
203,332,68935,6,0,L|282:287,1,83.9999974365235,2|0,3:0|1:0,0:0:0:0:
326,213,69297,2,0,L|281:138,1,83.9999974365235,0|0,3:0|1:0,0:0:0:0:
207,89,69658,6,0,P|232:46|179:71,1,146.999995513916,10|0,3:1|0:0,0:0:0:0:
174,116,70381,5,4,3:2:0:0:
226,192,70562,2,0,L|203:276,1,83.9999974365235,2|2,1:0|3:0,0:0:0:0:
132,332,70923,2,0,P|191:299|232:379,1,167.999994873047,2|2,1:0|1:0,0:0:0:0:
327,363,71465,1,2,3:0:0:0:
419,355,71646,2,0,B|408:308|408:308|369:278|369:278|352:199,1,167.999994873047,2|2,1:0|1:0,0:0:0:0:
439,173,72188,5,2,3:0:0:0:
362,119,72370,2,0,P|318:121|271:171,1,83.9999974365235,2|8,1:0|3:1,0:0:0:0:
253,229,72730,2,0,P|230:201|169:207,2,83.9999974365235,2|2|2,1:0|3:0|1:0,0:0:0:0:
277,318,73273,5,0,3:0:0:0:
366,341,73453,2,0,P|413:334|446:292,2,83.9999974365235,2|2|2,1:0|3:0|1:0,0:0:0:0:
277,318,73996,1,8,3:1:0:0:
189,288,74176,2,0,B|161:353|161:353|130:335,1,83.9999974365235,2|2,1:0|3:0,0:0:0:0:
67,301,74538,1,2,1:0:0:0:
114,221,74718,6,0,L|83:124,1,83.9999974365235,2|2,3:0|1:0,0:0:0:0:
51,55,75080,2,0,P|99:46|141:62,1,83.9999974365235,2|2,3:0|1:0,0:0:0:0:
204,113,75441,2,0,P|238:48|345:80,2,167.999994873047,10|2|4,3:1|3:0|3:1,0:0:0:0:
202,206,76345,5,2,1:0:0:0:
135,270,76526,1,2,3:0:0:0:
108,181,76706,1,2,1:0:0:0:
202,206,76887,2,0,P|244:204|281:171,1,83.9999974365235,10|2,3:1|1:0,0:0:0:0:
359,138,77249,2,0,L|375:230,1,83.9999974365235,2|2,3:0|1:0,0:0:0:0:
462,244,77610,5,6,3:1:0:0:
512,155,77791,1,2,1:0:0:0:
437,109,77971,1,2,3:0:0:0:
437,109,78152,1,2,1:0:0:0:
356,63,78333,2,0,B|259:66,1,83.9999974365235,10|2,3:1|1:0,0:0:0:0:
188,24,78694,2,0,P|176:61|204:129,1,83.9999974365235,2|2,3:0|1:0,0:0:0:0:
230,185,79056,6,0,P|255:219|167:292,1,167.999994873047,6|0,3:1|0:0,0:0:0:0:
97,271,79598,1,2,1:0:0:0:
56,187,79779,2,0,L|172:172,1,83.9999974365235,2|2,3:0|0:0,0:0:0:0:
230,185,80140,2,0,B|281:171|281:171|352:197|352:197|415:184,1,167.999994873047,2|6,0:0|0:0,0:0:0:0:
37,317,81224,2,0,B|88:302|88:302|109:313|109:313|185:292,1,146.999995513916,2|0,0:0|0:0,0:0:0:0:
200,314,81947,5,4,3:2:0:0:
248,238,82128,1,2,1:3:0:0:
248,238,82218,1,2,0:3:0:0:
248,238,82309,1,2,3:0:0:0:
166,194,82490,2,0,P|126:220|80:129,1,167.999994873047,2|2,1:3|1:3,0:0:0:0:
129,67,83032,2,0,L|204:115,1,83.9999974365235,2|2,3:0|1:3,0:0:0:0:
277,162,83393,5,2,3:0:0:0:
320,80,83574,1,10,1:2:0:0:
358,164,83755,1,2,3:0:0:0:
404,86,83935,1,10,1:2:0:0:
450,165,84116,2,0,B|432:208|432:208|459:286|459:286|434:335,2,167.999994873047,10|2|2,3:1|3:0|3:0,0:0:0:0:
404,86,85020,5,2,1:0:0:0:
404,86,85110,1,2,0:3:0:0:
404,86,85200,2,0,P|449:74|492:88,2,83.9999974365235,2|2|8,3:0|1:0|3:1,0:0:0:0:
358,164,85743,1,2,1:0:0:0:
299,93,85923,1,2,3:0:0:0:
243,19,86104,1,2,1:0:0:0:
191,95,86285,6,0,L|146:168,1,83.9999974365235,2|2,3:0|1:0,0:0:0:0:
101,247,86646,2,0,L|186:249,1,83.9999974365235,2|2,3:0|1:0,0:0:0:0:
278,249,87008,2,0,L|237:173,1,83.9999974365235,10|0,3:1|1:0,0:0:0:0:
191,95,87369,2,0,L|184:48,3,41.9999987182618,6|0|2|0,3:1|0:0|1:2|0:0,0:0:0:0:
229,77,87730,6,0,P|276:88|313:74,1,83.9999974365235,6|0,3:1|0:0,0:0:0:0:
401,75,88092,2,0,P|394:35|357:-3,2,83.9999974365235,10|2|14,1:2|0:0|3:1,0:0:0:0:
353,253,88815,2,0,P|360:293|397:331,2,83.9999974365235,10|2|6,1:2|0:0|0:1,0:0:0:0:
353,161,89357,5,10,1:2:0:0:
265,132,89538,1,6,0:1:0:0:
211,207,89718,1,10,1:2:0:0:
265,282,89899,2,0,L|189:326,1,83.9999974365235,14|2,3:1|0:0,0:0:0:0:
58,294,90261,2,0,L|134:250,1,83.9999974365235,6|0,3:1|0:0,0:0:0:0:
211,207,90622,6,0,P|180:184|168:134,1,83.9999974365235,6|0,3:1|1:0,0:0:0:0:
258,128,90983,1,0,3:0:0:0:
258,128,91164,1,2,1:0:0:0:
303,208,91345,6,0,P|298:246|261:281,1,83.9999974365235,8|2,3:1|1:0,0:0:0:0:
211,207,91706,1,0,3:0:0:0:
211,207,91887,1,0,1:0:0:0:
258,128,92068,6,0,P|293:112|342:127,1,83.9999974365235,0|0,3:0|1:0,0:0:0:0:
304,208,92429,1,0,3:0:0:0:
304,208,92610,1,0,1:0:0:0:
211,207,92791,6,0,B|225:169|225:169|205:113|205:113|228:64,1,146.999995513916,10|0,0:1|0:0,0:0:0:0:
233,54,93514,5,4,3:2:0:0:
308,122,93694,1,2,1:3:0:0:
308,122,93785,1,2,0:3:0:0:
308,122,93875,1,2,3:0:0:0:
348,39,94056,2,0,P|328:98|416:140,1,167.999994873047,2|2,1:3|1:3,0:0:0:0:
498,133,94598,1,2,3:0:0:0:
512,235,94779,1,2,1:3:0:0:
420,248,94959,6,0,L|331:259,1,83.9999974365235,2|10,3:0|1:2,0:0:0:0:
275,188,95321,2,0,L|247:273,1,83.9999974365235,2|10,3:0|1:2,0:0:0:0:
157,281,95682,2,0,B|202:331|202:331|254:344|254:344|299:394,2,167.999994873047,10|0|0,3:1|3:0|3:0,0:0:0:0:
115,208,96586,5,2,1:0:0:0:
115,208,96676,1,2,0:3:0:0:
115,208,96767,1,2,3:0:0:0:
58,280,96947,2,0,B|83:233|83:233|74:185|74:185|112:102,1,167.999994873047,2|2,1:0|1:0,0:0:0:0:
21,77,97490,1,2,3:0:0:0:
101,32,97670,1,2,1:0:0:0:
101,125,97851,6,0,P|141:142|184:126,1,83.9999974365235,0|2,3:0|1:0,0:0:0:0:
236,202,98212,2,0,P|268:172|271:127,1,83.9999974365235,2|2,3:0|1:0,0:0:0:0:
360,100,98574,2,0,P|324:56|209:70,2,167.999994873047,10|4|6,3:1|3:1|3:1,0:0:0:0:
417,275,99658,6,0,P|458:285|507:265,2,83.9999974365235,2|2|14,3:0|1:0|3:1,0:0:0:0:
240,219,100381,2,0,P|210:249|203:301,1,83.9999974365235,2|2,3:0|1:0,0:0:0:0:
294,294,100743,1,6,3:1:0:0:
294,294,100923,1,2,1:0:0:0:
331,209,101104,2,0,P|320:168|278:135,1,83.9999974365235,6|2,3:1|1:0,0:0:0:0:
240,219,101465,1,14,3:1:0:0:
240,219,101645,1,2,1:0:0:0:
294,294,101827,2,0,P|334:304|383:285,1,83.9999974365235,6|2,3:1|1:0,0:0:0:0:
457,254,102188,6,0,L|502:325,2,83.9999974365235,6|0|0,3:1|1:0|0:0,0:0:0:0:
407,176,102730,1,0,1:0:0:0:
407,176,102911,2,0,L|483:129,1,83.9999974365235,8|0,3:1|0:0,0:0:0:0:
426,54,103273,2,0,L|350:101,1,83.9999974365235,0|0,0:0|1:0,0:0:0:0:
324,169,103634,6,0,B|254:227|214:188|214:188|229:206|229:206|209:209|209:209|144:222|142:319,1,280,4|2,0:0|0:0,0:0:0:0:
40,75,105080,5,6,3:2:0:0:
40,75,105261,2,0,B|91:49|91:49|168:60,1,125.999996154785,2|2,3:0|0:0,0:0:0:0:
241,76,105803,1,10,3:1:0:0:
241,76,105983,1,2,0:0:0:0:
241,76,106164,1,2,0:0:0:0:
305,228,106526,5,2,3:0:0:0:
305,228,106706,2,0,B|319:197|319:197|304:136|304:136|317:101,1,125.999996154785,2|2,3:0|0:0,0:0:0:0:
349,41,107249,1,8,1:3:0:0:
459,209,107610,1,0,1:0:0:0:
459,209,107971,5,2,3:0:0:0:
459,209,108152,2,0,B|394:228|394:228|362:287,1,125.999996154785,0|2,3:0|0:0,0:0:0:0:
332,350,108694,1,10,3:1:0:0:
332,350,108875,1,2,0:0:0:0:
332,350,109056,1,2,0:0:0:0:
165,330,109417,6,0,B|195:297|146:272|128:237|148:193|177:173|177:173|133:208|171:262,1,251.999992309571,2|10,3:0|1:3,0:0:0:0:
90,106,110502,1,2,1:0:0:0:
239,128,110863,5,4,3:2:0:0:
239,128,111044,2,0,P|284:155|356:118,1,125.999996154785,0|2,3:0|0:0,0:0:0:0:
374,59,111586,2,0,P|409:81|419:111,1,62.9999980773926,10|2,3:1|0:0,0:0:0:0:
412,175,111947,1,2,0:0:0:0:
457,319,112309,6,0,B|371:328|321:244|321:244|344:298|385:326,1,251.999992309571,2|8,3:0|1:3,0:0:0:0:
67,314,113755,5,0,3:0:0:0:
67,314,113935,2,0,B|50:273|50:273|66:239|66:239|48:180,1,125.999996154785,0|2,3:0|0:0,0:0:0:0:
35,126,114477,1,10,3:1:0:0:
35,126,114658,1,2,0:0:0:0:
35,126,114839,1,2,0:0:0:0:
165,201,115200,6,0,L|203:136,1,62.9999980773926,6|2,1:1|0:0,0:0:0:0:
261,186,115562,2,0,L|223:251,1,62.9999980773926,6|2,1:0|0:0,0:0:0:0:
165,281,115923,1,6,1:0:0:0:
