osu file format v14

[General]
AudioFilename: audio.mp3
AudioLeadIn: 0
PreviewTime: 58014
Countdown: 0
SampleSet: Normal
StackLeniency: 0.7
Mode: 1
LetterboxInBreaks: 0
WidescreenStoryboard: 0

[Editor]
Bookmarks: 996,12562,24128,29911,41477,53044,58827,69670,70393,81236,81959,92803,93526,105092,115935
DistanceSpacing: 0.3
BeatDivisor: 4
GridSize: 32
TimelineZoom: 2.899999

[Metadata]
Title:Shiratsuyu no Kaze
TitleUnicode:白露の風
Artist:Qrispy Joybox feat. Tokiwa Yu
ArtistUnicode:Qrispy Joybox feat. 常盤ゆう
Creator:eiri-
Version:Muzukashii
Source:beatmania IIDX 22 PENDUAL
Tags:Ayyri REFLEC BEAT groovin'!! Upper plus 想歌 風 SOUKA KAZE Tatsuya Iyama BEMANI KONAMI
BeatmapID:1718665
BeatmapSetID:819743

[Difficulty]
HPDrainRate:5
CircleSize:2
OverallDifficulty:5
ApproachRate:10
SliderMultiplier:1.4
SliderTickRate:1

[Events]
//Background and Video events
0,0,"Shiratsuyu no Kaze.png",0,50
//Break Periods
//Storyboard Layer 0 (Background)
//Storyboard Layer 1 (Fail)
//Storyboard Layer 2 (Pass)
//Storyboard Layer 3 (Foreground)
//Storyboard Sound Samples

[TimingPoints]
996,361.44578313253,4,1,0,100,1,0
57381,-100,4,1,0,50,0,0
58465,-100,4,1,0,75,0,0
58827,-100,4,1,0,100,0,1
69670,-100,4,1,0,100,0,0
70393,-100,4,1,0,100,0,1
81236,-100,4,1,0,100,0,0
81959,-100,4,1,0,100,0,1
92803,-100,4,1,0,100,0,0
93526,-100,4,1,0,100,0,1
105092,-100,4,1,0,100,0,0

[HitObjects]
256,192,996,5,0,0:0:0:0:
256,192,2441,1,0,0:0:0:0:
256,192,3887,1,0,0:0:0:0:
256,192,4610,1,0,0:0:0:0:
256,192,5333,1,0,0:0:0:0:
256,192,6779,1,0,0:0:0:0:
256,192,8224,1,0,0:0:0:0:
256,192,9670,1,0,0:0:0:0:
256,192,10393,1,0,0:0:0:0:
256,192,11116,1,0,0:0:0:0:
256,192,11839,1,0,0:0:0:0:
256,192,12562,1,12,0:0:0:0:
256,192,12742,1,0,0:0:0:0:
256,192,12923,1,8,0:0:0:0:
256,192,13285,1,0,0:0:0:0:
256,192,13465,1,0,0:0:0:0:
256,192,13646,1,8,0:0:0:0:
256,192,13827,1,0,0:0:0:0:
256,192,14008,1,12,0:0:0:0:
256,192,14550,1,0,0:0:0:0:
256,192,14730,1,8,0:0:0:0:
256,192,15092,1,12,0:0:0:0:
256,192,15453,1,12,0:0:0:0:
256,192,15634,1,0,0:0:0:0:
256,192,15815,1,8,0:0:0:0:
256,192,16176,1,0,0:0:0:0:
256,192,16357,1,8,0:0:0:0:
256,192,16538,1,0,0:0:0:0:
256,192,16718,1,0,0:0:0:0:
256,192,16899,1,12,0:0:0:0:
256,192,17441,1,8,0:0:0:0:
256,192,17622,1,0,0:0:0:0:
256,192,17983,1,12,0:0:0:0:
256,192,18345,1,12,0:0:0:0:
256,192,18526,1,0,0:0:0:0:
256,192,18706,1,8,0:0:0:0:
256,192,18887,1,8,0:0:0:0:
256,192,19068,1,0,0:0:0:0:
256,192,19429,1,0,0:0:0:0:
256,192,19610,1,0,0:0:0:0:
256,192,19791,1,12,0:0:0:0:
256,192,20333,1,8,0:0:0:0:
256,192,20514,1,0,0:0:0:0:
256,192,20875,1,12,0:0:0:0:
256,192,21236,1,12,0:0:0:0:
256,192,21417,1,0,0:0:0:0:
256,192,21598,1,8,0:0:0:0:
256,192,21959,1,12,0:0:0:0:
256,192,22321,1,0,0:0:0:0:
256,192,22502,1,0,0:0:0:0:
256,192,22682,1,12,0:0:0:0:
256,192,23044,1,0,0:0:0:0:
256,192,23405,1,12,0:0:0:0:
256,192,23586,1,0,0:0:0:0:
256,192,23767,1,0,0:0:0:0:
256,192,23857,1,0,0:0:0:0:
256,192,23947,1,0,0:0:0:0:
256,192,24128,1,12,0:0:0:0:
256,192,24851,1,8,0:0:0:0:
256,192,25032,1,8,0:0:0:0:
256,192,25212,1,8,0:0:0:0:
256,192,25574,1,0,0:0:0:0:
256,192,25755,1,8,0:0:0:0:
256,192,25935,1,8,0:0:0:0:
256,192,26297,1,0,0:0:0:0:
256,192,26658,1,12,0:0:0:0:
256,192,27020,1,12,0:0:0:0:
256,192,27743,1,8,0:0:0:0:
256,192,27924,1,8,0:0:0:0:
256,192,28104,1,8,0:0:0:0:
256,192,28466,1,8,0:0:0:0:
256,192,28647,1,8,0:0:0:0:
256,192,28827,1,8,0:0:0:0:
256,192,29189,1,0,0:0:0:0:
256,192,29912,1,12,0:0:0:0:
256,192,30273,1,0,0:0:0:0:
256,192,30634,1,8,0:0:0:0:
256,192,30995,1,0,0:0:0:0:
256,192,31357,1,0,0:0:0:0:
256,192,31718,1,0,0:0:0:0:
256,192,31899,1,0,0:0:0:0:
256,192,32080,1,8,0:0:0:0:
256,192,32441,1,4,0:0:0:0:
256,192,32803,1,12,0:0:0:0:
256,192,33526,1,8,0:0:0:0:
256,192,33887,1,0,0:0:0:0:
256,192,34068,1,0,0:0:0:0:
256,192,34249,1,8,0:0:0:0:
256,192,34610,1,0,0:0:0:0:
256,192,34971,1,8,0:0:0:0:
256,192,35333,1,4,0:0:0:0:
256,192,35694,1,12,0:0:0:0:
256,192,36417,1,8,0:0:0:0:
256,192,36779,1,0,0:0:0:0:
256,192,37140,1,8,0:0:0:0:
256,192,37321,1,0,0:0:0:0:
256,192,37682,1,0,0:0:0:0:
256,192,37863,1,8,0:0:0:0:
256,192,38224,1,4,0:0:0:0:
256,192,38586,1,12,0:0:0:0:
256,192,39068,1,0,0:0:0:0:
256,192,39309,1,12,0:0:0:0:
256,192,39791,1,0,0:0:0:0:
256,192,40032,1,12,0:0:0:0:
256,192,40514,1,0,0:0:0:0:
256,192,40755,1,12,0:0:0:0:
256,192,41477,1,12,0:0:0:0:
256,192,41658,1,0,0:0:0:0:
256,192,41839,1,0,0:0:0:0:
256,192,42200,1,8,0:0:0:0:
256,192,42562,1,0,0:0:0:0:
256,192,42923,1,8,0:0:0:0:
256,192,43285,1,0,0:0:0:0:
256,192,43465,1,0,0:0:0:0:
256,192,43646,1,8,0:0:0:0:
256,192,44008,1,4,0:0:0:0:
256,192,44369,1,12,0:0:0:0:
256,192,44550,1,0,0:0:0:0:
256,192,44731,1,8,0:0:0:0:
256,192,45092,1,8,0:0:0:0:
256,192,45815,1,8,0:0:0:0:
256,192,46176,1,8,0:0:0:0:
256,192,46357,1,0,0:0:0:0:
256,192,46538,1,8,0:0:0:0:
256,192,46900,1,4,0:0:0:0:
256,192,47261,1,12,0:0:0:0:
256,192,47441,1,0,0:0:0:0:
256,192,47623,1,0,0:0:0:0:
256,192,47984,1,8,0:0:0:0:
256,192,48346,1,0,0:0:0:0:
256,192,48707,1,8,0:0:0:0:
256,192,49069,1,0,0:0:0:0:
256,192,49249,1,0,0:0:0:0:
256,192,49430,1,8,0:0:0:0:
256,192,49792,1,4,0:0:0:0:
256,192,50153,1,12,0:0:0:0:
256,192,50514,1,0,0:0:0:0:
256,192,50875,1,12,0:0:0:0:
256,192,51236,1,0,0:0:0:0:
256,192,51598,1,12,0:0:0:0:
256,192,51779,1,0,0:0:0:0:
256,192,52321,1,4,0:0:0:0:
256,192,52863,1,0,0:0:0:0:
256,192,53044,1,12,0:0:0:0:
256,192,53224,12,0,57200,0:0:0:0:
256,192,57381,5,0,0:0:0:0:
256,192,58104,1,0,0:0:0:0:
256,192,58465,1,8,0:0:0:0:
256,192,58827,1,4,0:0:0:0:
256,192,59008,1,8,0:0:0:0:
256,192,59098,1,8,0:0:0:0:
256,192,59188,1,8,0:0:0:0:
256,192,59369,1,8,0:0:0:0:
256,192,59730,1,0,0:0:0:0:
256,192,59911,1,8,0:0:0:0:
256,192,60092,1,8,0:0:0:0:
256,192,60273,1,0,0:0:0:0:
256,192,60453,1,8,0:0:0:0:
256,192,60544,1,8,0:0:0:0:
256,192,60634,1,8,0:0:0:0:
256,192,60815,1,0,0:0:0:0:
256,192,60995,1,8,0:0:0:0:
256,192,61718,1,0,0:0:0:0:
256,192,61899,1,8,0:0:0:0:
256,192,61989,1,8,0:0:0:0:
256,192,62080,1,8,0:0:0:0:
256,192,62261,1,8,0:0:0:0:
256,192,62622,1,8,0:0:0:0:
256,192,62803,1,0,0:0:0:0:
256,192,62983,1,0,0:0:0:0:
256,192,63164,1,8,0:0:0:0:
256,192,63345,1,8,0:0:0:0:
256,192,63526,1,0,0:0:0:0:
256,192,63706,1,0,0:0:0:0:
256,192,63887,1,12,0:0:0:0:
256,192,64249,1,12,0:0:0:0:
256,192,64429,1,0,0:0:0:0:
256,192,64610,1,12,0:0:0:0:
256,192,65333,1,12,0:0:0:0:
256,192,65694,1,0,0:0:0:0:
256,192,65875,1,0,0:0:0:0:
256,192,66056,1,12,0:0:0:0:
256,192,66417,1,4,0:0:0:0:
256,192,66779,1,12,0:0:0:0:
256,192,67140,1,4,0:0:0:0:
256,192,67502,1,12,0:0:0:0:
256,192,67682,1,0,0:0:0:0:
256,192,67773,1,0,0:0:0:0:
256,192,67863,1,0,0:0:0:0:
256,192,68044,1,8,0:0:0:0:
256,192,68224,1,0,0:0:0:0:
256,192,68405,1,8,0:0:0:0:
256,192,68767,1,8,0:0:0:0:
256,192,68947,1,0,0:0:0:0:
256,192,69670,1,0,0:0:0:0:
256,192,70032,1,8,0:0:0:0:
256,192,70393,1,4,0:0:0:0:
256,192,70574,1,8,0:0:0:0:
256,192,70755,1,0,0:0:0:0:
256,192,70935,1,8,0:0:0:0:
256,192,71297,1,0,0:0:0:0:
256,192,71477,1,8,0:0:0:0:
256,192,71658,1,0,0:0:0:0:
256,192,72020,1,8,0:0:0:0:
256,192,72110,1,8,0:0:0:0:
256,192,72200,1,8,0:0:0:0:
256,192,72381,1,0,0:0:0:0:
256,192,72742,1,8,0:0:0:0:
256,192,72923,1,8,0:0:0:0:
256,192,73104,1,0,0:0:0:0:
256,192,73465,1,0,0:0:0:0:
256,192,73646,1,8,0:0:0:0:
256,192,73827,1,0,0:0:0:0:
256,192,73917,1,0,0:0:0:0:
256,192,74008,1,0,0:0:0:0:
256,192,74188,1,0,0:0:0:0:
256,192,74369,1,8,0:0:0:0:
256,192,74730,1,8,0:0:0:0:
256,192,74821,1,8,0:0:0:0:
256,192,74911,1,8,0:0:0:0:
256,192,75092,1,0,0:0:0:0:
256,192,75273,1,0,0:0:0:0:
256,192,75453,1,8,0:0:0:0:
256,192,76176,1,12,0:0:0:0:
256,192,76357,1,0,0:0:0:0:
256,192,76718,1,0,0:0:0:0:
256,192,76899,1,8,0:0:0:0:
256,192,77441,1,0,0:0:0:0:
256,192,77622,1,12,0:0:0:0:
256,192,77983,1,0,0:0:0:0:
256,192,78164,1,0,0:0:0:0:
256,192,78345,1,8,0:0:0:0:
256,192,78706,1,8,0:0:0:0:
256,192,78887,1,0,0:0:0:0:
256,192,79068,1,12,0:0:0:0:
256,192,79610,1,0,0:0:0:0:
256,192,79791,1,8,0:0:0:0:
256,192,79971,1,8,0:0:0:0:
256,192,80152,1,0,0:0:0:0:
256,192,80514,1,12,0:0:0:0:
256,192,81236,1,0,0:0:0:0:
256,192,81598,1,8,0:0:0:0:
256,192,81959,1,4,0:0:0:0:
256,192,82140,1,8,0:0:0:0:
256,192,82230,1,8,0:0:0:0:
256,192,82320,1,8,0:0:0:0:
256,192,82501,1,8,0:0:0:0:
256,192,82862,1,0,0:0:0:0:
256,192,83224,1,8,0:0:0:0:
256,192,83405,1,0,0:0:0:0:
256,192,83585,1,0,0:0:0:0:
256,192,83766,1,8,0:0:0:0:
256,192,83947,1,0,0:0:0:0:
256,192,84127,1,8,0:0:0:0:
256,192,84850,1,0,0:0:0:0:
256,192,85031,1,8,0:0:0:0:
256,192,85121,1,8,0:0:0:0:
256,192,85212,1,8,0:0:0:0:
256,192,85393,1,8,0:0:0:0:
256,192,85573,1,0,0:0:0:0:
256,192,85754,1,8,0:0:0:0:
256,192,85935,1,8,0:0:0:0:
256,192,86115,1,0,0:0:0:0:
256,192,86296,1,8,0:0:0:0:
256,192,86658,1,8,0:0:0:0:
256,192,86838,1,0,0:0:0:0:
256,192,87019,1,12,0:0:0:0:
256,192,87742,1,12,0:0:0:0:
256,192,88103,1,0,0:0:0:0:
256,192,88284,1,0,0:0:0:0:
256,192,88465,1,12,0:0:0:0:
256,192,88826,1,0,0:0:0:0:
256,192,89007,1,0,0:0:0:0:
256,192,89188,1,12,0:0:0:0:
256,192,89549,1,4,0:0:0:0:
256,192,89911,1,12,0:0:0:0:
256,192,90272,1,4,0:0:0:0:
256,192,90634,1,12,0:0:0:0:
256,192,91176,1,8,0:0:0:0:
256,192,91356,1,0,0:0:0:0:
256,192,91537,1,8,0:0:0:0:
256,192,91718,1,8,0:0:0:0:
256,192,91899,1,8,0:0:0:0:
256,192,92079,1,0,0:0:0:0:
256,192,92441,1,8,0:0:0:0:
256,192,92802,1,0,0:0:0:0:
256,192,93164,1,8,0:0:0:0:
256,192,93526,1,4,0:0:0:0:
256,192,93707,1,8,0:0:0:0:
256,192,93888,1,0,0:0:0:0:
256,192,94068,1,8,0:0:0:0:
256,192,94430,1,0,0:0:0:0:
256,192,94610,1,8,0:0:0:0:
256,192,94791,1,8,0:0:0:0:
256,192,94971,1,0,0:0:0:0:
256,192,95152,1,0,0:0:0:0:
256,192,95333,1,8,0:0:0:0:
256,192,95514,1,8,0:0:0:0:
256,192,95694,1,0,0:0:0:0:
256,192,96417,1,12,0:0:0:0:
256,192,96598,1,0,0:0:0:0:
256,192,96779,1,8,0:0:0:0:
256,192,96960,1,0,0:0:0:0:
256,192,97321,1,0,0:0:0:0:
256,192,97502,1,8,0:0:0:0:
256,192,97683,1,0,0:0:0:0:
256,192,97863,1,8,0:0:0:0:
256,192,98044,1,8,0:0:0:0:
256,192,98225,1,0,0:0:0:0:
256,192,98406,1,0,0:0:0:0:
256,192,98586,1,8,0:0:0:0:
256,192,98948,1,0,0:0:0:0:
256,192,99038,1,0,0:0:0:0:
256,192,99128,1,0,0:0:0:0:
256,192,99309,1,12,0:0:0:0:
256,192,99671,1,8,0:0:0:0:
256,192,99851,1,0,0:0:0:0:
256,192,100032,1,12,0:0:0:0:
256,192,100394,1,8,0:0:0:0:
256,192,100574,1,0,0:0:0:0:
256,192,100755,1,12,0:0:0:0:
256,192,101116,1,4,0:0:0:0:
256,192,101478,1,12,0:0:0:0:
256,192,101839,1,4,0:0:0:0:
256,192,102201,1,12,0:0:0:0:
256,192,102743,1,0,0:0:0:0:
256,192,102924,1,8,0:0:0:0:
256,192,103104,1,8,0:0:0:0:
256,192,103285,1,0,0:0:0:0:
256,192,103647,1,12,0:0:0:0:
256,192,104369,1,0,0:0:0:0:
256,192,104550,1,0,0:0:0:0:
256,192,104730,1,8,0:0:0:0:
256,192,105092,1,4,0:0:0:0:
256,192,105273,1,0,0:0:0:0:
256,192,105815,1,8,0:0:0:0:
256,192,106538,1,0,0:0:0:0:
256,192,106718,1,0,0:0:0:0:
256,192,107261,1,8,0:0:0:0:
256,192,107622,1,0,0:0:0:0:
256,192,107983,1,0,0:0:0:0:
256,192,108164,1,0,0:0:0:0:
256,192,108706,1,8,0:0:0:0:
256,192,109429,1,0,0:0:0:0:
256,192,110152,1,0,0:0:0:0:
256,192,110514,1,0,0:0:0:0:
256,192,110875,1,12,0:0:0:0:
256,192,111056,1,0,0:0:0:0:
256,192,111598,1,8,0:0:0:0:
256,192,112321,1,0,0:0:0:0:
256,192,113044,1,8,0:0:0:0:
256,192,113767,1,0,0:0:0:0:
256,192,113947,1,0,0:0:0:0:
256,192,114489,1,8,0:0:0:0:
256,192,115212,1,12,0:0:0:0:
256,192,115574,1,12,0:0:0:0:
256,192,115935,1,12,0:0:0:0:
