osu file format v14

[General]
AudioFilename: audio.mp3
AudioLeadIn: 0
PreviewTime: 60010
Countdown: 0
SampleSet: Normal
StackLeniency: 0.2
Mode: 0
LetterboxInBreaks: 0
WidescreenStoryboard: 1

[Editor]
Bookmarks: 89046
DistanceSpacing: 2.8
BeatDivisor: 4
GridSize: 4
TimelineZoom: 3.099999

[Metadata]
Title:Yuuki no Pendant
TitleUnicode:勇気のペンダント
Artist:Qrispy Joybox feat. Chata
ArtistUnicode:Qrispy Joybox feat.茶太
Creator:Hikan
Version:sukaru
Source:REFLEC BEAT 悠久のリフレシア
Tags:CyberX Aven [-Chocola-] yukyuu no reflesia the eternity
BeatmapID:2102160
BeatmapSetID:623614

[Difficulty]
HPDrainRate:4
CircleSize:3.8
OverallDifficulty:8.5
ApproachRate:9.3
SliderMultiplier:3
SliderTickRate:1

[Events]
//Background and Video events
0,0,"pendant.jpg",0,0
//Break Periods
//Storyboard Layer 0 (Background)
//Storyboard Layer 1 (Fail)
//Storyboard Layer 2 (Pass)
//Storyboard Layer 3 (Foreground)
Sprite,Foreground,Centre,"sb\Pink.png",307,326 M,0,59734,59826,477,137,452,101 S,0,59734,59918,0.4 M,0,59826,59918,452,101,477,137
Sprite,Foreground,Centre,"sb\Blue.png",413,364 M,0,60010,60101,391,265,439,291 S,0,60010,60193,0.4 M,0,60101,60193,439,291,391,265
Sprite,Foreground,Centre,"sb\Brown.png",501,271 M,0,60285,60377,176,163,150,81 S,0,60285,60468,0.4 M,0,60377,60468,150,81,176,163
Sprite,Foreground,Centre,"sb\BrightPink.png",437,136 M,0,60560,60652,98,372,178,416 S,0,60560,60744,0.4 M,0,60652,60744,178,416,98,372
Sprite,Foreground,Centre,"sb\BrightPink.png",413,364 M,0,85605,85743,253,427,301,418 S,0,85605,85743,0.4 M,0,85880,86018,144,387,86,375 M,0,86156,86293,284,256,363,243
Sprite,Foreground,Centre,"sb\Blue.png",501,271 M,0,86431,86568,183,43,84,48 S,0,86431,87257,0.4 M,0,86568,86706,84,48,55,109 M,0,86706,86844,55,109,94,166 M,0,86844,86981,94,166,160,160 M,0,86981,87051,160,160,206.8875,151.227 M,0,87051,87119,206.8875,151.227,190,99 M,0,87119,87257,190,99,151,43
//Storyboard Sound Samples

[TimingPoints]
1111,550.45871559633,3,1,0,20,1,0
1111,-200,3,1,0,20,0,0
11569,-400,3,1,0,20,0,0
11638,-400,3,1,0,5,0,0
13496,-200,3,1,0,20,0,0
15698,-142.857142857143,3,1,0,20,0,0
17762,-1000,3,1,0,20,0,0
19000,-166.666666666667,3,1,0,20,0,0
19826,-125,3,1,0,20,0,0
20377,-100,3,1,0,30,0,0
33588,-76.9230769230769,3,1,0,30,0,0
34138,-83.3333333333333,3,1,0,30,0,0
43771,-66.6666666666667,3,1,0,30,0,0
44046,-83.3333333333333,3,1,0,30,0,0
44597,-111.111111111111,3,1,0,30,0,0
46799,-83.3333333333333,3,1,0,30,0,0
47349,-100,3,1,0,30,0,0
57257,-83.3333333333333,3,1,0,30,0,0
59734,-125,3,1,0,30,0,0
60010,-83.3333333333333,3,1,0,30,0,0
60285,-62.5,3,1,0,30,0,0
60560,-50,3,1,0,30,0,0
60835,550.45871559633,3,1,0,30,1,1
60835,-71.4285714285714,3,1,0,30,0,1
61110,-83.3333333333333,3,1,0,30,0,1
63587,-71.4285714285714,3,1,0,30,0,1
63862,-62.5,3,1,0,30,0,1
66890,-100,3,1,0,30,0,1
68266,-111.111111111111,3,1,0,30,0,1
70192,-83.3333333333333,3,1,0,30,0,1
72394,-71.4285714285714,3,1,0,30,0,1
72670,-83.3333333333333,3,1,0,30,0,1
72945,-100,3,1,0,30,0,1
73220,-83.3333333333333,3,1,0,30,0,1
73495,-62.5,3,1,0,30,0,1
74046,-100,3,1,0,30,0,1
74321,-76.9230769230769,3,1,0,30,0,1
74596,-100,3,1,0,30,0,1
74871,-76.9230769230769,3,1,0,30,0,1
75146,-100,3,1,0,30,0,1
75422,-76.9230769230769,3,1,0,30,0,1
75697,-100,3,1,0,30,0,1
76523,-76.9230769230769,3,1,0,30,0,1
77074,-71.4285714285714,3,1,0,30,0,1
77348,-100,3,1,0,30,0,1
77623,-76.9230769230769,3,1,0,30,0,1
77899,-100,3,1,0,30,0,1
78174,-76.9230769230769,3,1,0,30,0,1
78449,-100,3,1,0,30,0,1
78724,-76.9230769230769,3,1,0,30,0,1
79000,-100,3,1,0,30,0,1
80652,-100,3,1,0,30,0,1
82028,-125,3,1,0,30,0,1
83404,-71.4285714285714,3,1,0,30,0,1
83954,-83.3333333333333,3,1,0,30,0,1
85055,-100,3,1,0,30,0,1
85330,-142.857142857143,3,1,0,30,0,1
85605,-166.666666666667,3,1,0,30,0,1
85880,-125,3,1,0,30,0,1
86156,-100,3,1,0,30,0,1
86431,-111.111111111111,3,1,0,30,0,1
87257,-142.857142857143,3,1,0,30,0,0

[Colours]
Combo1 : 241,153,143
Combo2 : 255,191,255
Combo3 : 162,167,238

[HitObjects]
65,116,1111,6,0,P|133:89|195:104,1,112.5
150,228,1936,2,0,P|116:217|165:215,1,150
167,206,3037,6,0,P|151:239|149:256,1,37.5
198,332,3312,1,0,0:0:0:0:
215,349,3450,2,0,L|116:341,1,93.75
55,379,3863,1,0,0:0:0:0:
4,156,4138,5,0,0:0:0:0:
78,205,4413,1,0,0:0:0:0:
84,117,4688,1,0,0:0:0:0:
445,343,5239,6,0,P|390:336|339:296,1,112.5
407,249,6065,2,0,P|446:261|408:219,1,150
409,217,6890,6,0,P|364:228|360:228,1,37.5
260,198,7166,1,0,0:0:0:0:
342,115,7303,1,0,0:0:0:0:
247,189,9367,6,0,P|214:209|167:274,1,112.5
361,236,10193,2,0,P|323:243|256:288,1,112.5
312,361,11019,1,0,0:0:0:0:
409,369,11294,1,0,0:0:0:0:
108,184,11569,6,0,P|89:217|81:297,1,112.5
336,127,13496,6,0,P|356:160|421:207,1,112.5
420,17,14322,2,0,P|420:55|453:128,1,112.5
512,0,15147,1,0,0:0:0:0:
499,193,15422,1,0,0:0:0:0:
377,344,15698,5,0,0:0:0:0:
298,306,15835,2,0,P|328:270|338:234,1,52.4999983978272
156,255,16110,5,0,0:0:0:0:
209,180,16248,2,0,P|239:216|249:252,1,52.4999983978272
182,341,16523,5,0,0:0:0:0:
156,255,16661,1,0,0:0:0:0:
268,315,16799,5,0,0:0:0:0:
182,341,16937,1,0,0:0:0:0:
242,229,17074,5,0,0:0:0:0:
268,315,17212,1,0,0:0:0:0:
156,255,17349,5,0,0:0:0:0:
242,229,17487,1,0,0:0:0:0:
182,341,17624,5,0,0:0:0:0:
156,255,17762,2,0,P|158:240|162:216,1,37.5
161,217,18863,5,0,0:0:0:0:
161,217,18932,1,0,0:0:0:0:
161,217,19000,2,0,L|168:271,1,44.999998626709
281,207,19276,6,0,P|250:221|233:238,1,44.999998626709
146,346,19551,2,0,P|115:332|98:315,1,44.999998626709
253,327,19826,6,0,P|273:361|272:406,1,60
99,181,20101,2,0,P|105:151|121:127,1,60
281,207,20377,6,0,P|323:235|376:215,1,75
142,264,20652,2,0,P|134:300|106:324,1,75
166,33,20927,6,0,P|225:81|210:157,1,150
105,324,21340,1,0,0:0:0:0:
114,123,21478,1,0,0:0:0:0:
283,231,21616,1,0,0:0:0:0:
105,324,21753,6,0,L|35:319,1,37.5
273,243,22028,2,0,L|343:238,4,37.5
223,337,22441,1,0,0:0:0:0:
123,252,22578,6,0,P|103:175|90:118,1,112.5
114,123,22854,1,0,0:0:0:0:
14,194,22991,1,0,0:0:0:0:
54,2,23129,1,0,0:0:0:0:
200,132,23266,1,0,0:0:0:0:
37,86,23404,6,0,L|-7:80,1,37.5
289,178,23679,2,0,L|333:172,4,37.5
200,132,24230,6,0,P|187:192|233:262,1,150
233,262,24780,1,0,0:0:0:0:
289,178,24918,1,0,0:0:0:0:
233,262,25055,2,0,L|147:252,1,75
341,328,25331,6,0,L|389:320,3,37.5
404,286,25606,1,0,0:0:0:0:
270,366,25744,1,0,0:0:0:0:
511,362,25881,6,0,L|399:348,1,112.5
377,321,26156,1,0,0:0:0:0:
349,154,26294,1,0,0:0:0:0:
233,262,26432,2,0,L|344:248,1,112.5
160,332,26707,6,0,P|134:290|134:242,1,75
220,175,26982,2,0,L|182:170,3,37.5
37,193,27257,2,0,L|75:189,3,37.5
269,92,27533,6,0,L|136:74,1,112.5
64,51,27808,2,0,L|196:33,1,112.5
344,8,28083,1,0,0:0:0:0:
220,175,28221,1,0,0:0:0:0:
337,220,28358,6,0,P|327:179|317:138,1,75
469,22,28633,2,0,P|466:40|461:59,4,37.5
477,153,29184,6,0,P|415:142|393:125,1,75
344,8,29459,1,0,0:0:0:0:
281,68,29598,1,0,0:0:0:0:
405,136,29735,1,0,0:0:0:0:
421,50,29872,1,0,0:0:0:0:
319,147,30010,2,0,P|325:179|337:220,1,75
264,346,30285,6,0,P|269:325|274:301,3,37.5
216,247,30560,2,0,P|178:285|118:281,1,112.5
112,108,30835,6,0,B|122:104|145:87|145:87|137:148|133:214,1,150
97,366,31248,1,0,0:0:0:0:
0,268,31386,1,0,0:0:0:0:
40,186,31523,1,0,0:0:0:0:
139,283,31661,6,0,P|126:327|117:377,1,75
249,289,31936,2,0,P|260:328|267:349,3,37.5
381,256,32211,2,0,P|368:300|352:380,1,112.5
471,224,32486,6,0,P|411:163|334:171,1,150
319,54,32899,1,0,0:0:0:0:
350,163,33037,2,0,P|303:193|252:182,1,75
187,37,33312,6,0,P|181:85|173:165,1,112.5
96,207,33588,2,0,P|73:204|35:203,3,48.7499977684022
246,239,33863,2,0,P|272:237|298:234,3,48.7499977684022
174,149,34138,6,0,P|135:203|161:275,1,134.999995880127
160,294,34413,2,0,P|128:331|59:338,1,89.9999972534181
294,234,34688,2,0,P|342:243|382:299,1,89.9999972534181
174,148,34964,6,0,P|178:108|182:68,1,44.999998626709
188,13,35239,2,0,P|183:58|178:103,1,89.9999972534181
163,235,35514,1,0,0:0:0:0:
46,152,35652,1,0,0:0:0:0:
96,304,35789,6,0,P|162:287|235:272,1,134.999995880127
254,255,36065,2,0,P|272:292|297:355,1,89.9999972534181
174,148,36340,2,0,P|127:164|65:135,1,89.9999972534181
306,132,36615,2,0,P|329:82|407:65,1,134.999995880127
413,77,36890,6,0,B|299:90|356:14|225:32,1,179.999994506836
314,172,37303,1,0,0:0:0:0:
170,93,37441,6,0,P|113:82|57:159,1,134.999995880127
12,199,37716,1,0,0:0:0:0:
112,238,37854,1,0,0:0:0:0:
54,372,37991,2,0,P|39:312|32:274,1,89.9999972534181
221,275,38266,6,0,P|164:286|108:209,1,134.999995880127
184,83,38542,2,0,P|222:126|183:213,1,134.999995880127
102,49,38817,1,0,0:0:0:0:
292,86,38955,1,0,0:0:0:0:
134,152,39092,6,0,P|28:141|-12:138,1,134.999995880127
296,214,39367,2,0,P|382:205|422:202,1,89.9999972534181
245,107,39643,1,0,0:0:0:0:
205,196,39780,1,0,0:0:0:0:
356,337,39918,6,0,P|368:284|318:224,1,134.999995880127
248,302,40193,2,0,P|244:330|243:359,3,44.999998626709
124,255,40468,2,0,P|120:226|119:198,3,44.999998626709
320,224,40744,6,0,P|332:171|282:111,1,134.999995880127
266,130,41019,2,0,P|213:158|165:140,1,89.9999972534181
414,35,41294,2,0,P|458:32|494:58,1,89.9999972534181
422,210,41569,6,0,P|418:237|413:284,1,44.999998626709
406,344,41844,2,0,P|413:282|418:217,1,89.9999972534181
266,130,42120,2,0,P|273:192|278:257,1,89.9999972534181
201,358,42395,6,0,P|173:316|88:324,1,134.999995880127
96,330,42670,2,0,P|126:283|107:216,1,89.9999972534181
68,82,42945,2,0,P|93:131|161:148,1,89.9999972534181
326,219,43221,6,0,P|240:178|191:228,1,134.999995880127
216,83,43496,2,0,P|273:76|297:22,1,89.9999972534181
407,9,43771,6,0,B|394:22|389:41|389:41|426:133|426:133|424:157|397:180,1,168.750006437302
438,244,44046,6,0,P|375:260|326:219,1,134.999995880127
291,52,44322,1,0,0:0:0:0:
413,162,44459,1,0,0:0:0:0:
234,126,44597,2,0,P|208:122|139:115,1,67.4999979400635
325,217,44872,6,0,P|285:268|221:266,1,134.999995880127
229,357,45285,1,0,0:0:0:0:
113,225,45422,2,0,P|87:229|18:236,1,67.4999979400635
211,56,45698,6,0,P|204:95|194:160,1,101.249996910095
220,265,45973,1,0,0:0:0:0:
113,225,46110,1,0,0:0:0:0:
194,155,46248,2,0,P|231:141|292:117,1,101.249996910095
378,87,46523,2,0,P|347:61|296:20,1,101.249996910095
194,155,46799,6,0,P|180:208|176:228,3,44.999998626709
103,95,47074,2,0,P|89:148|85:168,3,44.999998626709
202,34,47349,6,0,P|207:73|217:130,1,75
290,237,47624,2,0,P|295:199|302:163,1,75
365,13,47899,2,0,P|375:65|377:86,1,75
436,218,48175,6,0,P|448:174|455:151,3,37.5
468,152,48450,1,0,0:0:0:0:
497,278,48588,1,0,0:0:0:0:
342,181,48725,1,0,0:0:0:0:
468,152,48863,1,0,0:0:0:0:
371,307,49000,6,0,P|304:298|262:291,1,75
84,258,49276,2,0,P|159:246|199:238,1,112.5
342,181,49551,2,0,P|275:172|233:165,1,75
129,146,49826,6,0,P|164:141|184:140,3,37.5
280,73,50101,2,0,P|245:68|225:67,3,37.5
94,60,50377,1,0,0:0:0:0:
172,0,50514,1,0,0:0:0:0:
129,146,50652,6,0,P|115:196|104:248,1,75
129,146,50927,2,0,P|115:196|104:248,1,75
233,334,51202,2,0,P|219:284|208:232,1,75
304,145,51477,6,0,P|291:200|288:216,3,37.5
321,229,51753,1,0,0:0:0:0:
211,155,51890,1,0,0:0:0:0:
442,185,52028,1,0,0:0:0:0:
327,239,52166,1,0,0:0:0:0:
389,91,52303,6,0,P|378:36|371:8,1,75
441,192,52578,2,0,P|494:209|521:217,1,75
327,186,52854,2,0,P|284:223|264:243,1,75
457,120,53129,6,0,P|483:96|499:82,3,37.5
386,260,53404,2,0,P|393:294|397:314,3,37.5
284,101,53679,1,0,0:0:0:0:
379,172,53817,1,0,0:0:0:0:
259,250,53955,6,0,B|176:213|191:288|101:248,1,150
127,82,54367,2,0,P|140:129|147:163,1,75
56,144,54643,1,0,0:0:0:0:
115,253,54780,2,0,P|156:241|185:235,3,37.5
117,347,55055,5,0,0:0:0:0:
34,302,55193,1,0,0:0:0:0:
145,154,55331,5,0,0:0:0:0:
160,249,55468,1,0,0:0:0:0:
35,65,55606,6,0,P|119:56|194:41,1,150
231,193,56019,2,0,P|255:122|265:104,1,75
343,58,56294,1,0,0:0:0:0:
393,169,56432,2,0,P|345:162|332:163,3,37.5
245,118,56707,2,0,P|197:125|184:124,3,37.5
139,4,56982,5,0,0:0:0:0:
224,37,57120,1,0,0:0:0:0:
137,194,57257,2,0,P|117:265|155:312,1,134.999995880127
213,256,57533,6,0,P|258:250|303:249,1,89.9999972534181
101,109,57808,2,0,P|56:108|12:102,1,89.9999972534181
330,43,58083,2,0,P|375:41|420:36,1,89.9999972534181
224,37,58358,5,0,0:0:0:0:
139,4,58496,1,0,0:0:0:0:
303,249,58633,5,0,0:0:0:0:
317,340,58771,1,0,0:0:0:0:
448,75,58909,5,0,0:0:0:0:
448,75,59734,6,0,P|422:37|420:23,2,40
357,204,60010,6,0,P|413:232|447:222,2,59.9999981689454
142,99,60285,6,0,P|121:50|129:3,2,80
67,309,60560,6,0,P|86:335|156:354,2,100
223,48,60835,6,0,B|253:45|281:61|281:61|297:91|297:91|327:109|367:105,1,157.499995193482
424,43,61110,1,0,0:0:0:0:
460,168,61247,6,0,P|436:234|429:273,1,89.9999972534181
306,203,61523,1,0,0:0:0:0:
409,360,61660,6,0,P|360:311|289:331,1,134.999995880127
219,369,61935,1,0,0:0:0:0:
141,230,62073,1,0,0:0:0:0:
201,358,62211,2,0,P|215:283|225:246,1,89.9999972534181
114,86,62486,6,0,P|163:37|234:57,1,134.999995880127
306,203,62761,1,0,0:0:0:0:
384,64,62899,1,0,0:0:0:0:
324,192,63036,2,0,P|310:117|300:80,1,89.9999972534181
507,179,63312,2,0,P|449:228|422:255,1,89.9999972534181
416,35,63587,2,0,P|476:56|507:64,3,52.4999983978272
306,103,63862,6,0,B|200:74|236:166|99:125,1,180
65,52,64137,5,0,0:0:0:0:
35,184,64275,1,0,0:0:0:0:
151,50,64412,5,0,0:0:0:0:
125,229,64550,1,0,0:0:0:0:
219,0,64688,5,0,0:0:0:0:
218,210,64825,1,0,0:0:0:0:
60,48,64963,5,0,0:0:0:0:
28,186,65101,1,0,0:0:0:0:
228,5,65238,5,0,0:0:0:0:
215,215,65376,1,0,0:0:0:0:
396,0,65513,5,0,0:0:0:0:
372,260,65651,1,0,0:0:0:0:
448,72,65789,5,0,0:0:0:0:
462,217,65926,1,0,0:0:0:0:
305,67,66064,5,0,0:0:0:0:
297,193,66201,1,0,0:0:0:0:
157,53,66339,5,0,0:0:0:0:
132,233,66477,1,0,0:0:0:0:
0,0,66614,5,0,0:0:0:0:
212,321,66890,6,0,P|239:315|289:302,3,50
212,321,67440,5,0,0:0:0:0:
231,163,67578,1,0,0:0:0:0:
370,340,67715,5,0,0:0:0:0:
389,182,67852,1,0,0:0:0:0:
212,321,67990,5,0,0:0:0:0:
370,340,68127,1,0,0:0:0:0:
231,163,68266,6,0,P|219:111|208:73,1,67.4999979400635
370,261,68541,2,0,P|361:293|354:326,1,67.4999979400635
114,113,68816,1,0,0:0:0:0:
114,113,69091,5,0,0:0:0:0:
181,39,69229,1,0,0:0:0:0:
241,228,69367,1,0,0:0:0:0:
144,206,69505,5,0,0:0:0:0:
278,60,69642,1,0,0:0:0:0:
308,155,69779,1,0,0:0:0:0:
114,113,69917,5,0,0:0:0:0:
181,39,70055,1,0,0:0:0:0:
241,228,70192,2,0,P|239:238|233:279,4,44.999998626709
181,39,70743,5,0,0:0:0:0:
241,228,70880,2,0,P|265:177|174:123,1,179.999994506836
99,66,71293,5,0,0:0:0:0:
148,257,71431,1,0,0:0:0:0:
178,121,71568,2,0,P|124:164|49:151,1,134.999995880127
241,228,71844,2,0,P|306:223|357:265,1,134.999995880127
178,330,72119,2,0,P|124:373|49:360,1,134.999995880127
61,158,72394,6,0,B|93:121|93:121|108:268,1,157.499995193482
178,330,72669,6,0,B|209:354|209:354|222:231,1,157.499995193482
247,58,72945,6,0,B|265:41|265:41|277:143,1,112.5
349,262,73220,6,0,L|345:316,1,44.999998626709
345,306,73495,6,0,P|389:270|433:274,2,80
411,108,73770,2,0,P|372:99|345:70,2,80
246,330,74046,6,0,P|248:269|302:216,1,112.5
274,128,74321,2,0,P|186:180|179:251,1,146.249993305207
385,162,74596,6,0,P|389:125|343:69,1,112.5
93,163,74871,2,0,P|94:265|152:306,1,146.249993305207
72,57,75146,6,0,P|130:59|186:117,1,112.5
293,164,75422,2,0,P|192:222|140:186,1,146.249993305207
385,162,75697,6,0,P|389:125|343:69,1,112.5
173,91,75972,1,0,0:0:0:0:
293,164,76110,1,0,0:0:0:0:
133,308,76247,6,0,P|129:271|175:215,1,112.5
216,357,76523,2,0,P|281:363|332:300,1,146.249993305207
385,162,76798,5,0,0:0:0:0:
269,243,76935,1,0,0:0:0:0:
415,305,77073,2,0,P|457:299|473:296,3,48.7499977684022
259,157,77348,6,0,P|318:167|349:235,1,112.5
154,293,77623,2,0,P|219:299|270:236,1,146.249993305207
178,100,77899,6,0,P|153:172|176:204,1,112.5
373,207,78174,2,0,P|308:213|257:150,1,146.249993305207
381,48,78449,6,0,P|430:101|423:156,1,112.5
271,281,78724,2,0,P|298:221|378:209,1,146.249993305207
505,311,79000,6,0,P|432:314|395:273,1,112.5
330,113,79275,5,0,0:0:0:0:
282,2,79412,1,0,0:0:0:0:
223,74,79550,2,0,P|215:110|208:147,1,75
389,364,79825,6,0,P|396:327|403:290,1,75
451,174,80101,1,0,0:0:0:0:
505,311,80238,1,0,0:0:0:0:
345,202,80376,2,0,P|308:209|271:216,1,75
122,160,80651,5,0,0:0:0:0:
244,291,80789,1,0,0:0:0:0:
66,310,80926,1,0,0:0:0:0:
197,188,81064,5,0,0:0:0:0:
216,366,81201,1,0,0:0:0:0:
94,235,81339,1,0,0:0:0:0:
271,216,81477,6,0,P|308:209|345:202,1,75
141,338,81752,2,0,P|54:324|16:315,1,112.5
293,302,82027,2,0,P|379:288|418:279,1,112.5
344,202,82302,5,0,0:0:0:0:
181,284,82440,1,0,0:0:0:0:
264,122,82578,1,0,0:0:0:0:
293,302,82715,5,0,0:0:0:0:
163,172,82853,1,0,0:0:0:0:
344,202,82990,1,0,0:0:0:0:
181,284,83128,5,0,0:0:0:0:
264,122,83266,1,0,0:0:0:0:
293,302,83403,2,0,P|304:366|304:376,3,40
401,274,83954,6,0,P|300:195|248:240,1,179.999994506836
180,179,84367,1,0,0:0:0:0:
222,367,84504,1,0,0:0:0:0:
293,302,84642,1,0,0:0:0:0:
130,338,84779,6,0,P|95:333|23:318,1,89.9999972534181
272,208,85055,2,0,P|335:197|367:189,1,75
129,250,85330,2,0,P|75:240|52:233,1,52.4999983978272
222,367,85605,6,0,P|274:358|295:357,1,44.999998626709
113,329,85880,2,0,P|61:318|19:312,1,60
259,195,86156,2,0,P|328:185|368:174,1,75
117,1,86432,6,0,B|85:13|50:6|50:6|44:44|21:67|21:67|51:93|60:124|60:124|93:113|126:118|126:118|135:79|156:57|156:57|124:31|116:1,1,404.999987640381
