osu file format v14

[General]
AudioFilename: audio.mp3
AudioLeadIn: 0
PreviewTime: 60009
Countdown: 0
SampleSet: Normal
StackLeniency: 0.7
Mode: 1
LetterboxInBreaks: 0
WidescreenStoryboard: 1

[Editor]
Bookmarks: 20926,27531,34137
DistanceSpacing: 1.8
BeatDivisor: 2
GridSize: 32
TimelineZoom: 1.939999

[Metadata]
Title:Yuuki no Pendant
TitleUnicode:勇気のペンダント
Artist:Qrispy Joybox feat. Chata
ArtistUnicode:Qrispy Joybox feat. 茶太
Creator:[ TNTlealu ]
Version:yassu-'s Muzukashii
Source:REFLEC BEAT 悠久のリフレシア
Tags:TATSUYA IYAMA Yukyuu no Reflesia The Eternity of reflesia yuukyu no yassu- leo16834 [_Chichinya_] Faputa video game Japanese
BeatmapID:2163897
BeatmapSetID:995768

[Difficulty]
HPDrainRate:5
CircleSize:2
OverallDifficulty:5
ApproachRate:10
SliderMultiplier:1.4
SliderTickRate:1

[Events]
//Background and Video events
0,0,"y1.jpg",0,0
//Break Periods
//Storyboard Layer 0 (Background)
//Storyboard Layer 1 (Fail)
//Storyboard Layer 2 (Pass)
//Storyboard Layer 3 (Foreground)
//Storyboard Layer 4 (Overlay)
//Storyboard Sound Samples

[TimingPoints]
1110,275.229357798165,6,1,1,50,1,0
1110,-133.333333333333,6,1,1,50,0,0
20926,-100,6,1,1,70,0,0
46935,-105.263157894737,6,1,1,70,0,0
47073,-111.111111111111,6,1,1,70,0,0
47210,-117.647058823529,6,1,1,70,0,0
47348,-125,6,1,1,70,0,0
53954,-117.647058823529,6,1,1,70,0,0
55605,-111.111111111111,6,1,1,70,0,0
57256,-105.263157894737,6,1,1,70,0,0
58908,275.229357798165,7,1,1,70,1,0
58908,-100,6,1,1,70,0,0
60834,275.229357798165,6,1,1,85,1,1
73494,-100,6,1,1,85,0,0
74045,-100,6,1,1,85,0,1
87256,-100,6,1,1,60,0,0

[HitObjects]
254,193,1110,5,2,0:0:0:0:
254,193,1522,1,0,0:0:0:0:
254,193,1935,1,2,0:0:0:0:
255,194,3036,1,0,0:0:0:0:
255,194,3174,1,0,0:0:0:0:
255,194,3311,1,2,0:0:0:0:
255,194,3449,1,0,0:0:0:0:
250,200,3724,1,0,0:0:0:0:
255,194,3862,1,2,0:0:0:0:
250,200,4137,1,0,0:0:0:0:
250,200,4412,1,2,0:0:0:0:
250,201,4687,1,2,0:0:0:0:
276,208,5238,1,0,0:0:0:0:
276,208,5651,1,2,0:0:0:0:
276,208,6064,1,0,0:0:0:0:
254,199,6889,1,2,0:0:0:0:
254,199,7027,1,2,0:0:0:0:
254,199,7165,1,0,0:0:0:0:
254,199,7302,1,2,0:0:0:0:
260,200,9366,1,2,0:0:0:0:
260,200,9779,1,0,0:0:0:0:
260,200,10192,1,2,0:0:0:0:
260,200,10605,1,0,0:0:0:0:
260,200,11018,1,0,0:0:0:0:
260,200,11293,1,2,0:0:0:0:
260,200,11568,1,0,0:0:0:0:
270,194,13495,1,0,0:0:0:0:
270,194,13908,1,2,0:0:0:0:
270,194,14321,1,0,0:0:0:0:
270,194,14733,1,2,0:0:0:0:
270,194,15146,1,2,0:0:0:0:
270,194,15421,1,0,0:0:0:0:
256,192,15697,12,2,18999,0:0:0:0:
263,197,20926,5,4,0:0:0:0:
261,190,21201,1,0,0:0:0:0:
263,197,21339,1,2,0:0:0:0:
261,190,21476,1,0,0:0:0:0:
263,197,21752,1,0,0:0:0:0:
261,190,22027,1,2,0:0:0:0:
258,186,22165,1,2,0:0:0:0:
261,190,22302,1,0,0:0:0:0:
250,195,22440,1,2,0:0:0:0:
250,195,22577,1,0,0:0:0:0:
246,142,22853,1,2,0:0:0:0:
270,205,22990,1,0,0:0:0:0:
236,181,23128,1,2,0:0:0:0:
250,195,23403,1,0,0:0:0:0:
250,195,23678,1,2,0:0:0:0:
250,195,23816,1,2,0:0:0:0:
250,195,23954,1,0,0:0:0:0:
254,188,24229,1,0,0:0:0:0:
230,174,24504,1,0,0:0:0:0:
231,172,24642,1,2,0:0:0:0:
254,188,24779,1,0,0:0:0:0:
244,187,25054,1,0,0:0:0:0:
254,188,25330,1,2,0:0:0:0:
244,187,25467,1,2,0:0:0:0:
245,186,25605,1,0,0:0:0:0:
244,187,25743,1,2,0:0:0:0:
244,187,25880,1,0,0:0:0:0:
271,216,26155,1,2,0:0:0:0:
271,216,26293,1,0,0:0:0:0:
271,216,26431,1,2,0:0:0:0:
271,216,26706,1,2,0:0:0:0:
255,182,27256,1,2,0:0:0:0:
255,182,27532,1,4,0:0:0:0:
266,183,27669,1,2,0:0:0:0:
260,190,27807,1,0,0:0:0:0:
257,162,27944,1,0,0:0:0:0:
263,185,28082,1,2,0:0:0:0:
270,192,28357,1,0,0:0:0:0:
260,190,28632,1,2,0:0:0:0:
263,185,28770,1,2,0:0:0:0:
263,185,28908,1,0,0:0:0:0:
270,171,29183,1,0,0:0:0:0:
257,162,29321,1,0,0:0:0:0:
257,169,29458,1,2,0:0:0:0:
270,171,29596,1,0,0:0:0:0:
270,171,29733,1,2,0:0:0:0:
262,163,30009,1,0,0:0:0:0:
267,187,30284,1,2,0:0:0:0:
256,166,30421,1,0,0:0:0:0:
249,182,30559,1,2,0:0:0:0:
274,188,30834,1,0,0:0:0:0:
267,187,30972,1,2,0:0:0:0:
256,186,31109,1,0,0:0:0:0:
256,186,31247,1,0,0:0:0:0:
256,186,31385,1,2,0:0:0:0:
271,194,31660,1,0,0:0:0:0:
271,194,31935,1,2,0:0:0:0:
270,189,32073,1,2,0:0:0:0:
272,199,32210,1,0,0:0:0:0:
269,185,32486,1,0,0:0:0:0:
254,225,32761,1,2,0:0:0:0:
226,235,32898,1,0,0:0:0:0:
223,244,33036,1,2,0:0:0:0:
249,219,33311,1,0,0:0:0:0:
249,219,33587,1,2,0:0:0:0:
249,219,33724,1,2,0:0:0:0:
249,219,33793,1,2,0:0:0:0:
249,219,33862,1,2,0:0:0:0:
259,194,34137,1,4,0:0:0:0:
258,198,34412,1,0,0:0:0:0:
258,195,34550,1,2,0:0:0:0:
260,195,34687,1,0,0:0:0:0:
267,212,34963,1,2,0:0:0:0:
272,208,35513,1,2,0:0:0:0:
267,212,35651,1,2,0:0:0:0:
267,212,35788,1,0,0:0:0:0:
276,186,36064,1,2,0:0:0:0:
279,186,36201,1,0,0:0:0:0:
280,186,36339,1,2,0:0:0:0:
286,199,36614,1,0,0:0:0:0:
283,188,36889,1,2,0:0:0:0:
279,186,37027,1,0,0:0:0:0:
280,186,37165,1,0,0:0:0:0:
276,186,37302,1,2,0:0:0:0:
276,186,37440,1,0,0:0:0:0:
265,194,37715,1,0,0:0:0:0:
256,210,37853,1,2,0:0:0:0:
250,208,37990,1,0,0:0:0:0:
252,208,38265,1,0,0:0:0:0:
252,208,38541,1,2,0:0:0:0:
242,208,38678,1,0,0:0:0:0:
282,184,38816,1,2,0:0:0:0:
249,199,38954,1,2,0:0:0:0:
256,197,39091,1,0,0:0:0:0:
286,205,39366,1,2,0:0:0:0:
286,205,39504,1,0,0:0:0:0:
286,205,39642,1,2,0:0:0:0:
286,204,39779,1,0,0:0:0:0:
286,204,39917,1,2,0:0:0:0:
257,195,40467,1,2,0:0:0:0:
261,208,40743,1,4,0:0:0:0:
261,208,40880,1,2,0:0:0:0:
275,220,41018,1,0,0:0:0:0:
275,220,41155,1,0,0:0:0:0:
273,221,41293,1,2,0:0:0:0:
273,221,41431,1,0,0:0:0:0:
272,221,41568,1,0,0:0:0:0:
275,220,41843,1,2,0:0:0:0:
267,242,41981,1,0,0:0:0:0:
269,207,42119,1,2,0:0:0:0:
269,207,42394,1,4,0:0:0:0:
273,209,42532,1,0,0:0:0:0:
283,209,42669,1,2,0:0:0:0:
283,209,42807,1,0,0:0:0:0:
283,207,42944,1,0,0:0:0:0:
283,203,43082,1,2,0:0:0:0:
283,203,43220,1,0,0:0:0:0:
283,209,43495,1,2,0:0:0:0:
283,207,43770,1,2,0:0:0:0:
283,203,44045,1,4,0:0:0:0:
283,209,44321,1,0,0:0:0:0:
282,195,44458,1,0,0:0:0:0:
282,195,44596,1,2,0:0:0:0:
283,203,44871,1,4,0:0:0:0:
282,197,45146,1,2,0:0:0:0:
282,195,45284,1,0,0:0:0:0:
282,195,45421,1,2,0:0:0:0:
282,195,45697,1,4,0:0:0:0:
281,188,45972,1,0,0:0:0:0:
282,195,46109,1,0,0:0:0:0:
296,192,46247,1,2,0:0:0:0:
278,187,46385,1,2,0:0:0:0:
278,187,46454,1,2,0:0:0:0:
296,192,46522,1,2,0:0:0:0:
296,192,46798,1,0,0:0:0:0:
263,173,46935,1,2,0:0:0:0:
253,180,47073,1,2,0:0:0:0:
253,181,47210,1,2,0:0:0:0:
247,190,47348,1,4,0:0:0:0:
223,166,47623,1,2,0:0:0:0:
224,166,47898,1,2,0:0:0:0:
224,166,48174,1,2,0:0:0:0:
248,171,48724,1,0,0:0:0:0:
248,172,48999,1,0,0:0:0:0:
248,171,49137,1,0,0:0:0:0:
263,177,49275,1,2,0:0:0:0:
263,178,49550,1,2,0:0:0:0:
248,172,49825,1,2,0:0:0:0:
277,168,50100,1,0,0:0:0:0:
244,174,50376,1,0,0:0:0:0:
244,168,50513,1,2,0:0:0:0:
248,172,50651,1,0,0:0:0:0:
244,174,50926,1,2,0:0:0:0:
244,174,51201,1,2,0:0:0:0:
248,172,51476,1,2,0:0:0:0:
257,171,52027,1,0,0:0:0:0:
263,171,52302,1,0,0:0:0:0:
258,162,52440,1,0,0:0:0:0:
263,172,52577,1,2,0:0:0:0:
263,172,52853,1,2,0:0:0:0:
263,171,53128,1,2,0:0:0:0:
277,168,53403,1,0,0:0:0:0:
254,203,53678,1,0,0:0:0:0:
246,169,53816,1,2,0:0:0:0:
254,203,53954,1,4,0:0:0:0:
244,168,54229,1,2,0:0:0:0:
244,172,54504,1,2,0:0:0:0:
246,169,54779,1,2,0:0:0:0:
244,168,55054,1,0,0:0:0:0:
251,174,55192,1,2,0:0:0:0:
251,174,55330,1,0,0:0:0:0:
251,174,55605,1,4,0:0:0:0:
253,160,55743,1,0,0:0:0:0:
243,141,55880,1,2,0:0:0:0:
251,174,56018,1,0,0:0:0:0:
251,174,56155,1,2,0:0:0:0:
243,142,56431,1,2,0:0:0:0:
253,160,56706,1,2,0:0:0:0:
253,160,56981,1,0,0:0:0:0:
267,164,57119,1,2,0:0:0:0:
253,160,57256,1,4,0:0:0:0:
267,164,57394,1,0,0:0:0:0:
261,168,57532,1,2,0:0:0:0:
267,164,57807,1,2,0:0:0:0:
267,164,58082,1,2,0:0:0:0:
267,164,58357,1,2,0:0:0:0:
267,164,58495,1,2,0:0:0:0:
267,164,58632,1,2,0:0:0:0:
267,164,58770,1,2,0:0:0:0:
267,164,58908,1,6,0:0:0:0:
256,192,59733,12,4,60559,0:0:0:0:
265,197,60834,5,4,0:0:0:0:
265,197,61109,1,0,0:0:0:0:
265,197,61246,1,2,0:0:0:0:
265,197,61384,1,0,0:0:0:0:
265,197,61659,1,0,0:0:0:0:
265,197,61934,1,2,0:0:0:0:
265,197,62072,1,0,0:0:0:0:
263,188,62210,1,2,0:0:0:0:
265,197,62347,1,2,0:0:0:0:
260,190,62485,1,0,0:0:0:0:
260,190,62760,1,0,0:0:0:0:
260,190,62898,1,2,0:0:0:0:
205,221,63035,1,0,0:0:0:0:
248,197,63311,1,2,0:0:0:0:
254,178,63586,1,0,0:0:0:0:
254,178,63723,1,0,0:0:0:0:
260,190,63792,1,0,0:0:0:0:
260,190,63861,1,0,0:0:0:0:
269,179,64136,1,4,0:0:0:0:
269,192,64411,1,2,0:0:0:0:
269,192,64549,1,0,0:0:0:0:
268,192,64687,1,0,0:0:0:0:
259,203,64824,1,2,0:0:0:0:
268,188,64962,1,0,0:0:0:0:
283,184,65237,1,0,0:0:0:0:
295,184,65375,1,2,0:0:0:0:
295,184,65512,1,0,0:0:0:0:
280,184,65650,1,2,0:0:0:0:
282,184,65788,1,0,0:0:0:0:
295,184,66063,1,2,0:0:0:0:
299,184,66200,1,0,0:0:0:0:
303,181,66338,1,2,0:0:0:0:
259,203,66476,1,2,0:0:0:0:
303,181,66613,1,0,0:0:0:0:
269,179,66889,1,2,0:0:0:0:
285,194,66980,1,2,0:0:0:0:
274,194,67072,1,2,0:0:0:0:
272,192,67164,1,2,0:0:0:0:
272,192,67439,1,4,0:0:0:0:
272,196,67577,1,0,0:0:0:0:
273,197,67714,1,2,0:0:0:0:
273,197,67852,1,0,0:0:0:0:
273,197,67989,1,2,0:0:0:0:
272,192,68127,1,2,0:0:0:0:
272,192,68265,1,0,0:0:0:0:
272,196,68540,1,2,0:0:0:0:
263,190,68678,1,2,0:0:0:0:
265,190,68746,1,2,0:0:0:0:
265,190,68815,1,2,0:0:0:0:
272,192,69090,1,4,0:0:0:0:
272,192,69228,1,2,0:0:0:0:
272,196,69366,1,2,0:0:0:0:
272,196,69503,1,0,0:0:0:0:
273,197,69641,1,0,0:0:0:0:
273,197,69778,1,2,0:0:0:0:
272,192,69916,1,0,0:0:0:0:
272,192,70191,1,0,0:0:0:0:
272,196,70283,1,0,0:0:0:0:
272,196,70375,1,0,0:0:0:0:
272,196,70467,1,0,0:0:0:0:
273,197,70742,1,4,0:0:0:0:
272,192,71017,1,2,0:0:0:0:
272,192,71155,1,0,0:0:0:0:
265,190,71292,1,2,0:0:0:0:
265,190,71430,1,2,0:0:0:0:
273,197,71567,1,4,0:0:0:0:
272,192,71843,1,2,0:0:0:0:
272,192,72118,1,2,0:0:0:0:
254,157,72256,1,2,0:0:0:0:
273,197,72393,1,4,0:0:0:0:
272,192,72668,1,6,0:0:0:0:
280,182,72944,1,6,0:0:0:0:
273,197,73219,1,4,0:0:0:0:
280,200,73494,1,2,0:0:0:0:
273,197,74045,1,4,0:0:0:0:
252,190,74320,1,2,0:0:0:0:
252,190,74457,1,0,0:0:0:0:
261,210,74595,1,2,0:0:0:0:
261,210,74870,1,0,0:0:0:0:
261,208,75145,1,2,0:0:0:0:
261,207,75283,1,0,0:0:0:0:
261,207,75421,1,2,0:0:0:0:
261,210,75558,1,2,0:0:0:0:
261,210,75696,1,0,0:0:0:0:
261,208,75971,1,2,0:0:0:0:
261,208,76109,1,0,0:0:0:0:
261,207,76246,1,2,0:0:0:0:
261,203,76522,1,0,0:0:0:0:
261,208,76797,1,2,0:0:0:0:
256,214,77072,1,2,0:0:0:0:
256,214,77164,1,2,0:0:0:0:
256,216,77256,1,2,0:0:0:0:
259,216,77347,1,0,0:0:0:0:
270,208,77622,1,2,0:0:0:0:
272,208,77760,1,0,0:0:0:0:
272,208,77898,1,2,0:0:0:0:
274,208,78173,1,4,0:0:0:0:
280,210,78448,1,6,0:0:0:0:
285,220,78723,1,6,0:0:0:0:
284,219,78999,1,4,0:0:0:0:
280,210,79274,1,2,0:0:0:0:
280,210,79411,1,0,0:0:0:0:
278,207,79549,1,2,0:0:0:0:
278,207,79824,1,0,0:0:0:0:
280,210,80100,1,0,0:0:0:0:
280,210,80191,1,0,0:0:0:0:
280,210,80283,1,0,0:0:0:0:
280,210,80375,1,2,0:0:0:0:
246,172,80650,1,4,0:0:0:0:
246,172,80788,1,2,0:0:0:0:
225,190,80925,1,2,0:0:0:0:
257,189,81063,1,0,0:0:0:0:
257,185,81200,1,2,0:0:0:0:
257,185,81338,1,2,0:0:0:0:
256,184,81476,1,0,0:0:0:0:
261,179,81659,1,2,0:0:0:0:
288,182,81751,1,2,0:0:0:0:
274,163,82026,1,2,0:0:0:0:
252,175,82301,1,4,0:0:0:0:
244,182,82439,1,2,0:0:0:0:
244,182,82577,1,2,0:0:0:0:
236,182,82714,1,2,0:0:0:0:
244,182,82852,1,0,0:0:0:0:
235,182,82989,1,2,0:0:0:0:
237,182,83127,1,0,0:0:0:0:
239,182,83311,1,2,0:0:0:0:
244,182,83402,1,2,0:0:0:0:
244,191,83494,1,2,0:0:0:0:
246,195,83586,1,2,0:0:0:0:
246,195,83678,1,2,0:0:0:0:
229,188,83953,1,4,0:0:0:0:
241,204,84090,1,2,0:0:0:0:
241,204,84228,1,0,0:0:0:0:
241,204,84366,1,2,0:0:0:0:
241,204,84503,1,2,0:0:0:0:
241,204,84641,1,2,0:0:0:0:
241,204,84778,1,4,0:0:0:0:
241,204,85054,1,2,0:0:0:0:
241,204,85329,1,2,0:0:0:0:
241,204,85604,1,4,0:0:0:0:
241,204,85879,1,6,0:0:0:0:
241,204,86155,1,6,0:0:0:0:
241,204,86430,1,4,0:0:0:0:
241,204,87256,1,2,0:0:0:0:
