osu file format v14

[General]
AudioFilename: audio.mp3
AudioLeadIn: 0
PreviewTime: 60009
Countdown: 0
SampleSet: Normal
StackLeniency: 0.7
Mode: 1
LetterboxInBreaks: 0
WidescreenStoryboard: 1

[Editor]
Bookmarks: 20926,27531,34137
DistanceSpacing: 1.8
BeatDivisor: 4
GridSize: 32
TimelineZoom: 3.339998

[Metadata]
Title:Yuuki no Pendant
TitleUnicode:勇気のペンダント
Artist:Qrispy Joybox feat. Chata
ArtistUnicode:Qrispy Joybox feat. 茶太
Creator:[ TNTlealu ]
Version:Fapu's Muzukashii
Source:REFLEC BEAT 悠久のリフレシア
Tags:TATSUYA IYAMA Yukyuu no Reflesia The Eternity of reflesia yuukyu no yassu- leo16834 [_Chichinya_] Faputa video game Japanese
BeatmapID:2198953
BeatmapSetID:995768

[Difficulty]
HPDrainRate:6
CircleSize:2
OverallDifficulty:5
ApproachRate:10
SliderMultiplier:1.4
SliderTickRate:1

[Events]
//Background and Video events
0,0,"y1.jpg",0,0
//Break Periods
//Storyboard Layer 0 (Background)
//Storyboard Layer 1 (Fail)
//Storyboard Layer 2 (Pass)
//Storyboard Layer 3 (Foreground)
//Storyboard Layer 4 (Overlay)
//Storyboard Sound Samples

[TimingPoints]
1110,275.229357798165,6,1,1,50,1,0
15697,-102.040816326531,6,1,1,50,0,0
15834,-104.166666666667,6,1,1,50,0,0
15972,-106.382978723404,6,1,1,50,0,0
16109,-108.695652173913,6,1,1,50,0,0
16247,-111.111111111111,6,1,1,50,0,0
16385,-113.636363636364,6,1,1,50,0,0
16660,-119.047619047619,6,1,1,50,0,0
16798,-121.951219512195,6,1,1,50,0,0
17073,-128.205128205128,6,1,1,50,0,0
17210,-131.578947368421,6,1,1,50,0,0
17348,-135.135135135135,6,1,1,50,0,0
17486,-138.888888888889,6,1,1,50,0,0
17623,-142.857142857143,6,1,1,50,0,0
17761,-147.058823529412,6,1,1,50,0,0
20651,-100,6,1,1,70,0,0
20926,-100,6,1,1,70,0,0
58908,275.229357798165,7,1,1,70,1,0
60467,-121.951219512195,6,1,1,80,0,0
60559,-125,6,1,1,80,0,0
60834,275.229357798165,6,1,1,85,1,1
73494,-100,6,1,1,85,0,0
74045,-100,6,1,1,85,0,1
87256,-100,6,1,1,60,0,0

[HitObjects]
256,192,1110,5,8,0:0:0:0:
256,192,1522,1,0,0:0:0:0:
256,192,1935,1,8,0:0:0:0:
256,192,5238,1,8,0:0:0:0:
256,192,5651,1,0,0:0:0:0:
256,192,6064,1,8,0:0:0:0:
256,192,9366,1,8,0:0:0:0:
256,192,9779,1,0,0:0:0:0:
256,192,10192,1,0,0:0:0:0:
256,192,10605,1,8,0:0:0:0:
256,192,11018,1,0,0:0:0:0:
256,192,11293,1,8,0:0:0:0:
256,192,11568,1,8,0:0:0:0:
256,192,13495,1,8,0:0:0:0:
256,192,13908,1,0,0:0:0:0:
256,192,14321,1,8,0:0:0:0:
256,192,14733,1,8,0:0:0:0:
256,192,15146,1,0,0:0:0:0:
256,192,15421,1,0,0:0:0:0:
256,192,15697,1,8,0:0:0:0:
256,192,15834,1,8,0:0:0:0:
256,192,15972,1,0,0:0:0:0:
256,192,16109,1,0,0:0:0:0:
256,192,16247,1,8,0:0:0:0:
256,192,16385,1,8,0:0:0:0:
256,192,16660,1,0,0:0:0:0:
256,192,16798,1,8,0:0:0:0:
256,192,17073,1,8,0:0:0:0:
256,192,17210,1,0,0:0:0:0:
256,192,17348,1,8,0:0:0:0:
256,192,17486,1,0,0:0:0:0:
256,192,17623,1,0,0:0:0:0:
256,192,17761,1,8,0:0:0:0:
256,192,18449,1,0,0:0:0:0:
256,192,18999,1,8,0:0:0:0:
256,192,20926,1,12,0:0:0:0:
256,192,21201,1,0,0:0:0:0:
256,192,21339,1,0,0:0:0:0:
256,192,21476,1,8,0:0:0:0:
256,192,21752,1,8,0:0:0:0:
256,192,22027,1,8,0:0:0:0:
256,192,22096,1,8,0:0:0:0:
256,192,22165,1,8,0:0:0:0:
256,192,22577,1,8,0:0:0:0:
256,192,22853,1,0,0:0:0:0:
256,192,22990,1,8,0:0:0:0:
256,192,23128,1,8,0:0:0:0:
256,192,23403,1,8,0:0:0:0:
256,192,23678,1,8,0:0:0:0:
256,192,23747,1,8,0:0:0:0:
256,192,23816,1,8,0:0:0:0:
256,192,24229,1,8,0:0:0:0:
256,192,24504,1,0,0:0:0:0:
256,192,24642,1,8,0:0:0:0:
256,192,24779,1,0,0:0:0:0:
256,192,25054,1,8,0:0:0:0:
256,192,25330,1,8,0:0:0:0:
256,192,25467,1,8,0:0:0:0:
256,192,25605,1,0,0:0:0:0:
256,192,25880,1,0,0:0:0:0:
256,192,26155,1,8,0:0:0:0:
256,192,26293,1,0,0:0:0:0:
256,192,26431,1,8,0:0:0:0:
256,192,26706,1,8,0:0:0:0:
256,192,26981,1,8,0:0:0:0:
256,192,27119,1,8,0:0:0:0:
256,192,27256,1,0,0:0:0:0:
256,192,27532,1,12,0:0:0:0:
256,192,27807,1,8,0:0:0:0:
256,192,27944,1,0,0:0:0:0:
256,192,28082,1,8,0:0:0:0:
256,192,28357,1,8,0:0:0:0:
256,192,28632,1,0,0:0:0:0:
256,192,28701,1,0,0:0:0:0:
256,192,28770,1,0,0:0:0:0:
256,192,29183,1,0,0:0:0:0:
256,192,29458,1,8,0:0:0:0:
256,192,29596,1,0,0:0:0:0:
256,192,29733,1,8,0:0:0:0:
256,192,30009,1,8,0:0:0:0:
256,192,30284,1,0,0:0:0:0:
256,192,30353,1,0,0:0:0:0:
256,192,30421,1,0,0:0:0:0:
256,192,30834,1,0,0:0:0:0:
256,192,31109,1,8,0:0:0:0:
256,192,31247,1,0,0:0:0:0:
256,192,31385,1,8,0:0:0:0:
256,192,31660,1,8,0:0:0:0:
256,192,31935,1,0,0:0:0:0:
256,192,32073,1,0,0:0:0:0:
256,192,32210,1,8,0:0:0:0:
256,192,32486,1,0,0:0:0:0:
256,192,32761,1,8,0:0:0:0:
256,192,32898,1,0,0:0:0:0:
256,192,33036,1,8,0:0:0:0:
256,192,33311,1,0,0:0:0:0:
256,192,33587,1,8,0:0:0:0:
256,192,33724,1,8,0:0:0:0:
256,192,33862,1,0,0:0:0:0:
256,192,34137,1,12,0:0:0:0:
256,192,34412,1,8,0:0:0:0:
256,192,34550,1,8,0:0:0:0:
256,192,34687,1,0,0:0:0:0:
256,192,34825,1,0,0:0:0:0:
256,192,34963,1,8,0:0:0:0:
256,192,35238,1,0,0:0:0:0:
256,192,35788,1,0,0:0:0:0:
256,192,36064,1,8,0:0:0:0:
256,192,36201,1,0,0:0:0:0:
256,192,36339,1,8,0:0:0:0:
256,192,36476,1,8,0:0:0:0:
256,192,36614,1,0,0:0:0:0:
256,192,36889,1,8,0:0:0:0:
256,192,37165,1,0,0:0:0:0:
256,192,37440,1,0,0:0:0:0:
256,192,37715,1,8,0:0:0:0:
256,192,37853,1,8,0:0:0:0:
256,192,37990,1,0,0:0:0:0:
256,192,38128,1,8,0:0:0:0:
256,192,38265,1,0,0:0:0:0:
256,192,38541,1,0,0:0:0:0:
256,192,38816,1,8,0:0:0:0:
256,192,39091,1,0,0:0:0:0:
256,192,39642,1,0,0:0:0:0:
256,192,39779,1,8,0:0:0:0:
256,192,39917,1,8,0:0:0:0:
256,192,40192,1,0,0:0:0:0:
256,192,40261,1,0,0:0:0:0:
256,192,40330,1,0,0:0:0:0:
256,192,40467,1,8,0:0:0:0:
256,192,40743,1,4,0:0:0:0:
256,192,41018,1,8,0:0:0:0:
256,192,41155,1,8,0:0:0:0:
256,192,41293,1,0,0:0:0:0:
256,192,41431,1,0,0:0:0:0:
256,192,41568,1,8,0:0:0:0:
256,192,41843,1,8,0:0:0:0:
256,192,42394,1,8,0:0:0:0:
256,192,42669,1,0,0:0:0:0:
256,192,42807,1,0,0:0:0:0:
256,192,42944,1,8,0:0:0:0:
256,192,43082,1,8,0:0:0:0:
256,192,43220,1,0,0:0:0:0:
256,192,43495,1,8,0:0:0:0:
256,192,44045,1,4,0:0:0:0:
256,192,44321,1,8,0:0:0:0:
256,192,44458,1,0,0:0:0:0:
256,192,44596,1,8,0:0:0:0:
256,192,44871,1,4,0:0:0:0:
256,192,45146,1,0,0:0:0:0:
256,192,45284,1,8,0:0:0:0:
256,192,45421,1,0,0:0:0:0:
256,192,45697,1,12,0:0:0:0:
256,192,45972,1,0,0:0:0:0:
256,192,46109,1,0,0:0:0:0:
256,192,46247,1,8,0:0:0:0:
256,192,46522,1,4,0:0:0:0:
256,192,46798,1,4,0:0:0:0:
256,192,47073,1,4,0:0:0:0:
256,192,47348,1,12,0:0:0:0:
256,192,47898,1,0,0:0:0:0:
256,192,48174,1,8,0:0:0:0:
256,192,48311,1,8,0:0:0:0:
256,192,48449,1,0,0:0:0:0:
256,192,48587,1,0,0:0:0:0:
256,192,48724,1,8,0:0:0:0:
256,192,48999,1,0,0:0:0:0:
256,192,49137,1,8,0:0:0:0:
256,192,49275,1,0,0:0:0:0:
256,192,49550,1,0,0:0:0:0:
256,192,49825,1,8,0:0:0:0:
256,192,49963,1,8,0:0:0:0:
256,192,50100,1,0,0:0:0:0:
256,192,50376,1,8,0:0:0:0:
256,192,50651,1,0,0:0:0:0:
256,192,51201,1,8,0:0:0:0:
256,192,51476,1,0,0:0:0:0:
256,192,51614,1,0,0:0:0:0:
256,192,51752,1,8,0:0:0:0:
256,192,51889,1,8,0:0:0:0:
256,192,52027,1,0,0:0:0:0:
256,192,52302,1,8,0:0:0:0:
256,192,52440,1,0,0:0:0:0:
256,192,52577,1,8,0:0:0:0:
256,192,52853,1,8,0:0:0:0:
256,192,53128,1,8,0:0:0:0:
256,192,53265,1,8,0:0:0:0:
256,192,53403,1,0,0:0:0:0:
256,192,53678,1,8,0:0:0:0:
256,192,53954,1,4,0:0:0:0:
256,192,54229,1,8,0:0:0:0:
256,192,54366,1,8,0:0:0:0:
256,192,54504,1,0,0:0:0:0:
256,192,54642,1,0,0:0:0:0:
256,192,54779,1,8,0:0:0:0:
256,192,55054,1,8,0:0:0:0:
256,192,55605,1,12,0:0:0:0:
256,192,55880,1,0,0:0:0:0:
256,192,56018,1,0,0:0:0:0:
256,192,56155,1,8,0:0:0:0:
256,192,56293,1,8,0:0:0:0:
256,192,56431,1,0,0:0:0:0:
256,192,56706,1,8,0:0:0:0:
256,192,57256,1,4,0:0:0:0:
256,192,57532,1,8,0:0:0:0:
256,192,57669,1,0,0:0:0:0:
256,192,57807,1,8,0:0:0:0:
256,192,57944,1,8,0:0:0:0:
256,192,58082,1,0,0:0:0:0:
256,192,58357,1,8,0:0:0:0:
256,192,58495,1,8,0:0:0:0:
256,192,58632,1,8,0:0:0:0:
256,192,58770,1,8,0:0:0:0:
256,192,58908,1,4,0:0:0:0:
256,192,60559,1,0,0:0:0:0:
256,192,60834,1,12,0:0:0:0:
256,192,61246,1,8,0:0:0:0:
256,192,61522,1,0,0:0:0:0:
256,192,61659,1,8,0:0:0:0:
256,192,61934,1,8,0:0:0:0:
256,192,62072,1,8,0:0:0:0:
256,192,62210,1,0,0:0:0:0:
256,192,62347,1,0,0:0:0:0:
256,192,62485,1,8,0:0:0:0:
256,192,62760,1,0,0:0:0:0:
256,192,62898,1,0,0:0:0:0:
256,192,63035,1,8,0:0:0:0:
256,192,63311,1,8,0:0:0:0:
256,192,63861,1,0,0:0:0:0:
256,192,64136,1,0,0:0:0:0:
256,192,64274,1,8,0:0:0:0:
256,192,64411,1,0,0:0:0:0:
256,192,64549,1,8,0:0:0:0:
256,192,64687,1,0,0:0:0:0:
256,192,64962,1,8,0:0:0:0:
256,192,65100,1,0,0:0:0:0:
256,192,65237,1,8,0:0:0:0:
256,192,65375,1,8,0:0:0:0:
256,192,65512,1,0,0:0:0:0:
256,192,65788,1,8,0:0:0:0:
256,192,65925,1,0,0:0:0:0:
256,192,66063,1,8,0:0:0:0:
256,192,66200,1,0,0:0:0:0:
256,192,66338,1,8,0:0:0:0:
256,192,66613,1,0,0:0:0:0:
256,192,66889,1,8,0:0:0:0:
256,192,66957,1,8,0:0:0:0:
256,192,67026,1,8,0:0:0:0:
256,192,67164,1,8,0:0:0:0:
256,192,67439,1,12,0:0:0:0:
256,192,67714,1,0,0:0:0:0:
256,192,67852,1,8,0:0:0:0:
256,192,67989,1,0,0:0:0:0:
256,192,68265,1,8,0:0:0:0:
256,192,68540,1,8,0:0:0:0:
256,192,69090,1,4,0:0:0:0:
256,192,69366,1,8,0:0:0:0:
256,192,69503,1,0,0:0:0:0:
256,192,69778,1,0,0:0:0:0:
256,192,69916,1,8,0:0:0:0:
256,192,70054,1,8,0:0:0:0:
256,192,70191,1,0,0:0:0:0:
256,192,70742,1,12,0:0:0:0:
256,192,71017,1,8,0:0:0:0:
256,192,71155,1,8,0:0:0:0:
256,192,71292,1,0,0:0:0:0:
256,192,71567,1,8,0:0:0:0:
256,192,71843,1,0,0:0:0:0:
256,192,72118,1,8,0:0:0:0:
256,192,72393,1,4,0:0:0:0:
256,192,72668,1,0,0:0:0:0:
256,192,72944,1,0,0:0:0:0:
256,192,73219,1,8,0:0:0:0:
256,192,73494,1,8,0:0:0:0:
256,192,73563,1,8,0:0:0:0:
256,192,73632,1,8,0:0:0:0:
256,192,73769,1,8,0:0:0:0:
256,192,74045,1,4,0:0:0:0:
256,192,74595,1,8,0:0:0:0:
256,192,74870,1,8,0:0:0:0:
256,192,75008,1,0,0:0:0:0:
256,192,75145,1,8,0:0:0:0:
256,192,75283,1,8,0:0:0:0:
256,192,75421,1,0,0:0:0:0:
256,192,75696,1,8,0:0:0:0:
256,192,76109,1,0,0:0:0:0:
256,192,76246,1,8,0:0:0:0:
256,192,76522,1,8,0:0:0:0:
256,192,76659,1,8,0:0:0:0:
256,192,76797,1,0,0:0:0:0:
256,192,76934,1,0,0:0:0:0:
256,192,77072,1,8,0:0:0:0:
256,192,77347,1,4,0:0:0:0:
256,192,77898,1,8,0:0:0:0:
256,192,78173,1,0,0:0:0:0:
256,192,78311,1,0,0:0:0:0:
256,192,78448,1,8,0:0:0:0:
256,192,78586,1,0,0:0:0:0:
256,192,78723,1,8,0:0:0:0:
256,192,78999,1,4,0:0:0:0:
256,192,79274,1,8,0:0:0:0:
256,192,79549,1,8,0:0:0:0:
256,192,79687,1,0,0:0:0:0:
256,192,79824,1,8,0:0:0:0:
256,192,79962,1,8,0:0:0:0:
256,192,80100,1,0,0:0:0:0:
256,192,80375,1,8,0:0:0:0:
256,192,80650,1,8,0:0:0:0:
256,192,80788,1,8,0:0:0:0:
256,192,80925,1,0,0:0:0:0:
256,192,81063,1,8,0:0:0:0:
256,192,81200,1,8,0:0:0:0:
256,192,81476,1,0,0:0:0:0:
256,192,81751,1,8,0:0:0:0:
256,192,82301,1,0,0:0:0:0:
256,192,82439,1,0,0:0:0:0:
256,192,82577,1,8,0:0:0:0:
256,192,82714,1,0,0:0:0:0:
256,192,82852,1,0,0:0:0:0:
256,192,83127,1,8,0:0:0:0:
256,192,83402,1,8,0:0:0:0:
256,192,83953,1,8,0:0:0:0:
256,192,84228,1,0,0:0:0:0:
256,192,84366,1,8,0:0:0:0:
256,192,84503,1,8,0:0:0:0:
256,192,84641,1,8,0:0:0:0:
256,192,84778,1,0,0:0:0:0:
256,192,85054,1,8,0:0:0:0:
256,192,85191,1,0,0:0:0:0:
256,192,85329,1,8,0:0:0:0:
256,192,85604,1,4,0:0:0:0:
256,192,85879,1,0,0:0:0:0:
256,192,86155,1,8,0:0:0:0:
256,192,86223,1,8,0:0:0:0:
256,192,86292,1,8,0:0:0:0:
256,192,86430,1,0,0:0:0:0:
256,192,86705,1,0,0:0:0:0:
256,192,86980,1,8,0:0:0:0:
256,192,87118,1,0,0:0:0:0:
256,192,87256,1,8,0:0:0:0:
256,192,90558,1,8,0:0:0:0:
288,192,93861,1,8,0:0:0:0:
256,192,97164,1,0,0:0:0:0:
256,192,97439,12,0,100467,0:0:0:0:
