osu file format v14

[General]
AudioFilename: audio.mp3
AudioLeadIn: 0
PreviewTime: 60009
Countdown: 0
SampleSet: Normal
StackLeniency: 0.7
Mode: 1
LetterboxInBreaks: 0
WidescreenStoryboard: 1

[Editor]
Bookmarks: 20926,27531,34137
DistanceSpacing: 1.8
BeatDivisor: 2
GridSize: 32
TimelineZoom: 3.339998

[Metadata]
Title:Yuuki no Pendant
TitleUnicode:勇気のペンダント
Artist:Qrispy Joybox feat. Chata
ArtistUnicode:Qrispy Joybox feat. 茶太
Creator:[ TNTlealu ]
Version:Chi's Kantan
Source:REFLEC BEAT 悠久のリフレシア
Tags:TATSUYA IYAMA Yukyuu no Reflesia The Eternity of reflesia yuukyu no yassu- leo16834 [_Chichinya_] Faputa video game Japanese
BeatmapID:2178161
BeatmapSetID:995768

[Difficulty]
HPDrainRate:8
CircleSize:2
OverallDifficulty:3
ApproachRate:10
SliderMultiplier:1.4
SliderTickRate:1

[Events]
//Background and Video events
0,0,"y1.jpg",0,0
//Break Periods
//Storyboard Layer 0 (Background)
//Storyboard Layer 1 (Fail)
//Storyboard Layer 2 (Pass)
//Storyboard Layer 3 (Foreground)
//Storyboard Layer 4 (Overlay)
//Storyboard Sound Samples

[TimingPoints]
1110,275.229357798165,6,1,1,50,1,0
1110,-111.111111111111,6,1,1,50,0,0
20926,-111.111111111111,6,1,1,70,0,0
58908,275.229357798165,7,1,1,50,1,0
58908,-111.111111111111,7,1,1,50,0,0
60834,275.229357798165,6,1,1,85,1,1
73494,-111.111111111111,6,1,1,85,0,0
74045,-111.111111111111,6,1,1,85,0,1
87256,-111.111111111111,6,1,1,60,0,0

[HitObjects]
256,192,1110,5,8,0:0:0:0:
256,192,1935,1,0,0:0:0:0:
256,192,5238,1,8,0:0:0:0:
256,192,6064,1,0,0:0:0:0:
256,192,9366,1,8,0:0:0:0:
256,192,10192,1,0,0:0:0:0:
256,192,11018,1,8,0:0:0:0:
256,192,11568,1,0,0:0:0:0:
256,192,13495,1,8,0:0:0:0:
256,192,14321,1,0,0:0:0:0:
256,192,15146,1,8,0:0:0:0:
256,192,15697,1,8,0:0:0:0:
256,192,16660,1,8,0:0:0:0:
256,192,17761,1,0,0:0:0:0:
256,192,18999,1,8,0:0:0:0:
256,192,20926,1,4,0:0:0:0:
256,192,21752,1,8,0:0:0:0:
256,192,22027,1,0,0:0:0:0:
256,192,22577,1,0,0:0:0:0:
256,192,23403,1,2,0:0:0:0:
256,192,23678,1,8,0:0:0:0:
256,192,24229,1,0,0:0:0:0:
256,192,25054,1,8,0:0:0:0:
256,192,25330,1,0,0:0:0:0:
256,192,25880,1,0,0:0:0:0:
256,192,26706,1,8,0:0:0:0:
256,192,27532,1,0,0:0:0:0:
256,192,28082,1,0,0:0:0:0:
256,192,28357,1,8,0:0:0:0:
256,192,28632,1,0,0:0:0:0:
256,192,29183,1,0,0:0:0:0:
256,192,30009,1,8,0:0:0:0:
256,192,30284,1,8,0:0:0:0:
256,192,30834,1,0,0:0:0:0:
256,192,31660,1,8,0:0:0:0:
256,192,32486,1,0,0:0:0:0:
256,192,34137,1,0,0:0:0:0:
256,192,34963,1,8,0:0:0:0:
256,192,35238,1,8,0:0:0:0:
256,192,35788,1,0,0:0:0:0:
256,192,36339,1,0,0:0:0:0:
256,192,36614,1,0,0:0:0:0:
256,192,36889,1,8,0:0:0:0:
256,192,37165,1,8,0:0:0:0:
224,192,38265,1,8,0:0:0:0:
256,192,38816,1,8,0:0:0:0:
256,192,39091,1,0,0:0:0:0:
256,192,39917,1,8,0:0:0:0:
256,192,40743,1,0,0:0:0:0:
256,192,41568,1,8,0:0:0:0:
256,192,41843,1,8,0:0:0:0:
256,192,42394,1,0,0:0:0:0:
256,192,43220,1,0,0:0:0:0:
256,192,43495,1,8,0:0:0:0:
256,192,44045,1,4,0:0:0:0:
256,192,44871,1,12,0:0:0:0:
256,192,45697,1,4,0:0:0:0:
256,192,46522,1,12,0:0:0:0:
256,192,47073,1,8,0:0:0:0:
256,192,47348,1,0,0:0:0:0:
256,192,48999,1,0,0:0:0:0:
256,192,49825,1,8,0:0:0:0:
256,192,50376,1,8,0:0:0:0:
256,192,50651,1,0,0:0:0:0:
256,192,51476,1,0,0:0:0:0:
256,192,52302,1,0,0:0:0:0:
256,192,53954,1,12,0:0:0:0:
256,192,54779,1,0,0:0:0:0:
256,192,55054,1,0,0:0:0:0:
256,192,55605,1,12,0:0:0:0:
256,192,56431,1,8,0:0:0:0:
256,192,57256,1,12,0:0:0:0:
256,192,58082,1,0,0:0:0:0:
256,192,58632,1,0,0:0:0:0:
256,192,58908,1,12,0:0:0:0:
256,192,60834,1,0,0:0:0:0:
256,192,61109,1,8,0:0:0:0:
256,192,61659,1,0,0:0:0:0:
256,192,61934,1,8,0:0:0:0:
256,192,62210,1,8,0:0:0:0:
256,192,62485,1,0,0:0:0:0:
256,192,63035,1,0,0:0:0:0:
256,192,63311,1,2,0:0:0:0:
256,192,64136,1,8,0:0:0:0:
256,192,64411,1,0,0:0:0:0:
256,192,64962,1,0,0:0:0:0:
256,192,65788,1,8,0:0:0:0:
256,192,66063,1,8,0:0:0:0:
256,192,66338,1,8,0:0:0:0:
256,192,66613,1,0,0:0:0:0:
256,192,67439,1,0,0:0:0:0:
256,192,68265,1,8,0:0:0:0:
256,192,68540,1,8,0:0:0:0:
256,192,68815,1,8,0:0:0:0:
256,192,69090,1,0,0:0:0:0:
256,192,69916,1,0,0:0:0:0:
256,192,70191,1,8,0:0:0:0:
256,192,70467,1,8,0:0:0:0:
256,192,70742,1,0,0:0:0:0:
256,192,71567,1,8,0:0:0:0:
256,192,72118,1,8,0:0:0:0:
256,192,72393,1,0,0:0:0:0:
256,192,73219,1,8,0:0:0:0:
256,192,73494,1,0,0:0:0:0:
256,192,74045,1,0,0:0:0:0:
256,192,74320,1,8,0:0:0:0:
256,192,74870,1,0,0:0:0:0:
256,192,75696,1,8,0:0:0:0:
256,192,75971,1,0,0:0:0:0:
256,192,76246,1,0,0:0:0:0:
256,192,76522,1,2,0:0:0:0:
256,192,77072,1,0,0:0:0:0:
256,192,77347,1,8,0:0:0:0:
256,192,78173,1,0,0:0:0:0:
256,192,78999,1,8,0:0:0:0:
256,192,79274,1,8,0:0:0:0:
256,192,79549,1,8,0:0:0:0:
256,192,79824,1,0,0:0:0:0:
256,192,80650,1,0,0:0:0:0:
256,192,81200,1,0,0:0:0:0:
256,192,81476,1,8,0:0:0:0:
256,192,81751,1,8,0:0:0:0:
256,192,82301,1,0,0:0:0:0:
256,192,82852,1,0,0:0:0:0:
256,192,83127,1,0,0:0:0:0:
256,192,83402,1,8,0:0:0:0:
256,192,83953,1,0,0:0:0:0:
256,192,84778,1,8,0:0:0:0:
256,192,85054,1,8,0:0:0:0:
256,192,85329,1,0,0:0:0:0:
256,192,85604,1,0,0:0:0:0:
256,192,86430,1,8,0:0:0:0:
256,192,87256,1,0,0:0:0:0:
