osu file format v14

[General]
AudioFilename: audio.mp3
AudioLeadIn: 0
PreviewTime: 44731
Countdown: 0
SampleSet: Soft
StackLeniency: 0.7
Mode: 0
LetterboxInBreaks: 0
WidescreenStoryboard: 1

[Editor]
DistanceSpacing: 1.4
BeatDivisor: 4
GridSize: 32
TimelineZoom: 2.1

[Metadata]
Title:sorairo concerto
TitleUnicode:空色コンチェルト
Artist:Qrispy Joybox
ArtistUnicode:Qrispy Joybox
Creator:MrSergio
Version:Normal
Source:REFLEC BEAT plus
Tags:limelight konami music pack 25 peaceGiant
BeatmapID:1186468
BeatmapSetID:546133

[Difficulty]
HPDrainRate:3.5
CircleSize:3.5
OverallDifficulty:4
ApproachRate:5
SliderMultiplier:1
SliderTickRate:1

[Events]
//Background and Video events
0,0,"forest.jpg",0,0
//Break Periods
//Storyboard Layer 0 (Background)
//Storyboard Layer 1 (Fail)
//Storyboard Layer 2 (Pass)
//Storyboard Layer 3 (Foreground)
//Storyboard Sound Samples

[TimingPoints]
376,368.098159509202,4,2,1,40,1,0
376,-125,4,2,1,40,0,0
5897,-100,4,2,1,60,0,0
6265,-100,4,2,1,60,0,0
29823,-125,4,2,1,60,0,0
32768,-100,4,2,1,60,0,0
41602,-125,4,2,1,60,0,0
44547,-166.666666666667,4,2,1,45,0,0
46940,-166.666666666667,4,2,4,45,0,0
47676,-166.666666666667,4,2,1,45,0,0
49885,-166.666666666667,4,2,4,45,0,0
50621,-166.666666666667,4,2,1,45,0,0
52829,-166.666666666667,4,2,4,45,0,0
53566,-166.666666666667,4,2,1,45,0,0
55958,-200,4,2,1,25,0,0
56510,-200,4,2,1,20,0,0
57983,-153.846153846154,4,2,1,25,0,0
59455,-125,4,2,1,25,0,0
61848,-100,4,2,1,55,0,0
62216,-83.3333333333333,4,2,1,70,0,1
85682,-83.3333333333333,4,2,1,5,0,1
85774,-100,4,1,1,45,0,0
97553,-100,4,1,1,55,0,0

[Colours]
Combo1 : 65,235,120
Combo2 : 89,238,198
Combo3 : 74,208,232
Combo4 : 95,106,214

[HitObjects]
404,256,376,6,0,L|404:160,1,80,0|0,0:0|0:0,0:0:0:0:
284,196,1112,1,2,0:0:0:0:
284,196,1480,1,2,0:0:0:0:
164,216,1848,2,0,L|164:124,2,80,2|0|0,0:0|0:0|0:0,0:0:0:0:
162,335,2952,1,2,0:0:0:0:
162,335,3320,6,0,L|211:334,1,40,2|0,0:0|0:0,0:0:0:0:
243,302,3688,2,0,L|292:301,1,40,2|0,0:0|0:0,0:0:0:0:
326,272,4056,1,0,0:0:0:0:
238,189,4425,1,2,0:0:0:0:
326,108,4793,1,0,0:0:0:0:
326,108,5161,1,0,0:0:0:0:
415,187,5529,1,2,0:0:0:0:
168,357,6265,6,0,P|184:311|163:253,1,100,0|0,1:0|1:0,0:0:0:0:
140,211,6817,2,0,P|126:163|142:117,1,100,0|0,1:0|3:0,0:0:0:0:
182,71,7369,2,0,L|287:72,1,100,0|0,1:0|3:0,0:0:0:0:
342,76,7922,1,0,1:0:0:0:
316,193,8290,1,0,3:0:0:0:
316,193,8474,2,0,L|317:252,1,50,4|0,0:1|3:0,0:0:0:0:
284,293,8842,1,4,0:1:0:0:
427,354,9210,6,0,P|413:308|436:248,1,100,2|0,1:2|1:0,0:0:0:0:
457,207,9762,2,0,P|471:161|448:101,1,100,0|0,1:0|3:0,0:0:0:0:
405,80,10314,2,0,L|289:81,1,100,0|0,1:0|0:0,0:0:0:0:
245,85,10866,1,0,1:0:0:0:
193,193,11234,1,0,3:0:0:0:
193,193,11418,2,0,L|292:192,1,100,4|4,0:1|0:1,0:0:0:0:
427,290,12155,6,0,L|477:290,2,50,2|0|0,1:2|1:0|1:0,0:0:0:0:
375,320,12707,1,2,1:2:0:0:
421,197,13075,1,2,1:2:0:0:
421,197,13259,2,0,P|435:157|413:92,1,100,0|0,1:0|3:0,0:0:0:0:
384,55,13811,1,0,1:0:0:0:
271,96,14179,1,0,1:0:0:0:
271,96,14363,2,0,P|257:136|279:201,1,100,0|0,1:0|3:0,0:0:0:0:
338,308,15099,6,0,L|399:309,2,50,2|0|0,1:2|1:0|1:0,0:0:0:0:
286,338,15652,1,2,1:2:0:0:
201,252,16020,1,2,1:2:0:0:
201,252,16204,2,0,L|83:255,1,100,0|0,1:0|3:0,0:0:0:0:
41,257,16756,1,2,0:0:0:0:
143,161,17124,1,0,0:0:0:0:
143,161,17308,2,0,L|258:161,1,100,0|2,1:2|0:0,0:0:0:0:
353,63,18044,6,0,B|366:167,1,100,0|0,1:0|1:0,0:0:0:0:
342,217,18596,2,0,B|355:321,1,100,0|0,1:0|3:0,0:0:0:0:
333,372,19149,2,0,B|286:364|286:364|233:378|233:378|165:369,1,150,0|0,1:0|1:0,0:0:0:0:
48,255,20253,1,4,0:1:0:0:
48,255,20437,2,0,B|214:287,1,150,4|4,0:1|1:0,0:0:0:0:
253,296,21173,6,0,L|317:307,2,50,2|0|0,0:0|3:0|0:1,0:0:0:0:
195,283,21725,2,0,P|189:233|214:187,1,100,2|0,0:0|3:0,0:0:0:0:
249,144,22277,2,0,P|271:99|264:51,1,100,2|0,0:0|0:0,0:0:0:0:
208,30,22829,2,0,L|137:32,1,50,0|2,0:0|0:0,0:0:0:0:
38,39,23382,1,4,0:0:0:0:
38,39,23566,2,0,P|31:87|53:131,1,100,0|4,1:2|1:0,0:0:0:0:
113,130,24118,6,0,L|183:128,2,50,2|0|0,0:0|3:0|0:0,0:0:0:0:
53,131,24670,2,0,P|31:171|44:230,1,100,2|0,0:0|3:0,0:0:0:0:
87,259,25222,2,0,L|198:255,1,100,2|0,0:0|0:0,0:0:0:0:
239,283,25774,2,0,L|295:280,1,50,0|2,3:0|0:0,0:0:0:0:
311,162,26326,1,4,0:0:0:0:
311,162,26510,2,0,L|203:166,1,100,0|4,1:0|1:0,0:0:0:0:
150,168,27063,6,0,L|83:171,2,50,2|0|0,0:0|3:0|0:0,0:0:0:0:
211,165,27615,2,0,P|230:118|210:60,1,100,2|0,0:0|3:0,0:0:0:0:
169,37,28167,2,0,L|291:39,1,100,2|0,0:0|0:0,0:0:0:0:
324,17,28719,2,0,L|386:16,1,50,0|2,0:0|0:0,0:0:0:0:
489,84,29271,1,4,0:0:0:0:
489,84,29455,1,0,1:0:0:0:
326,162,29823,6,2,L|193:159,2,120,4|0|2,0:1|0:1|0:1,0:1:0:0:
476,294,31480,2,2,P|439:305|390:292,1,80,2|0,0:1|0:2,0:0:0:0:
345,279,32032,2,0,L|295:278,1,40,2|0,0:1|0:0,0:0:0:0:
252,258,32400,2,0,P|212:248|165:261,1,80,2|4,0:1|0:0,0:0:0:0:
130,296,32952,6,0,L|127:355,2,50,2|0|0,0:0|3:0|0:0,0:0:0:0:
175,256,33504,2,0,P|188:211|176:154,1,100,2|0,0:0|0:0,0:0:0:0:
141,110,34056,2,0,P|128:65|140:8,1,100,2|0,0:0|0:0,0:0:0:0:
197,6,34609,2,0,L|258:6,1,50,0|2,0:0|0:0,0:0:0:0:
359,106,35161,1,4,0:0:0:0:
359,106,35345,2,0,L|250:106,1,100,0|4,1:0|1:0,0:0:0:0:
199,106,35897,6,0,L|147:105,2,50,2|0|0,0:0|3:0|0:0,0:0:0:0:
259,106,36449,2,0,P|276:154|256:205,1,100,2|0,0:0|0:0,0:0:0:0:
237,253,37001,2,0,P|222:299|239:345,1,100,2|0,0:0|0:0,0:0:0:0:
296,363,37553,2,0,L|358:361,1,50,2|0,0:0|0:0,0:0:0:0:
405,256,38106,1,4,0:0:0:0:
405,256,38290,2,0,P|389:211|400:159,1,100,0|4,1:0|0:1,0:0:0:0:
433,112,38842,6,0,L|461:62,2,50,2|0|0,0:0|3:0|0:0,0:0:0:0:
399,160,39394,2,0,P|354:174|296:162,1,100,2|0,0:0|0:0,0:0:0:0:
251,138,39946,2,0,P|198:132|151:150,1,100,2|0,0:0|0:0,0:0:0:0:
114,173,40498,2,0,L|52:176,1,50
105,279,41050,1,4,0:0:0:0:
105,279,41234,1,0,1:0:0:0:
208,217,41602,6,2,L|336:217,2,120,4|0|0,0:1|0:1|0:1,0:1:0:0:
23,255,43259,2,2,P|12:217|30:168,1,80,2|0,0:1|3:0,0:1:0:0:
55,133,43811,1,0,1:0:0:0:
55,133,43995,2,2,L|187:134,1,120,4|0,0:1|0:0,0:0:0:0:
231,135,44731,5,2,0:0:0:0:
231,135,44915,2,0,L|300:135,2,59.9999981689454,2|2|0,0:0|0:0|0:0,0:0:0:0:
184,168,45836,2,0,L|124:168,1,59.9999981689454,2|0,0:0|0:0,0:0:0:0:
76,200,46388,2,0,L|35:200,1,29.9999990844727,2|0,0:0|0:0,0:0:0:0:
160,267,46940,2,0,L|157:296,2,29.9999990844727,2|2|2,0:0|0:0|0:0,0:0:0:0:
295,200,47676,5,2,0:0:0:0:
295,200,47860,2,0,L|291:263,2,59.9999981689454,2|2|0,0:0|0:0|0:0,0:0:0:0:
327,153,48780,2,0,L|330:93,1,59.9999981689454,2|0,0:0|0:0,0:0:0:0:
363,46,49333,2,0,L|366:7,1,29.9999990844727,2|2,0:0|0:0,0:0:0:0:
448,121,49885,2,0,L|485:116,2,29.9999990844727,2|2|2,0:0|0:0|0:0,0:0:0:0:
376,226,50621,5,2,0:0:0:0:
376,226,50805,2,0,L|443:221,2,59.9999981689454,2|2|0,0:0|0:0|0:0,0:0:0:0:
321,207,51725,2,0,L|261:211,1,59.9999981689454,2|0,0:0|0:0,0:0:0:0:
206,194,52277,2,0,L|165:196,1,29.9999990844727,2|0,0:0|0:0,0:0:0:0:
142,288,52829,2,0,L|143:323,2,29.9999990844727,2|2|2,0:0|0:0|0:0,0:0:0:0:
65,202,53566,5,2,0:0:0:0:
65,202,53750,2,0,L|61:136,2,59.9999981689454,2|2|0,0:0|0:0|0:0,0:0:0:0:
102,244,54670,2,0,P|132:247|165:235,1,59.9999981689454,2|0,0:0|0:0,0:0:0:0:
209,210,55222,1,0,0:0:0:0:
209,210,55406,2,0,P|253:197|300:214,1,89.9999972534181,2|2,0:0|0:0,0:0:0:0:
432,176,56510,5,0,0:0:0:0:
432,176,56695,2,0,P|433:151|426:121,2,50,2|2|0,0:0|0:0|0:0,0:0:0:0:
418,229,57615,1,2,0:0:0:0:
293,209,57983,5,0,0:0:0:0:
293,209,58168,2,0,P|290:237|299:273,2,64.9999970245363,2|2|0,0:0|0:0|0:0,0:0:0:0:
308,152,59088,1,2,0:0:0:0:
185,96,59455,5,0,0:0:0:0:
185,96,59640,2,0,P|188:124|169:174,2,80,2|2|0,0:0|0:0|0:0,0:0:0:0:
162,44,60560,1,2,0:0:0:0:
63,131,60928,5,0,0:0:0:0:
63,131,61112,2,0,P|50:165|59:216,1,80,2|2,0:0|0:0,0:0:0:0:
160,253,61848,1,2,0:0:0:0:
250,174,62216,6,0,L|249:305,1,119.999996337891,0|0,1:0|1:0,0:0:0:0:
275,336,62768,2,0,P|340:357|407:321,1,119.999996337891,0|0,1:0|3:0,0:0:0:0:
427,296,63320,2,0,L|427:161,1,119.999996337891,0|0,1:0|3:0,0:0:0:0:
426,116,63872,1,0,1:0:0:0:
313,39,64241,1,0,3:0:0:0:
313,39,64425,2,0,L|316:99,1,59.9999981689454,4|0,0:1|3:0,0:0:0:0:
287,151,64793,1,4,0:1:0:0:
198,70,65161,6,0,P|156:51|86:68,1,119.999996337891,0|0,1:2|1:0,0:0:0:0:
40,105,65713,1,0,1:0:0:0:
147,158,66081,1,0,3:0:0:0:
147,158,66265,2,0,L|151:279,1,119.999996337891,0|0,1:0|0:0,0:0:0:0:
115,326,66817,1,0,1:0:0:0:
231,356,67185,1,0,3:0:0:0:
231,356,67369,2,0,L|304:355,1,59.9999981689454,4|0,0:1|3:0,0:0:0:0:
343,325,67737,1,4,0:1:0:0:
259,238,68106,6,0,B|217:176|291:123|242:66,1,179.999994506836,2|2,1:2|1:2,0:0:0:0:
134,118,69026,1,2,1:2:0:0:
134,118,69210,2,0,P|114:172|140:252,1,119.999996337891,0|0,1:0|0:0,0:0:0:0:
154,284,69762,1,0,1:0:0:0:
283,285,70130,1,0,1:0:0:0:
283,285,70314,2,0,P|295:227|275:171,1,119.999996337891,0|4,1:0|0:1,0:0:0:0:
176,103,71050,6,0,L|109:107,2,59.9999981689454,2|0|0,1:2|1:0|1:0,0:0:0:0:
223,66,71602,2,0,L|353:62,1,119.999996337891,2|2,1:2|1:2,0:0:0:0:
403,60,72155,1,0,1:0:0:0:
407,307,72707,2,0,P|426:255|400:188,1,119.999996337891,2|2,1:2|1:2,0:0:0:0:
365,151,73259,1,0,1:2:0:0:
291,245,73627,1,2,0:0:0:0:
228,142,73995,6,0,L|89:136,1,119.999996337891,0|0,1:0|1:0,0:0:0:0:
66,179,74547,2,0,P|48:221|69:292,1,119.999996337891,0|0,1:0|3:0,0:0:0:0:
112,329,75099,2,0,L|231:334,1,119.999996337891,0|2,1:0|0:0,0:0:0:0:
291,339,75652,1,0,1:0:0:0:
241,229,76020,1,0,3:0:0:0:
241,229,76204,2,0,L|165:226,1,59.9999981689454,4|0,0:1|3:0,0:0:0:0:
130,193,76572,1,4,0:1:0:0:
223,117,76940,6,0,L|361:125,1,119.999996337891,0|0,1:2|1:0,0:0:0:0:
387,163,77492,2,0,P|409:204|384:288,1,119.999996337891,0|0,1:0|3:0,0:0:0:0:
344,304,78044,2,0,L|224:297,1,119.999996337891,0|0,1:0|0:0,0:0:0:0:
164,297,78596,1,0,1:0:0:0:
92,200,78964,1,0,3:0:0:0:
92,200,79149,2,0,L|211:206,1,119.999996337891,4|4,0:1|0:1,0:0:0:0:
303,129,79885,6,0,L|302:65,2,59.9999981689454,2|0|0,1:2|1:0|1:0,0:0:0:0:
338,177,80437,2,0,P|377:192|457:171,1,119.999996337891,2|2,1:2|1:2,0:0:0:0:
488,128,80989,1,0,1:0:0:0:
287,310,81541,2,0,P|236:294|159:325,1,119.999996337891,0|0,1:0|1:0,0:0:0:0:
125,347,82093,1,0,1:0:0:0:
34,268,82461,1,4,0:1:0:0:
102,169,82829,6,0,L|95:105,2,59.9999981689454,2|0|0,1:2|1:0|1:0,0:0:0:0:
145,211,83382,2,0,P|191:216|257:168,1,119.999996337891,2|2,1:2|1:2,0:0:0:0:
277,123,83934,1,0,1:0:0:0:
448,338,84486,2,0,L|453:210,1,119.999996337891,2|2,1:2|1:2,0:0:0:0:
422,166,85038,2,0,L|425:95,2,59.9999981689454,0|0|2,1:2|3:0|0:0,0:0:0:0:
315,265,85774,6,0,L|262:269,1,50,4|0,0:0|0:0,0:0:0:0:
216,256,86142,2,0,B|152:259|152:259|112:283,2,100,0|0|0,0:0|0:0|0:0,0:0:0:0:
275,175,87247,2,0,P|287:127|265:74,1,100,0|0,0:0|0:0,0:0:0:0:
170,80,87983,2,0,P|158:128|180:181,1,100,0|0,0:0|0:0,0:0:0:0:
275,175,88719,5,0,0:0:0:0:
374,166,89087,2,0,B|438:169|438:169|478:193,2,100,0|0|0,0:0|0:0|0:0,0:0:0:0:
310,88,90191,2,0,P|285:74|217:82,1,100,0|0,0:0|0:0,0:0:0:0:
130,134,90928,2,0,P|84:151|36:139,1,100,0|2,0:0|0:2,0:0:0:0:
80,49,91664,5,0,0:0:0:0:
80,49,92032,2,0,L|195:46,2,100,0|0|0,0:0|0:0|0:0,0:0:0:0:
24,131,93136,2,0,P|9:183|42:233,1,100,0|0,0:0|0:0,0:0:0:0:
87,302,93872,1,0,0:0:0:0:
87,302,94241,1,0,0:0:0:0:
185,320,94609,6,0,L|290:325,1,100,0|0,0:0|0:0,0:0:0:0:
283,224,95345,2,0,L|388:229,1,100,0|0,0:0|0:0,0:0:0:0:
358,131,96081,2,0,B|422:134|422:134|462:115,1,100,0|0,0:0|0:0,0:0:0:0:
394,38,96817,1,0,0:0:0:0:
394,38,97185,1,0,1:0:0:0:
294,33,97553,6,0,L|234:32,1,50,2|0,1:2|1:0,0:0:0:0:
