osu file format v14

[General]
AudioFilename: audio.mp3
AudioLeadIn: 0
PreviewTime: 44731
Countdown: 0
SampleSet: Soft
StackLeniency: 0.7
Mode: 0
LetterboxInBreaks: 0
WidescreenStoryboard: 0

[Editor]
DistanceSpacing: 1.4
BeatDivisor: 4
GridSize: 32
TimelineZoom: 3.799998

[Metadata]
Title:sorairo concerto
TitleUnicode:空色コンチェルト
Artist:Qrispy Joybox
ArtistUnicode:Qrispy Joybox
Creator:MrSergio
Version:Hard
Source:REFLEC BEAT plus
Tags:limelight konami music pack 25 peaceGiant
BeatmapID:1157026
BeatmapSetID:546133

[Difficulty]
HPDrainRate:5
CircleSize:4
OverallDifficulty:6
ApproachRate:7.2
SliderMultiplier:1.2
SliderTickRate:1

[Events]
//Background and Video events
0,0,"forest.jpg",0,0
//Break Periods
//Storyboard Layer 0 (Background)
//Storyboard Layer 1 (Fail)
//Storyboard Layer 2 (Pass)
//Storyboard Layer 3 (Foreground)
//Storyboard Sound Samples

[TimingPoints]
376,368.098159509202,4,2,1,60,1,0
376,-125,4,2,1,60,0,0
5897,-100,4,2,1,60,0,0
6265,-100,4,2,1,60,0,0
29823,-125,4,2,1,60,0,0
32768,-100,4,2,1,60,0,0
41602,-125,4,2,1,60,0,0
44547,-166.666666666667,4,2,1,45,0,0
46940,-100,4,2,4,45,0,0
47676,-166.666666666667,4,2,1,45,0,0
49885,-100,4,2,4,45,0,0
50621,-166.666666666667,4,2,1,45,0,0
52829,-100,4,2,4,45,0,0
53566,-166.666666666667,4,2,1,45,0,0
55958,-200,4,2,1,25,0,0
56510,-200,4,2,1,20,0,0
57983,-153.846153846154,4,2,1,25,0,0
59455,-125,4,2,1,25,0,0
61848,-125,4,2,1,55,0,0
62216,-83.3333333333333,4,2,1,70,0,1
85682,-83.3333333333333,4,2,1,5,0,1
85774,-100,4,1,1,45,0,0
97553,-100,4,1,1,55,0,0

[Colours]
Combo1 : 65,235,120
Combo2 : 89,238,198
Combo3 : 74,208,232
Combo4 : 95,106,214

[HitObjects]
322,59,376,6,0,L|313:169,1,96,0|0,0:0|0:0,0:0:0:0:
303,259,1112,1,2,0:0:0:0:
294,364,1480,1,2,0:0:0:0:
294,364,1848,5,2,0:0:0:0:
203,314,2216,1,0,0:0:0:0:
94,309,2584,1,0,0:0:0:0:
4,368,2952,1,2,0:0:0:0:
4,368,3320,6,0,L|7:305,1,48,2|0,0:0|0:0,0:0:0:0:
78,277,3688,2,0,L|81:214,1,48,2|0,0:0|0:0,0:0:0:0:
152,186,4056,1,0,0:0:0:0:
20,103,4425,1,2,0:0:0:0:
180,25,4793,5,0,0:0:0:0:
180,25,5161,1,0,0:0:0:0:
221,121,5529,1,2,0:0:0:0:
54,325,6265,6,0,P|91:317|117:325,1,60,0|0,1:0|3:0,0:0:0:0:
188,356,6633,2,0,L|231:359,3,30,0|0|0|0,1:0|1:0|1:0|0:0,0:0:0:0:
257,344,7001,2,0,L|265:269,1,60,0|0,3:0|3:0,0:0:0:0:
273,199,7369,1,0,1:0:0:0:
273,199,7553,5,0,0:0:0:0:
486,315,7922,1,0,1:0:0:0:
486,315,8290,1,0,3:0:0:0:
423,257,8474,2,0,L|367:203,1,60,4|0,0:1|3:0,0:0:0:0:
470,188,8842,1,4,0:1:0:0:
470,188,9026,2,0,L|449:164,1,30,2|2,0:0|0:0,0:0:0:0:
454,123,9210,6,0,L|330:141,1,120,2|0,1:2|1:0,0:0:0:0:
343,44,9762,2,0,L|232:103,1,120,0|0,1:0|3:0,0:0:0:0:
206,11,10314,2,0,L|122:104,1,120,0|0,1:0|0:0,0:0:0:0:
66,21,10866,5,0,1:0:0:0:
66,21,11234,1,0,3:0:0:0:
25,103,11418,2,0,L|-4:166,1,60,4|0,0:1|3:0,0:0:0:0:
79,185,11787,1,4,0:1:0:0:
79,185,11971,2,0,L|62:223,1,30,2|2,0:2|0:2,0:0:0:0:
38,243,12155,6,0,L|38:319,2,60,2|0|0,1:2|1:0|1:0,0:0:0:0:
130,271,12707,1,2,1:2:0:0:
130,271,13075,1,2,1:2:0:0:
238,228,13259,1,0,1:0:0:0:
238,228,13811,6,0,L|235:96,1,120,0|0,1:0|1:0,0:0:0:0:
233,24,14363,1,0,1:0:0:0:
233,24,14731,2,0,L|264:17,4,20
289,35,15099,6,0,L|362:43,2,60,2|0|0,1:2|1:0|1:0,0:0:0:0:
320,128,15652,1,2,1:2:0:0:
320,128,16020,1,2,1:2:0:0:
204,174,16204,2,0,L|172:170,6,20,0|0|0|0|0|0|0,1:0|0:0|0:0|0:0|0:0|0:0|0:0,0:0:0:0:
289,230,16756,5,2,0:0:0:0:
289,230,17124,1,0,0:0:0:0:
404,187,17308,2,0,L|404:115,1,60,0|0,1:2|3:0,0:0:0:0:
354,59,17676,2,0,L|353:14,3,30,2|2|2|2,0:0|0:0|0:0|0:0,0:0:0:0:
326,71,18044,6,0,L|183:83,1,120,0|0,1:0|1:0,0:0:0:0:
162,172,18596,2,0,L|282:162,1,120,0|0,1:0|3:0,0:0:0:0:
238,256,19149,2,0,L|95:268,1,120,0|0,1:0|0:0,0:0:0:0:
74,357,19701,2,0,L|194:347,1,120,0|0,1:0|3:0,0:0:0:0:
238,256,20253,1,4,0:1:0:0:
328,365,20437,1,4,0:1:0:0:
328,365,20989,5,4,1:0:0:0:
302,285,21173,1,2,0:0:0:0:
302,285,21357,2,0,L|304:207,1,60,0|0,3:0|0:1,0:0:0:0:
347,153,21725,1,2,0:0:0:0:
347,153,21909,2,0,L|345:75,1,60,0|0,0:0|3:0,0:0:0:0:
281,39,22277,6,0,L|149:50,1,120,2|0,0:0|0:0,0:0:0:0:
83,18,22829,1,0,0:0:0:0:
7,102,23014,1,2,0:0:0:0:
243,141,23382,5,4,0:0:0:0:
243,141,23566,1,0,1:2:0:0:
54,363,23934,5,4,1:0:0:0:
80,283,24118,1,2,0:0:0:0:
80,283,24302,2,0,L|78:205,1,60,0|0,3:0|0:0,0:0:0:0:
35,151,24670,1,2,0:0:0:0:
35,151,24854,2,0,L|37:73,1,60,0|0,0:0|3:0,0:0:0:0:
101,37,25222,6,0,L|233:48,1,120,2|0,0:0|0:0,0:0:0:0:
268,115,25774,1,0,3:0:0:0:
390,65,25959,1,2,0:0:0:0:
221,222,26327,5,4,0:0:0:0:
221,222,26511,1,0,1:0:0:0:
445,359,26879,5,4,1:0:0:0:
419,279,27063,1,2,0:0:0:0:
419,279,27247,2,0,L|421:201,1,60,0|0,3:0|0:0,0:0:0:0:
464,147,27615,1,2,0:0:0:0:
464,147,27799,2,0,L|462:69,1,60,0|0,0:0|3:0,0:0:0:0:
398,33,28167,6,0,L|266:44,1,120,2|0,0:0|0:0,0:0:0:0:
200,12,28719,1,0,0:0:0:0:
124,96,28904,1,2,0:0:0:0:
360,135,29272,5,4,0:0:0:0:
360,135,29456,1,0,1:0:0:0:
138,328,29823,6,2,L|132:233,1,96,4|0,0:1|0:1,0:1:0:0:
220,173,30375,2,2,L|214:268,1,96,0|0,0:1|0:1,0:1:0:0:
303,327,30928,2,2,L|297:232,1,96,0|0,0:1|0:1,0:1:0:0:
384,276,31480,2,2,P|432:286|484:256,1,96,0|0,0:2|0:2,0:1:0:0:
422,201,32032,1,2,0:1:0:0:
475,132,32216,1,0,0:0:0:0:
420,65,32400,2,2,L|424:42,4,16,2|0|0|0|0,0:1|0:0|0:0|0:0|0:0,0:1:0:0:
391,90,32768,5,4,0:0:0:0:
320,23,32952,1,2,0:0:0:0:
320,23,33136,2,0,P|316:56|287:88,1,60,0|0,3:0|0:0,0:0:0:0:
245,155,33504,1,2,0:0:0:0:
200,83,33688,1,0,0:0:0:0:
154,12,33872,1,0,0:0:0:0:
91,73,34056,6,0,P|144:99|200:82,1,120,2|0,0:0|0:0,0:0:0:0:
262,26,34609,1,0,0:0:0:0:
377,81,34793,1,2,0:0:0:0:
225,196,35161,5,4,0:0:0:0:
225,196,35345,1,0,1:0:0:0:
457,256,35713,5,4,1:0:0:0:
386,323,35897,1,2,0:0:0:0:
386,323,36081,2,0,P|382:290|353:258,1,60,0|0,3:0|0:0,0:0:0:0:
311,191,36449,1,2,0:0:0:0:
266,263,36633,1,0,0:0:0:0:
220,334,36817,1,0,0:0:0:0:
157,277,37001,6,0,P|214:248|268:264,1,120,2|0,0:0|0:0,0:0:0:0:
378,329,37554,1,2,0:0:0:0:
448,268,37738,1,0,0:0:0:0:
263,155,38106,5,4,0:0:0:0:
263,155,38290,1,0,1:0:0:0:
9,295,38658,5,4,0:1:0:0:
80,362,38842,1,2,0:0:0:0:
80,362,39026,2,0,P|84:329|113:297,1,60,0|0,3:0|0:0,0:0:0:0:
155,230,39394,1,2,0:0:0:0:
200,302,39578,1,0,0:0:0:0:
246,373,39762,1,0,0:0:0:0:
308,314,39946,6,0,P|255:286|199:302,1,120,2|0,0:0|0:0,0:0:0:0:
138,359,40499,1,0,0:0:0:0:
27,294,40683,1,0,0:0:0:0:
263,155,41050,5,4,0:0:0:0:
263,155,41234,1,0,1:0:0:0:
460,334,41602,6,2,P|465:281|442:235,1,96,4|0,0:1|0:0,0:1:0:0:
381,290,42155,2,2,P|347:248|298:232,1,96,0|0,0:0|0:0,0:1:0:0:
295,325,42707,2,2,P|242:320|196:343,1,96,0|0,0:0|0:0,0:1:0:0:
117,342,43259,2,0,L|121:314,4,16,2|0|0|0|0,0:1|0:0|0:0|0:0|0:0,0:0:0:0:
92,368,43627,5,0,3:0:0:0:
46,290,43811,1,0,1:0:0:0:
46,290,43995,2,2,P|69:258|172:263,1,144,4|0,0:1|0:0,0:0:0:0:
241,307,44731,5,2,0:0:0:0:
241,307,44915,1,2,0:0:0:0:
241,307,45099,1,2,0:0:0:0:
241,307,45283,2,0,L|248:259,1,35.9999989013672,2|0,0:0|0:0,0:0:0:0:
260,189,45652,1,0,0:0:0:0:
323,244,45836,2,0,L|406:243,1,71.9999978027344,2|0,0:0|0:0,0:0:0:0:
468,197,46388,1,2,0:0:0:0:
471,278,46572,1,0,0:0:0:0:
357,167,46940,5,2,0:0:0:0:
362,137,47124,1,2,0:0:0:0:
366,106,47308,1,2,0:0:0:0:
237,251,47676,5,2,0:0:0:0:
237,251,47860,1,2,0:0:0:0:
237,251,48044,1,2,0:0:0:0:
237,251,48228,2,0,L|230:203,1,35.9999989013672,2|0,0:0|0:0,0:0:0:0:
218,133,48597,1,0,0:0:0:0:
155,188,48781,2,0,L|72:187,1,71.9999978027344,2|0,0:0|0:0,0:0:0:0:
7,222,49333,1,2,0:0:0:0:
10,141,49517,1,2,0:0:0:0:
119,273,49885,5,2,0:0:0:0:
124,303,50069,1,2,0:0:0:0:
128,334,50253,1,2,0:0:0:0:
272,224,50621,5,2,0:0:0:0:
272,224,50805,1,2,0:0:0:0:
272,224,50989,1,2,0:0:0:0:
272,224,51173,2,0,L|279:176,1,35.9999989013672,2|0,0:0|0:0,0:0:0:0:
291,106,51542,1,0,0:0:0:0:
354,161,51726,2,0,L|437:160,1,71.9999978027344,2|0,0:0|0:0,0:0:0:0:
499,114,52278,1,2,0:0:0:0:
502,195,52462,1,0,0:0:0:0:
388,84,52830,5,2,0:0:0:0:
393,54,53014,1,2,0:0:0:0:
397,23,53198,1,2,0:0:0:0:
245,176,53566,5,2,0:0:0:0:
245,176,53750,1,2,0:0:0:0:
245,176,53934,1,2,0:0:0:0:
245,176,54118,2,0,P|279:183|327:164,1,71.9999978027344,2|0,0:0|0:0,0:0:0:0:
271,96,54670,2,0,P|237:89|189:108,1,71.9999978027344,2|0,0:0|0:0,0:0:0:0:
152,165,55222,1,0,0:0:0:0:
127,60,55406,1,2,0:0:0:0:
55,230,55958,6,0,L|27:230,4,15,2|0|0|0|2,0:0|0:0|0:0|0:0|0:0,0:0:0:0:
155,301,56510,5,0,0:0:0:0:
155,301,56695,2,0,L|158:263,1,30,2|0,0:0|0:0,0:0:0:0:
243,273,57063,2,0,L|240:235,1,30,2|2,0:0|0:0,0:0:0:0:
321,240,57431,1,0,0:0:0:0:
296,163,57615,1,2,0:0:0:0:
454,143,57983,5,0,0:0:0:0:
454,143,58168,2,0,L|450:101,1,38.9999982147218,2|0,0:0|0:0,0:0:0:0:
366,115,58536,2,0,L|368:68,1,38.9999982147218,2|2,0:0|0:0,0:0:0:0:
288,82,58904,1,0,0:0:0:0:
313,5,59088,1,2,0:0:0:0:
66,211,59455,5,0,0:0:0:0:
66,211,59640,2,0,L|68:161,1,48,2|0,0:0|0:0,0:0:0:0:
154,183,60008,2,0,L|148:127,1,48,2|2,0:0|0:0,0:0:0:0:
232,150,60376,1,0,0:0:0:0:
207,73,60560,1,2,0:0:0:0:
400,164,60928,5,0,0:0:0:0:
393,209,61112,1,2,0:0:0:0:
386,254,61296,1,2,0:0:0:0:
379,299,61480,1,2,0:0:0:0:
372,344,61664,1,2,0:0:0:0:
301,286,61848,2,0,L|294:249,3,24,2|2|2|2,0:0|0:0|0:0|0:0,0:0:0:0:
291,309,62216,6,0,L|207:316,1,71.9999978027344,0|0,1:0|3:0,0:0:0:0:
129,287,62584,2,0,L|73:290,3,35.9999989013672,0|0|0|0,1:0|1:0|1:0|0:0,0:0:0:0:
153,267,62952,1,0,3:0:0:0:
19,136,63320,1,0,1:0:0:0:
184,47,63688,6,0,L|268:54,1,71.9999978027344,0|0,3:0|1:0,0:0:0:0:
305,132,64056,2,0,L|221:139,1,71.9999978027344,0|0,0:0|3:0,0:0:0:0:
167,204,64425,2,0,P|161:246|180:283,1,71.9999978027344,4|0,0:1|3:0,0:0:0:0:
259,303,64793,2,0,P|265:261|246:224,1,71.9999978027344,4|2,0:1|0:0,0:0:0:0:
171,272,65161,6,0,L|10:280,1,143.999995605469,0|0,1:2|1:0,0:0:0:0:
63,192,65713,2,0,B|84:158|84:158|70:42,1,143.999995605469,0|0,1:0|3:0,0:0:0:0:
162,76,66265,2,0,L|172:155,2,71.9999978027344,0|0|0,1:0|3:0|0:0,0:0:0:0:
250,106,66817,5,0,1:0:0:0:
250,106,67185,1,0,3:0:0:0:
327,52,67369,1,4,0:1:0:0:
327,52,67553,1,0,3:0:0:0:
420,50,67737,2,0,L|472:50,3,35.9999989013672,2|2|2|2,0:0|0:0|0:2|0:2,0:0:0:0:
403,80,68106,6,0,L|407:172,2,71.9999978027344,2|0|0,1:2|1:0|1:0,0:0:0:0:
320,123,68658,2,0,L|159:121,1,143.999995605469,2|2,1:2|1:2,0:0:0:0:
82,119,69210,1,0,1:0:0:0:
345,215,69762,5,0,1:0:0:0:
345,215,70130,1,0,1:0:0:0:
266,265,70314,1,0,1:0:0:0:
185,313,70498,1,2,0:0:0:0:
185,313,70682,2,0,L|182:219,1,71.9999978027344,4|0,0:1|0:0,0:0:0:0:
151,152,71050,6,0,L|149:74,2,71.9999978027344,2|0|0,1:2|1:0|1:0,0:0:0:0:
235,111,71602,2,0,L|395:108,1,143.999995605469,2|2,1:2|1:2,0:0:0:0:
473,109,72155,1,0,1:0:0:0:
218,228,72707,5,2,1:2:0:0:
218,228,73075,1,2,1:2:0:0:
302,267,73259,2,0,L|302:171,1,71.9999978027344,0|0,1:2|3:0,0:0:0:0:
218,228,73627,2,0,L|163:226,3,35.9999989013672,2|2|2|2,0:0|0:0|0:0|0:0,0:0:0:0:
154,247,73995,6,0,L|62:245,1,71.9999978027344,0|0,1:0|3:0,0:0:0:0:
39,162,74363,2,0,L|42:116,3,35.9999989013672,0|0|0|0,1:0|1:0|1:0|1:0,0:0:0:0:
18,187,74731,1,0,1:0:0:0:
189,110,75099,1,0,1:0:0:0:
361,183,75468,6,0,L|364:96,1,71.9999978027344,2|0,0:0|1:0,0:0:0:0:
449,231,75836,2,0,L|452:144,1,71.9999978027344,2|0,0:0|3:0,0:0:0:0:
361,183,76204,2,0,P|318:178|282:193,1,71.9999978027344,4|0,0:1|3:0,0:0:0:0:
257,274,76572,2,0,P|300:279|336:264,1,71.9999978027344,4|2,0:1|0:0,0:0:0:0:
291,187,76940,6,0,L|279:39,1,143.999995605469,0|0,1:2|1:0,0:0:0:0:
198,91,77492,2,0,B|163:107|163:107|47:103,1,143.999995605469,0|0,1:0|3:0,0:0:0:0:
30,193,78044,2,0,L|130:198,2,71.9999978027344,0|0|0,1:0|3:0|0:0,0:0:0:0:
63,280,78596,5,0,1:0:0:0:
63,280,78964,1,0,3:0:0:0:
142,329,79149,1,4,0:1:0:0:
142,329,79333,1,0,3:0:0:0:
235,323,79517,1,4,0:1:0:0:
125,139,79885,6,0,L|39:139,2,71.9999978027344,2|0|0,1:2|1:0|1:0,0:0:0:0:
170,213,80437,1,2,1:2:0:0:
250,44,80805,1,2,1:2:0:0:
250,44,80989,2,0,L|394:44,1,143.999995605469,0|0,1:0|0:0,0:0:0:0:
487,42,81541,5,0,1:0:0:0:
487,42,81909,1,0,1:0:0:0:
450,128,82093,1,0,1:0:0:0:
413,214,82277,1,2,0:0:0:0:
413,214,82461,2,0,L|318:217,1,71.9999978027344,4|0,0:1|3:0,0:0:0:0:
252,185,82829,6,0,L|160:188,2,71.9999978027344,2|0|0,1:2|1:0|1:0,0:0:0:0:
341,216,83382,2,0,P|343:163|278:93,1,143.999995605469,2|2,1:2|1:2,0:0:0:0:
193,96,83934,1,0,1:0:0:0:
25,321,84486,5,2,1:2:0:0:
25,321,84854,1,2,1:2:0:0:
62,235,85038,2,0,L|56:152,2,71.9999978027344,0|0|2,1:2|3:0|0:0,0:0:0:0:
266,341,85774,5,4,0:0:0:0:
266,341,85958,1,0,0:0:0:0:
221,269,86142,2,0,L|176:270,3,30,0|0|0|0,0:0|0:0|0:0|0:0,0:0:0:0:
249,250,86510,2,0,L|244:168,1,60,0|0,0:0|0:0,0:0:0:0:
271,109,86879,2,0,L|301:105,4,20,0|0|0|0|0,0:0|0:0|0:0|0:0|0:0,0:0:0:0:
239,94,87247,6,0,L|234:12,1,60,0|0,0:0|0:0,0:0:0:0:
134,59,87615,2,0,L|96:52,3,30,0|0|0|0,0:0|0:0|0:0|0:0,0:0:0:0:
153,91,87983,1,0,0:0:0:0:
56,202,88351,2,0,L|18:195,3,30,0|0|0|0,0:0|0:0|0:0|0:0,0:0:0:0:
75,234,88719,6,0,L|146:246,1,60,0|0,0:0|0:0,0:0:0:0:
205,299,89087,2,0,L|193:332,3,30,0|0|0|0,0:0|0:0|0:0|0:0,0:0:0:0:
235,272,89455,2,0,L|306:284,1,60,0|0,0:0|0:0,0:0:0:0:
405,302,89823,2,0,L|431:305,4,20,0|0|0|0|0,0:0|0:0|0:0|0:0|0:0,0:0:0:0:
382,272,90191,6,0,L|394:191,1,60,0|0,0:0|0:0,0:0:0:0:
278,200,90560,2,0,L|239:200,3,30,0|0|0|0,0:0|0:0|0:0|0:0,0:0:0:0:
294,173,90928,2,0,L|282:92,1,60,0|0,0:0|0:0,0:0:0:0:
273,30,91296,1,2,0:2:0:0:
109,77,91664,5,0,0:0:0:0:
109,77,91848,1,0,0:0:0:0:
40,139,92032,2,0,L|-2:140,3,30,0|0|0|0,0:0|0:0|0:0|0:0,0:0:0:0:
68,169,92400,2,0,L|127:166,1,60,0|0,0:0|0:0,0:0:0:0:
237,221,92768,2,0,L|273:221,4,20,0|0|0|0|0,0:0|0:0|0:0|0:0|0:0,0:0:0:0:
209,251,93136,6,0,L|149:248,1,60,0|0,0:0|0:0,0:0:0:0:
70,305,93504,2,0,L|29:309,3,30,0|0|0|0,0:0|0:0|0:0|0:0,0:0:0:0:
108,321,93872,1,0,0:0:0:0:
225,161,94241,2,0,L|266:165,3,30,0|0|0|0,0:0|0:0|0:0|0:0,0:0:0:0:
187,177,94609,6,0,L|103:165,1,60,0|0,0:0|0:0,0:0:0:0:
17,179,94977,2,0,L|0:141,3,30,0|0|0|0,0:0|0:0|0:0|0:0,0:0:0:0:
50,204,95345,2,0,L|81:282,1,60,0|0,0:0|0:0,0:0:0:0:
139,353,95713,2,0,L|116:382,4,20,0|0|0|0|0,0:0|0:0|0:0|0:0|0:0,0:0:0:0:
144,311,96081,6,0,L|196:244,1,60,0|0,0:0|0:0,0:0:0:0:
315,258,96449,2,0,L|338:228,3,30,0|0|0|0,0:0|0:0|0:0|0:0,0:0:0:0:
284,265,96817,2,0,L|246:312,1,60,0|0,0:0|0:0,0:0:0:0:
213,170,97185,2,0,L|213:129,3,30,2|2|2|2,2:0|2:0|2:0|2:0,0:0:0:0:
229,197,97553,5,2,1:2:0:0:
103,151,97737,1,0,1:0:0:0:
