osu file format v14

[General]
AudioFilename: Qrispy Joybox - [Reflec Beat limelight ORIGINAL SOUNDTRACK].mp3
AudioLeadIn: 2000
PreviewTime: 61762
Countdown: 0
SampleSet: Soft
StackLeniency: 0.7
Mode: 0
LetterboxInBreaks: 0
WidescreenStoryboard: 1

[Editor]
Bookmarks: 31960,56254,65273,74107,77052,88095,94721
DistanceSpacing: 1
BeatDivisor: 4
GridSize: 4
TimelineZoom: 2

[Metadata]
Title:Sorairo concerto
TitleUnicode:空色コンチェルト
Artist:Qrispy Joybox
ArtistUnicode:Qrispy Joybox
Creator:pinataman
Version:Normal
Source:REFLEC BEAT limelight
Tags:Konami rhythm game Tatsuya Iyama Twinkle World plus Jusenkyo
BeatmapID:1071154
BeatmapSetID:377582

[Difficulty]
HPDrainRate:3
CircleSize:3
OverallDifficulty:3.5
ApproachRate:5
SliderMultiplier:1.2
SliderTickRate:1

[Events]
//Background and Video events
0,0,"background.jpg",0,0
//Break Periods
//Storyboard Layer 0 (Background)
//Storyboard Layer 1 (Fail)
//Storyboard Layer 2 (Pass)
//Storyboard Layer 3 (Foreground)
//Storyboard Sound Samples

[TimingPoints]
376,368.098159509202,4,2,1,60,1,0
5897,-100,4,1,1,60,0,0
43627,-100,4,1,1,40,0,0
44363,-100,4,1,1,25,0,0
44731,-100,4,1,1,45,0,0
46940,-100,4,1,1,40,0,0
47676,-100,4,1,1,45,0,0
49885,-100,4,1,1,40,0,0
50621,-100,4,1,1,45,0,0
52829,-100,4,1,1,40,0,0
53566,-100,4,1,1,50,0,0
56142,-100,4,1,1,40,0,0
56510,-100,4,2,1,35,0,0
57615,-100,4,2,1,45,0,0
59087,-100,4,2,1,55,0,0
60560,-100,4,2,1,65,0,0
61848,-100,4,1,1,65,0,0
62216,-100,4,1,1,70,0,1
85774,-100,4,1,1,70,0,0

[Colours]
Combo1 : 65,235,120
Combo2 : 89,238,198
Combo3 : 74,208,232
Combo4 : 95,106,214

[HitObjects]
278,152,376,5,0,0:0:0:0:
337,44,744,2,0,P|382:83|400:140,2,120,2|2|2,0:0|0:0|0:0,0:0:0:0:
218,44,1848,2,0,P|173:83|155:140,1,120,2|2,0:0|0:0,0:0:0:0:
138,260,2584,2,0,P|120:315|75:354,1,120,2|2,0:0|0:0,0:0:0:0:
15,248,3320,5,2,0:0:0:0:
88,151,3688,2,0,P|145:138|201:158,1,120,2|2,0:0|0:0,0:0:0:0:
257,264,4425,1,2,0:0:0:0:
321,162,4793,2,0,L|383:54,2,120,2|2|2,0:0|0:0|0:0,0:0:0:0:
257,264,5897,2,0,P|223:275|193:275,1,60,2|0,0:0|0:0,0:0:0:0:
144,252,6265,6,0,L|168:116,1,120,4|0,0:0|0:0,0:0:0:0:
108,116,6817,2,0,L|196:10,1,120,8|0,0:0|0:0,0:0:0:0:
244,40,7369,2,0,P|300:57|357:40,1,120,8|0,0:0|0:0,0:0:0:0:
415,24,7922,2,0,L|493:116,1,120,8|0,0:0|0:0,0:0:0:0:
506,174,8474,1,12,0:0:0:0:
429,266,8842,1,12,0:0:0:0:
326,206,9210,6,0,P|268:219|227:262,1,120,8|0,0:0|0:0,0:0:0:0:
183,302,9762,2,0,L|159:166,1,120,8|0,0:0|0:0,0:0:0:0:
144,128,10314,2,0,P|122:73|64:61,1,120,8|0,0:0|0:0,0:0:0:0:
26,102,10866,2,0,P|47:156|105:168,1,120,8|0,0:0|0:0,0:0:0:0:
162,183,11419,1,12,0:0:0:0:
239,91,11787,1,12,0:0:0:0:
280,203,12155,6,0,P|298:222|329:231,2,60,2|2|2,0:0|0:0|0:0,0:0:0:0:
226,230,12707,2,0,P|231:287|268:334,1,120,2|0,0:0|0:0,0:0:0:0:
327,349,13259,2,0,P|385:338|427:296,1,120,2|0,0:0|0:0,0:0:0:0:
456,244,13811,1,2,0:0:0:0:
442,124,14179,1,2,0:0:0:0:
392,89,14363,2,0,P|334:74|277:95,1,120,2|0,0:0|0:0,0:0:0:0:
232,203,15099,6,0,P|213:222|182:231,2,60,2|2|2,0:0|0:0|0:0,0:0:0:0:
286,230,15651,2,0,P|280:287|243:334,1,120,2|0,0:0|0:0,0:0:0:0:
184,349,16204,2,0,P|126:338|84:296,1,120,2|0,0:0|0:0,0:0:0:0:
56,244,16756,1,2,0:0:0:0:
159,183,17124,1,2,0:0:0:0:
201,140,17308,2,0,P|213:81|191:25,1,120,4|0,0:0|0:0,0:0:0:0:
71,22,18044,6,0,P|21:83|28:181,1,180,4|8,0:0|0:0,0:0:0:0:
152,309,19149,2,0,B|198:312|236:285|236:285|274:258|321:262,1,180,8|8,0:0|0:0,0:0:0:0:
505,258,20253,1,12,0:0:0:0:
505,258,20437,1,12,0:0:0:0:
409,106,20989,5,4,0:0:0:0:
356,77,21173,2,0,L|326:6,2,60,2|2|2,0:0|0:0|0:0,0:0:0:0:
358,136,21725,2,0,P|330:188|278:216,1,120,2|0,0:0|0:0,0:0:0:0:
218,216,22277,1,2,0:0:0:0:
135,128,22645,2,0,P|154:109|196:98,1,60,2|2,0:0|0:0,0:0:0:0:
245,103,23014,1,2,0:0:0:0:
329,188,23382,2,0,L|345:250,1,60,10|10,0:0|0:0,0:0:0:0:
299,357,23934,5,4,0:0:0:0:
239,359,24118,2,0,P|211:371|181:374,2,60,2|2|2,0:0|0:0|0:0,0:0:0:0:
242,299,24670,2,0,P|209:247|154:224,1,120,2|0,0:0|0:0,0:0:0:0:
97,237,25222,1,2,0:0:0:0:
26,140,25590,2,0,P|47:119|54:91,1,60,2|2,0:0|0:0,0:0:0:0:
67,32,25958,1,2,0:0:0:0:
186,44,26326,2,0,L|229:104,1,60,10|10,0:0|0:0,0:0:0:0:
339,113,26879,5,4,0:0:0:0:
387,74,27063,2,0,L|387:14,2,60,2|2|2,0:0|0:0|0:0,0:0:0:0:
432,112,27615,2,0,P|445:167|425:223,1,120,2|0,0:0|0:0,0:0:0:0:
393,277,28167,1,2,0:0:0:0:
287,333,28535,2,0,P|286:295|303:266,1,60,2|2,0:0|0:0,0:0:0:0:
314,218,28903,1,2,0:0:0:0:
271,103,29271,2,0,L|216:79,1,60,10|10,0:0|0:0,0:0:0:0:
113,139,29823,6,0,L|133:257,1,120,6|0,0:0|0:0,0:0:0:0:
81,287,30375,2,0,P|42:241|32:183,1,120,2|0,0:0|0:0,0:0:0:0:
33,122,30928,2,0,P|63:72|119:57,1,120,2|0,0:0|0:0,0:0:0:0:
178,70,31480,1,2,0:0:0:0:
288,115,31848,1,2,0:0:0:0:
314,168,32032,2,0,B|322:231,1,60,2|0,0:0|0:0,0:0:0:0:
308,285,32400,1,2,0:0:0:0:
220,367,32768,5,4,0:0:0:0:
160,358,32952,2,0,P|126:369|89:364,2,60,2|2|2,0:0|0:0|0:0,0:0:0:0:
171,299,33504,2,0,P|168:239|199:188,1,120,2|0,0:0|0:0,0:0:0:0:
254,168,34056,1,2,0:0:0:0:
365,212,34425,2,0,P|399:219|432:204,1,60,2|2,0:0|0:0,0:0:0:0:
477,187,34793,1,2,0:0:0:0:
473,67,35161,2,0,L|443:15,1,60,10|10,0:0|0:0,0:0:0:0:
324,20,35713,5,4,0:0:0:0:
283,64,35897,2,0,P|290:95|306:119,2,60,2|2|2,0:0|0:0|0:0,0:0:0:0:
228,39,36449,2,0,P|168:36|119:67,1,120,2|0,0:0|0:0,0:0:0:0:
79,113,37001,1,2,0:0:0:0:
134,219,37369,2,0,L|122:288,1,60,2|2,0:0|0:0,0:0:0:0:
152,331,37737,1,2,0:0:0:0:
243,253,38106,2,0,P|259:226|265:197,1,60,10|10,0:0|0:0,0:0:0:0:
336,101,38658,5,4,0:0:0:0:
383,138,38842,2,0,P|409:128|433:106,2,60,2|2|2,0:0|0:0|0:0,0:0:0:0:
353,189,39394,2,0,P|348:246|377:298,1,120,2|10,0:0|0:0,0:0:0:0:
416,346,39946,1,2,0:0:0:0:
302,380,40314,2,0,L|217:362,1,60,2|2,0:0|0:0,0:0:0:0:
186,352,40682,2,0,P|173:294|195:239,1,120,2|0,0:0|0:0,0:0:0:0:
248,211,41234,1,10,0:0:0:0:
245,91,41602,6,0,P|188:104|147:147,1,120,6|0,0:0|0:0,0:0:0:0:
91,172,42155,2,0,P|104:115|147:74,1,120,2|0,0:0|0:0,0:0:0:0:
172,18,42707,2,0,P|115:31|74:74,1,120,2|0,0:0|0:0,0:0:0:0:
18,99,43259,2,0,B|-1:150|-5:222|60:252|60:252|125:258|186:283|222:328,1,360,2|0,0:0|2:0,0:0:0:0:
337,362,44731,6,0,P|363:360|392:345,2,60,2|2|2,0:0|0:0|0:0,0:0:0:0:
304,311,45283,2,0,B|290:281|298:250|298:250|307:220|293:192,1,120,2|2,0:0|0:0,0:0:0:0:
269,139,45836,2,0,P|280:94|348:66,1,120,2|2,0:0|0:0,0:0:0:0:
400,82,46388,2,0,L|384:158,1,60,2|2,0:0|0:0,0:0:0:0:
418,255,46940,2,0,L|463:296,2,60,6|4|4,0:2|0:2|0:2,0:0:0:0:
302,225,47676,6,0,L|244:243,2,60,2|2|2,0:0|0:0|0:0,0:0:0:0:
346,184,48228,2,0,P|354:126|328:72,1,120,2|2,0:0|0:0,0:0:0:0:
267,79,48780,2,0,P|210:89|167:51,1,120,2|2,0:0|0:0,0:0:0:0:
116,19,49333,2,0,P|86:33|62:53,1,60,2|2,0:0|0:0,0:0:0:0:
50,169,49885,2,0,P|26:187|0:200,2,60,6|6|4,0:2|0:2|0:2,0:0:0:0:
163,129,50621,6,0,P|184:108|192:79,2,60,2|2|2,0:0|0:0|0:0,0:0:0:0:
135,182,51173,2,0,B|137:214|160:236|160:236|183:258|185:289,1,120,2|2,0:0|0:0,0:0:0:0:
240,303,51725,2,0,B|249:274|277:259|277:259|305:243|315:213,1,120,2|2,0:0|0:0,0:0:0:0:
355,168,52277,2,0,P|361:135|360:104,1,60,2|2,0:0|0:0,0:0:0:0:
241,119,52829,2,0,L|232:177,2,60,6|4|4,0:2|0:2|0:2,0:0:0:0:
148,42,53566,5,2,0:0:0:0:
147,102,53750,2,0,P|138:130|121:155,1,60,2|0,0:0|0:0,0:0:0:0:
94,208,54118,2,0,P|124:261|181:290,1,120,2|0,0:0|0:0,0:0:0:0:
229,265,54670,2,0,P|282:243|342:251,1,120,2|2,0:0|0:0,0:0:0:0:
402,256,55222,1,2,0:0:0:0:
397,196,55406,2,0,B|370:139|314:113|314:113|257:86|231:30,1,240,2|0,0:0|0:0,0:0:0:0:
111,49,56510,6,0,P|76:48|52:40,2,60
132,105,57063,2,0,P|122:138|108:159,2,60
182,136,57615,5,2,0:0:0:0:
226,247,57983,2,0,P|198:268|175:278,2,60
286,247,58535,2,0,P|313:268|336:278,2,60
256,194,59087,5,2,0:0:0:0:
316,90,59455,2,0,P|330:63|351:42,2,60
322,148,60007,2,0,P|340:171|364:188,2,60
267,124,60560,5,2,0:0:0:0:
211,17,60928,1,0,0:0:0:0:
161,50,61112,2,0,P|142:85|139:125,1,60
139,164,61480,2,0,P|110:172|80:172,1,60
34,210,61848,1,2,0:0:0:0:
87,316,62216,6,0,P|107:336|151:349,1,60,2|0,0:0|0:0,0:0:0:0:
195,353,62584,2,0,P|222:344|255:313,1,60,2|0,0:0|0:0,0:0:0:0:
286,283,62952,1,2,0:0:0:0:
258,166,63320,1,2,0:0:0:0:
374,197,63688,2,0,P|416:159|435:89,2,120,2|2|6,0:0|0:0|0:0,0:0:0:0:
269,257,64793,1,6,0:0:0:0:
153,222,65161,5,6,0:0:0:0:
235,135,65529,1,2,0:0:0:0:
235,135,65713,1,2,0:0:0:0:
269,257,66081,1,2,0:0:0:0:
269,257,66265,2,0,P|199:336|112:337,1,180,2|2,0:0|0:0,0:0:0:0:
48,262,67185,1,2,0:0:0:0:
48,262,67369,1,4,0:0:0:0:
14,377,67737,1,4,0:0:0:0:
129,342,68106,6,0,P|139:314|132:269,1,60,10|8,0:0|0:0,0:0:0:0:
136,224,68474,1,10,0:0:0:0:
173,176,68658,2,0,P|222:145|282:146,1,120,10|10,0:0|0:0,0:0:0:0:
312,197,69210,2,0,L|368:7,1,180,10|10,0:0|0:0,0:0:0:0:
482,22,70130,1,10,0:0:0:0:
482,22,70314,1,10,0:0:0:0:
424,127,70682,1,4,0:0:0:0:
362,23,71050,6,0,P|332:21|291:39,1,60,10|8,0:0|0:0,0:0:0:0:
255,66,71418,1,10,0:0:0:0:
206,101,71602,2,0,P|149:119|89:113,1,120,10|10,0:0|0:0,0:0:0:0:
36,85,72155,2,0,L|86:257,1,180,10|10,0:0|0:0,0:0:0:0:
180,341,73074,1,10,0:0:0:0:
180,341,73258,1,10,0:0:0:0:
262,253,73627,2,0,L|244:187,1,60,2|0,0:0|0:0,0:0:0:0:
289,153,73995,6,0,P|296:124|285:80,1,60,6|0,0:0|0:0,0:0:0:0:
247,54,74363,2,0,P|217:54|177:76,1,60,2|0,0:0|0:0,0:0:0:0:
156,116,74731,1,2,0:0:0:0:
134,234,75099,1,2,0:0:0:0:
240,290,75468,2,0,B|253:318|281:331|281:331|309:344|322:372,2,120,2|2|6,0:0|0:0|0:0,0:0:0:0:
239,170,76572,1,4,0:0:0:0:
344,113,76940,5,6,0:0:0:0:
329,236,77308,1,2,0:0:0:0:
329,236,77492,1,2,0:0:0:0:
226,174,77860,1,2,0:0:0:0:
226,174,78044,2,0,P|142:147|58:212,1,180,2|2,0:0|0:0,0:0:0:0:
52,312,78964,1,2,0:0:0:0:
52,312,79149,1,4,0:0:0:0:
155,252,79517,1,4,0:0:0:0:
273,267,79885,6,0,P|264:295|250:322,1,60,10|8,0:0|0:0,0:0:0:0:
207,362,80253,1,10,0:0:0:0:
148,372,80437,2,0,P|91:355|51:311,1,120,10|10,0:0|0:0,0:0:0:0:
39,252,80989,2,0,B|39:206|70:170|70:170|99:134|100:88,1,180,10|10,0:0|0:0,0:0:0:0:
197,16,81909,1,10,0:0:0:0:
197,16,82093,1,10,0:0:0:0:
304,70,82461,1,4,0:0:0:0:
422,49,82829,6,0,P|448:68|462:98,1,60,10|8,0:0|0:0,0:0:0:0:
469,151,83197,1,10,0:0:0:0:
416,180,83382,2,0,P|368:215|332:264,1,120,10|10,0:0|0:0,0:0:0:0:
290,307,83934,2,0,P|203:319|132:268,1,180,10|10,0:0|0:0,0:0:0:0:
142,149,84854,1,10,0:0:0:0:
82,160,85039,2,0,P|55:172|37:196,1,60,14|0,0:0|0:0,0:0:0:0:
14,252,85407,1,2,0:0:0:0:
59,362,85774,5,0,0:0:0:0:
131,267,86142,2,0,P|158:254|187:257,1,60,2|0,0:0|0:0,0:0:0:0:
247,265,86510,2,0,P|276:259|299:241,1,60,2|0,0:0|0:0,0:0:0:0:
312,182,86879,2,0,P|329:157|356:145,1,60,2|0,0:0|0:0,0:0:0:0:
353,85,87247,2,0,L|307:44,2,60,2|0|2,0:0|0:0|0:0,0:0:0:0:
467,121,87983,2,0,L|513:80,2,60,2|0|2,0:0|0:0|0:0,0:0:0:0:
383,206,88719,6,0,P|356:220|327:223,1,60,2|0,0:0|0:0,0:0:0:0:
267,213,89087,2,0,P|241:197|223:173,1,60,2|0,0:0|0:0,0:0:0:0:
170,145,89455,2,0,P|140:148|114:162,1,60,2|0,0:0|0:0,0:0:0:0:
75,209,89823,2,0,P|70:238|77:267,1,60,2|0,0:0|0:0,0:0:0:0:
109,318,90191,1,2,0:0:0:0:
223,353,90560,1,2,0:0:0:0:
262,240,90928,2,0,L|303:127,1,120,2|2,0:0|0:0,0:0:0:0:
343,15,91664,5,2,0:0:0:0:
404,118,92032,2,0,P|418:144|420:173,1,60,2|0,0:0|0:0,0:0:0:0:
411,233,92400,2,0,P|401:261|379:281,1,60,2|0,0:0|0:0,0:0:0:0:
330,313,92768,2,0,P|301:324|272:321,1,60,2|0,0:0|0:0,0:0:0:0:
222,288,93136,2,0,P|208:261|185:243,2,60,2|0|2,0:0|0:0|0:0,0:0:0:0:
115,343,93872,2,0,P|88:356|71:381,2,60,2|0|2,0:0|0:0|0:0,0:0:0:0:
92,224,94609,5,2,0:0:0:0:
206,258,94977,1,2,0:0:0:0:
258,149,95345,1,2,0:0:0:0:
372,183,95713,1,2,0:0:0:0:
321,290,96081,2,0,P|302:313|275:327,1,60,2|0,0:0|0:0,0:0:0:0:
216,336,96449,2,0,P|185:332|161:316,1,60,2|0,0:0|0:0,0:0:0:0:
127,267,96817,2,0,B|111:239|81:228|81:228|51:218|36:191,1,120,2|2,0:0|0:0,0:0:0:0:
54,77,97553,5,6,0:0:0:0:
54,77,97737,1,6,0:0:0:0:
