osu file format v14

[General]
AudioFilename: Qrispy Joybox - [Reflec Beat limelight ORIGINAL SOUNDTRACK].mp3
AudioLeadIn: 2000
PreviewTime: 61762
Countdown: 0
SampleSet: Normal
StackLeniency: 0.7
Mode: 0
LetterboxInBreaks: 0
WidescreenStoryboard: 0

[Editor]
Bookmarks: 31592,56070,59199,68218,79813,81101,89567
DistanceSpacing: 1.2
BeatDivisor: 4
GridSize: 4
TimelineZoom: 2.3

[Metadata]
Title:Sorairo concerto
TitleUnicode:空色コンチェルト
Artist:Qrispy Joybox
ArtistUnicode:Qrispy Joybox
Creator:pinataman
Version:Light Insane
Source:REFLEC BEAT limelight
Tags:Konami rhythm game Tatsuya Iyama Twinkle World plus Jusenkyo
BeatmapID:877797
BeatmapSetID:377582

[Difficulty]
HPDrainRate:5
CircleSize:4
OverallDifficulty:7
ApproachRate:8.3
SliderMultiplier:1.6
SliderTickRate:1

[Events]
//Background and Video events
0,0,"background.jpg",0,0
//Break Periods
//Storyboard Layer 0 (Background)
//Storyboard Layer 1 (Fail)
//Storyboard Layer 2 (Pass)
//Storyboard Layer 3 (Foreground)
//Storyboard Sound Samples

[TimingPoints]
376,368.098159509202,4,2,1,60,1,0
6265,-90.9090909090909,4,1,1,60,0,0
18044,-100,4,1,1,60,0,0
44363,-100,4,1,1,40,0,0
44547,-100,4,1,1,45,0,0
46940,-100,4,1,1,40,0,0
47676,-100,4,1,1,45,0,0
49885,-100,4,1,1,40,0,0
50621,-100,4,1,1,45,0,0
52829,-100,4,1,1,40,0,0
53566,-100,4,1,1,50,0,0
55958,-100,4,1,1,40,0,0
56510,-133.333333333333,4,2,1,35,0,0
57615,-125,4,2,1,45,0,0
59087,-111.111111111111,4,2,1,55,0,0
60560,-100,4,2,1,65,0,0
61848,-86.9565217391304,4,1,1,65,0,0
62216,-86.9565217391304,4,1,1,70,0,1
85774,-86.9565217391304,4,1,1,70,0,0

[Colours]
Combo1 : 65,235,120
Combo2 : 89,238,198
Combo3 : 74,208,232
Combo4 : 95,106,214

[HitObjects]
99,86,376,6,0,L|141:158,1,80
225,226,744,2,0,L|294:186,1,80,2|0,0:0|0:0,0:0:0:0:
185,314,1112,2,0,L|112:356,1,80,2|0,0:0|0:0,0:0:0:0:
279,324,1480,2,0,L|348:284,1,80,2|0,0:0|0:0,0:0:0:0:
399,177,1848,6,0,P|399:136|385:99,1,80,2|0,0:0|0:0,0:0:0:0:
298,59,2216,2,0,P|266:37|243:4,1,80,2|0,0:0|0:0,0:0:0:0:
176,108,2584,2,0,P|162:145|162:185,1,80,2|0,0:0|0:0,0:0:0:0:
254,217,2952,2,0,P|290:233|318:262,1,80,2|0,0:0|0:0,0:0:0:0:
291,370,3320,6,0,P|253:383|213:383,1,80,2|0,0:0|0:0,0:0:0:0:
99,301,3688,2,0,P|136:287|176:287,1,80,2|0,0:0|0:0,0:0:0:0:
230,178,4056,2,0,L|242:98,1,80,2|0,0:0|0:0,0:0:0:0:
111,23,4425,2,0,L|123:102,1,80,2|0,0:0|0:0,0:0:0:0:
146,211,4793,5,2,0:0:0:0:
317,93,5161,1,2,0:0:0:0:
404,281,5529,1,2,0:0:0:0:
200,337,5897,1,2,1:0:0:0:
172,342,5989,1,2,1:0:0:0:
144,340,6081,1,2,1:0:0:0:
118,332,6173,1,2,1:0:0:0:
94,316,6265,5,4,0:0:0:0:
52,199,6449,1,0,0:0:0:0:
52,199,6633,1,0,0:0:0:0:
161,259,6817,1,8,0:0:0:0:
202,142,7001,1,0,0:0:0:0:
202,142,7185,1,0,0:0:0:0:
243,259,7369,5,8,0:0:0:0:
330,173,7553,1,0,0:0:0:0:
330,173,7737,1,0,0:0:0:0:
311,295,7922,2,0,P|279:326|239:336,1,88.000002685547,8|0,0:0|0:0,0:0:0:0:
165,259,8290,1,0,0:0:0:0:
311,295,8474,6,0,L|404:320,1,88.000002685547,12|0,0:0|0:0,0:0:0:0:
497,233,8842,2,0,L|412:210,1,88.000002685547,12|0,0:0|0:0,0:0:0:0:
292,179,9210,5,8,0:0:0:0:
353,72,9394,1,0,0:0:0:0:
353,72,9578,1,0,0:0:0:0:
230,72,9762,1,8,0:0:0:0:
292,179,9946,1,0,0:0:0:0:
292,179,10130,1,0,0:0:0:0:
168,178,10314,5,8,0:0:0:0:
230,72,10498,1,0,0:0:0:0:
230,72,10682,1,0,0:0:0:0:
353,72,10866,2,0,P|387:98|401:138,1,88.000002685547,8|0,0:0|0:0,0:0:0:0:
379,243,11235,1,0,0:0:0:0:
234,209,11418,6,0,P|189:208|154:230,1,88.000002685547,12|0,0:0|0:0,0:0:0:0:
62,351,11787,2,0,L|87:254,1,88.000002685547,12|0,0:0|0:0,0:0:0:0:
127,130,12155,5,2,0:0:0:0:
51,200,12339,1,2,0:0:0:0:
153,230,12523,1,2,0:0:0:0:
67,86,12707,2,0,P|102:60|145:58,1,88.000002685547,2|0,0:0|0:0,0:0:0:0:
241,101,13075,1,2,0:0:0:0:
229,234,13259,6,0,B|224:281|181:302|181:302|138:323|133:370,1,176.000005371094,2|0,0:0|0:0,0:0:0:0:
87,248,13811,2,0,L|72:161,1,88.000002685547,2|0,0:0|0:0,0:0:0:0:
183,106,14179,1,2,0:0:0:0:
50,175,14363,2,0,L|35:88,1,88.000002685547,2|0,0:0|0:0,0:0:0:0:
170,28,14731,1,2,0:0:0:0:
177,67,14823,1,0,0:0:0:0:
183,106,14915,1,0,0:0:0:0:
190,145,15007,1,0,0:0:0:0:
196,184,15099,5,2,0:0:0:0:
178,288,15283,1,2,0:0:0:0:
272,339,15468,1,2,0:0:0:0:
293,208,15652,2,0,L|312:106,1,88.000002685547,2|0,0:0|0:0,0:0:0:0:
407,108,16020,1,2,0:0:0:0:
293,208,16204,6,0,B|251:235|209:212|209:212|167:193|124:216,1,176.000005371094,2|0,0:0|0:0,0:0:0:0:
2,167,16756,2,0,P|8:124|37:91,1,88.000002685547,2|0,0:0|0:0,0:0:0:0:
122,30,17123,1,2,0:0:0:0:
241,92,17308,2,0,P|285:92|321:68,1,88.000002685547,4|0,0:0|0:0,0:0:0:0:
306,197,17676,1,2,0:0:0:0:
292,310,17860,1,2,0:0:0:0:
389,360,18044,5,12,0:0:0:0:
374,231,18228,2,0,P|345:204|306:197,1,80,8|0,0:0|0:0,0:0:0:0:
264,129,18596,2,0,L|306:197,1,80,8|0,0:0|0:0,0:0:0:0:
185,142,18964,2,0,L|263:129,1,80,8|0,0:0|0:0,0:0:0:0:
384,184,19333,2,0,L|306:197,1,80,8|0,0:0|0:0,0:0:0:0:
383,74,19701,2,0,P|456:100|493:170,1,160,8|0,0:0|0:0,0:0:0:0:
495,202,20161,1,0,0:0:0:0:
486,233,20253,5,12,0:0:0:0:
461,326,20437,1,12,0:0:0:0:
184,352,20989,5,4,0:0:0:0:
162,225,21173,1,2,0:0:0:0:
82,230,21357,1,2,0:0:0:0:
125,297,21541,1,2,0:0:0:0:
232,264,21725,1,2,0:0:0:0:
162,225,21909,1,2,0:0:0:0:
182,147,22093,1,2,0:0:0:0:
232,264,22277,6,0,P|253:296|290:311,1,80,2|0,0:0|0:0,0:0:0:0:
355,263,22645,1,2,0:0:0:0:
419,310,22829,1,2,0:0:0:0:
483,261,23014,2,0,P|500:225|494:187,1,80,2|0,0:0|0:0,0:0:0:0:
459,80,23382,1,10,0:0:0:0:
459,80,23566,1,10,0:0:0:0:
297,188,23934,5,4,0:0:0:0:
400,263,24118,1,2,0:0:0:0:
377,186,24302,1,2,0:0:0:0:
297,188,24486,1,2,0:0:0:0:
423,121,24670,1,2,0:0:0:0:
381,190,24854,1,2,0:0:0:0:
339,116,25038,1,2,0:0:0:0:
454,199,25222,6,0,P|487:178|504:143,1,80,2|0,0:0|0:0,0:0:0:0:
486,48,25590,1,2,0:0:0:0:
423,121,25774,1,2,0:0:0:0:
283,112,25958,2,0,L|191:107,1,80,2|0,0:0|0:0,0:0:0:0:
122,105,26327,1,10,0:0:0:0:
122,105,26511,1,10,0:0:0:0:
159,293,26879,5,4,0:0:0:0:
278,247,27063,1,2,0:0:0:0:
342,293,27247,1,2,0:0:0:0:
410,251,27431,1,2,0:0:0:0:
355,154,27615,1,2,0:0:0:0:
383,80,27799,1,2,0:0:0:0:
434,141,27983,1,2,0:0:0:0:
311,94,28167,6,0,P|274:82|236:92,1,80,2|0,0:0|0:0,0:0:0:0:
192,159,28535,1,2,0:0:0:0:
272,165,28719,1,2,0:0:0:0:
236,92,28903,2,0,P|199:76|160:84,1,80,2|0,0:0|0:0,0:0:0:0:
65,142,29271,1,10,0:0:0:0:
65,142,29455,1,10,0:0:0:0:
191,304,29823,6,0,P|187:225|139:164,1,160,6|0,0:0|0:0,0:0:0:0:
181,62,30375,2,0,P|256:84|331:60,1,160,2|0,0:0|0:0,0:0:0:0:
373,164,30928,2,0,P|324:225|320:305,1,160,2|0,0:0|0:0,0:0:0:0:
256,124,31480,6,0,L|256:36,1,80,2|0,0:0|0:0,0:0:0:0:
156,130,31848,1,2,0:0:0:0:
210,200,32032,1,2,0:0:0:0:
301,200,32216,1,2,0:0:0:0:
354,129,32400,2,4,P|441:135|491:192,1,160,6|4,0:0|0:0,0:0:0:0:
382,257,32952,5,2,0:0:0:0:
457,283,33136,1,2,0:0:0:0:
397,335,33320,1,2,0:0:0:0:
310,232,33504,1,2,0:0:0:0:
322,310,33688,1,2,0:0:0:0:
382,257,33872,1,2,0:0:0:0:
292,160,34056,6,0,P|256:177|238:212,1,80,2|0,0:0|0:0,0:0:0:0:
225,291,34424,1,2,0:0:0:0:
153,255,34609,1,2,0:0:0:0:
105,319,34793,2,0,L|38:260,1,80,2|0,0:0|0:0,0:0:0:0:
9,159,35161,1,10,0:0:0:0:
9,159,35345,1,10,0:0:0:0:
190,222,35713,5,4,0:0:0:0:
290,173,35897,1,2,0:0:0:0:
297,93,36081,1,2,0:0:0:0:
362,138,36265,1,2,0:0:0:0:
321,242,36449,1,2,0:0:0:0:
386,287,36633,1,2,0:0:0:0:
393,207,36817,1,2,0:0:0:0:
318,316,37001,5,2,0:0:0:0:
275,125,37369,1,2,0:0:0:0:
393,207,37553,1,0,0:0:0:0:
279,246,37737,2,0,P|242:258|203:246,1,80,2|0,0:0|0:0,0:0:0:0:
110,193,38106,1,10,0:0:0:0:
110,193,38290,1,10,0:0:0:0:
220,36,38658,5,4,0:0:0:0:
270,153,38842,1,2,0:0:0:0:
239,226,39026,1,2,0:0:0:0:
208,299,39210,1,2,0:0:0:0:
312,257,39394,1,2,0:0:0:0:
239,226,39578,1,2,0:0:0:0:
166,195,39762,1,2,0:0:0:0:
215,95,39946,6,0,P|247:73|287:74,1,80,2|0,0:0|0:0,0:0:0:0:
346,128,40314,1,2,0:0:0:0:
270,152,40498,1,2,0:0:0:0:
328,207,40682,2,0,P|367:208|400:187,1,80,2|0,0:0|0:0,0:0:0:0:
411,61,41051,1,10,0:0:0:0:
411,61,41234,1,10,0:0:0:0:
228,160,41602,6,0,P|217:84|272:30,1,160,6|0,0:0|0:0,0:0:0:0:
345,127,42155,2,0,P|358:202|303:256,1,160,2|0,0:0|0:0,0:0:0:0:
198,314,42707,2,0,P|243:376|320:376,1,160,2|0,0:0|0:0,0:0:0:0:
303,256,43259,2,0,P|259:193|182:193,1,160,2|0,0:0|0:0,0:0:0:0:
83,270,43811,5,0,0:0:0:0:
83,270,43995,2,0,P|84:164|181:193,1,240,4|0,0:0|0:0,0:0:0:0:
215,265,44731,5,2,0:0:0:0:
294,253,44915,1,2,0:0:0:0:
313,330,45099,1,2,0:0:0:0:
219,269,45283,1,2,0:0:0:0:
242,192,45468,1,2,0:0:0:0:
319,173,45652,1,2,0:0:0:0:
358,68,45836,6,0,P|321:56|282:68,1,80,2|0,0:0|0:0,0:0:0:0:
197,126,46204,1,2,0:0:0:0:
242,192,46388,1,2,0:0:0:0:
319,173,46572,1,2,0:0:0:0:
182,369,46940,5,4,0:2:0:0:
182,369,47124,1,4,0:2:0:0:
182,369,47308,1,4,0:2:0:0:
64,178,47676,5,2,0:0:0:0:
132,136,47860,1,2,0:0:0:0:
191,189,48044,1,2,0:0:0:0:
318,200,48228,1,2,0:0:0:0:
250,242,48412,1,2,0:0:0:0:
191,189,48596,1,2,0:0:0:0:
117,293,48780,6,0,P|114:331|136:366,1,80,2|0,0:0|0:0,0:0:0:0:
248,372,49149,1,2,0:0:0:0:
219,280,49333,1,2,0:0:0:0:
191,189,49517,1,2,0:0:0:0:
400,319,49885,5,4,0:2:0:0:
400,319,50069,1,4,0:2:0:0:
400,319,50253,1,4,0:2:0:0:
418,95,50621,5,2,0:0:0:0:
495,116,50805,1,2,0:0:0:0:
439,172,50989,1,2,0:0:0:0:
341,116,51173,1,2,0:0:0:0:
317,191,51357,1,2,0:0:0:0:
293,268,51541,1,2,0:0:0:0:
226,357,51725,6,0,P|186:354|154:331,1,80,2|0,0:0|0:0,0:0:0:0:
72,233,52093,1,2,0:0:0:0:
147,261,52277,1,2,0:0:0:0:
86,312,52461,1,2,0:0:0:0:
162,67,52830,5,4,0:2:0:0:
162,67,53014,1,4,0:2:0:0:
162,67,53198,1,4,0:2:0:0:
147,261,53566,5,2,0:0:0:0:
226,248,53750,1,2,0:0:0:0:
266,318,53934,1,0,0:0:0:0:
305,248,54118,2,0,L|345:178,1,80,2|0,0:0|0:0,0:0:0:0:
236,152,54486,1,2,0:0:0:0:
159,132,54670,2,0,L|66:107,1,80,2|0,0:0|0:0,0:0:0:0:
172,235,55038,1,2,0:0:0:0:
236,152,55222,5,2,0:0:0:0:
280,280,55406,2,0,P|222:346|142:350,1,160,2|0,0:0|0:0,0:0:0:0:
61,306,55958,5,4,0:2:0:0:
51,288,56050,1,4,0:2:0:0:
44,270,56142,1,4,0:2:0:0:
41,250,56234,1,4,0:2:0:0:
41,230,56326,1,4,0:2:0:0:
129,140,56510,5,0,0:0:0:0:
161,181,56695,1,0,0:0:0:0:
120,216,56879,1,0,0:0:0:0:
163,250,57063,1,0,0:0:0:0:
213,230,57247,1,0,0:0:0:0:
236,180,57431,1,0,0:0:0:0:
296,98,57615,2,0,L|307:163,1,64,2|0,0:0|0:0,0:0:0:0:
359,211,57983,5,0,0:0:0:0:
327,274,58168,1,0,0:0:0:0:
276,225,58351,1,0,0:0:0:0:
340,143,58536,1,0,0:0:0:0:
271,155,58719,1,0,0:0:0:0:
359,211,58904,1,0,0:0:0:0:
418,99,59087,2,0,P|396:70|352:55,1,71.9999978027344,2|0,0:0|0:0,0:0:0:0:
275,29,59455,5,0,0:0:0:0:
273,124,59640,1,0,0:0:0:0:
197,179,59824,1,0,0:0:0:0:
201,64,60007,1,0,0:0:0:0:
273,124,60191,1,0,0:0:0:0:
343,61,60375,1,0,0:0:0:0:
287,201,60560,2,0,L|248:303,1,80,2|0,0:0|0:0,0:0:0:0:
190,358,60928,5,0,0:0:0:0:
107,290,61112,1,0,0:0:0:0:
175,207,61296,1,0,0:0:0:0:
258,275,61480,1,0,0:0:0:0:
326,192,61664,1,0,0:0:0:0:
240,105,61848,5,2,0:0:0:0:
203,111,61940,1,2,0:0:0:0:
173,132,62032,1,2,0:0:0:0:
156,167,62124,1,2,0:0:0:0:
159,204,62216,6,0,P|176:247|209:275,1,92.0000017547608,2|0,0:0|0:0,0:0:0:0:
353,289,62584,2,0,P|336:247|302:217,1,92.0000017547608,2|0,0:0|0:0,0:0:0:0:
212,151,62952,1,2,0:0:0:0:
218,40,63136,1,2,0:0:0:0:
291,138,63320,1,2,0:0:0:0:
211,261,63504,1,0,0:0:0:0:
177,285,63596,1,0,0:0:0:0:
135,292,63688,6,0,P|93:273|68:235,1,92.0000017547608,2|0,0:0|0:0,0:0:0:0:
211,261,64056,2,0,P|216:302|168:366,1,92.0000017547608,2|0,0:0|0:0,0:0:0:0:
147,212,64425,2,0,P|183:185|229:182,1,92.0000017547608,6|0,0:0|0:0,0:0:0:0:
377,166,64793,2,0,P|409:134|414:89,1,92.0000017547608,6|0,0:0|0:0,0:0:0:0:
277,36,65161,6,0,L|361:120,1,92.0000017547608,6|0,0:0|0:0,0:0:0:0:
168,68,65529,1,0,0:0:0:0:
271,170,65713,2,0,L|344:242,1,92.0000017547608,2|0,0:0|0:0,0:0:0:0:
162,202,66081,1,0,0:0:0:0:
265,304,66265,6,0,L|338:376,1,92.0000017547608,2|0,0:0|0:0,0:0:0:0:
156,336,66633,1,0,0:0:0:0:
253,213,66817,2,0,L|317:136,1,92.0000017547608,2|0,0:0|0:0,0:0:0:0:
384,47,67185,1,0,0:0:0:0:
237,100,67369,6,0,P|251:144|282:177,1,92.0000017547608,4|0,0:0|0:0,0:0:0:0:
348,288,67737,2,0,P|303:300|259:291,1,92.0000017547608,4|0,0:0|0:0,0:0:0:0:
136,194,68105,5,14,0:0:0:0:
30,297,68290,1,10,0:0:0:0:
154,316,68474,1,10,0:0:0:0:
31,193,68658,2,0,P|26:147|42:104,1,92.0000017547608,10|0,0:0|0:0,0:0:0:0:
157,161,69026,1,2,0:0:0:0:
281,50,69210,6,0,P|368:34|434:94,1,184.000003509522,10|0,0:0|0:0,0:0:0:0:
318,213,69762,2,0,L|343:124,1,92.0000017547608,10|0,0:0|0:0,0:0:0:0:
229,250,70130,1,10,0:0:0:0:
376,292,70314,1,10,0:0:0:0:
343,124,70498,1,0,0:0:0:0:
305,256,70682,1,4,0:0:0:0:
244,163,70866,1,0,0:0:0:0:
142,305,71050,5,10,0:0:0:0:
97,164,71234,1,8,0:0:0:0:
244,163,71418,1,8,0:0:0:0:
142,305,71602,2,0,L|169:205,1,92.0000017547608,10|0,0:0|0:0,0:0:0:0:
198,100,71971,1,10,0:0:0:0:
310,223,72155,6,0,P|396:242|464:185,1,184.000003509522,10|0,0:0|0:0,0:0:0:0:
428,41,72707,2,0,L|363:106,1,92.0000017547608,10|0,0:0|0:0,0:0:0:0:
260,165,73075,1,10,0:0:0:0:
155,106,73259,1,10,0:0:0:0:
258,43,73443,1,0,0:0:0:0:
349,192,73627,1,2,0:0:0:0:
354,232,73719,1,2,0:0:0:0:
341,270,73811,1,2,0:0:0:0:
313,301,73903,1,2,0:0:0:0:
274,316,73995,6,0,P|225:318|185:302,1,92.0000017547608,6|0,0:0|0:0,0:0:0:0:
77,249,74363,2,0,P|118:234|149:200,1,92.0000017547608,2|0,0:0|0:0,0:0:0:0:
140,80,74731,1,2,0:0:0:0:
231,157,74915,1,2,0:0:0:0:
281,48,75099,1,2,0:0:0:0:
250,181,75283,1,0,0:0:0:0:
280,207,75375,1,0,0:0:0:0:
311,234,75468,6,0,L|392:297,1,92.0000017547608,2|0,0:0|0:0,0:0:0:0:
201,234,75836,2,0,L|119:297,1,92.0000017547608,2|0,0:0|0:0,0:0:0:0:
311,150,76204,2,0,L|392:86,1,92.0000017547608,6|0,0:0|0:0,0:0:0:0:
201,150,76572,2,0,L|119:86,1,92.0000017547608,6|0,0:0|0:0,0:0:0:0:
74,258,76940,6,0,P|105:293|148:308,1,92.0000017547608,6|0,0:0|0:0,0:0:0:0:
256,240,77308,1,0,0:0:0:0:
364,308,77492,2,0,P|407:293|437:259,1,92.0000017547608,2|0,0:0|0:0,0:0:0:0:
495,144,77860,1,0,0:0:0:0:
365,231,78044,6,0,L|319:151,1,92.0000017547608,2|0,0:0|0:0,0:0:0:0:
256,40,78412,1,0,0:0:0:0:
189,150,78596,2,0,L|143:228,1,92.0000017547608,2|0,0:0|0:0,0:0:0:0:
31,293,78963,1,0,0:0:0:0:
102,138,79149,6,0,P|147:132|189:150,1,92.0000017547608,4|0,0:0|0:0,0:0:0:0:
229,307,79517,2,0,P|199:341|157:357,1,92.0000017547608,4|0,0:0|0:0,0:0:0:0:
49,250,79885,5,14,0:0:0:0:
176,231,80069,1,10,0:0:0:0:
170,121,80252,1,10,0:0:0:0:
119,279,80437,2,0,P|128:324|158:358,1,92.0000017547608,10|0,0:0|0:0,0:0:0:0:
247,265,80805,1,10,0:0:0:0:
74,175,80989,2,0,P|19:246|23:337,1,184.000003509522,10|0,0:0|0:0,0:0:0:0:
158,358,81541,6,0,L|114:276,1,92.0000017547608,10|0,0:0|0:0,0:0:0:0:
155,174,81908,1,10,0:0:0:0:
223,260,82092,1,10,0:0:0:0:
332,244,82276,1,0,0:0:0:0:
239,370,82460,1,4,0:0:0:0:
223,260,82645,1,0,0:0:0:0:
348,354,82828,5,10,0:0:0:0:
332,244,83014,1,10,0:0:0:0:
223,260,83198,1,10,0:0:0:0:
293,120,83382,2,0,P|336:106|379:119,1,92.0000017547608,10|0,0:0|0:0,0:0:0:0:
463,191,83750,1,10,0:0:0:0:
349,30,83934,6,0,P|261:50|199:116,1,184.000003509522,10|0,0:0|0:0,0:0:0:0:
287,246,84486,2,0,P|319:214|329:170,1,92.0000017547608,10|0,0:0|0:0,0:0:0:0:
261,50,84853,1,10,0:0:0:0:
452,76,85037,1,14,0:0:0:0:
317,97,85222,1,2,0:0:0:0:
425,157,85406,2,0,P|449:195|449:240,1,92.0000017547608,2|0,0:0|0:0,0:0:0:0:
347,334,85774,6,0,P|323:296|323:251,1,92.0000017547608
247,114,86142,2,0,L|236:205,1,92.0000017547608,2|0,0:0|0:0,0:0:0:0:
171,39,86510,2,0,L|161:131,1,92.0000017547608,2|0,0:0|0:0,0:0:0:0:
338,58,86879,2,0,L|327:149,1,92.0000017547608,2|0,0:0|0:0,0:0:0:0:
229,258,87247,5,2,0:0:0:0:
247,114,87432,1,0,0:0:0:0:
301,267,87615,1,2,0:0:0:0:
157,249,87800,1,0,0:0:0:0:
310,196,87983,1,2,0:0:0:0:
328,52,88168,1,0,0:0:0:0:
382,205,88351,1,2,0:0:0:0:
238,187,88536,1,0,0:0:0:0:
166,43,88719,6,0,L|147:141,1,92.0000017547608,2|0,0:0|0:0,0:0:0:0:
183,258,89087,2,0,L|164:356,1,92.0000017547608,2|0,0:0|0:0,0:0:0:0:
346,348,89455,2,0,L|329:258,1,92.0000017547608,2|0,0:0|0:0,0:0:0:0:
363,133,89823,2,0,L|346:43,1,92.0000017547608,2|0,0:0|0:0,0:0:0:0:
228,132,90191,6,0,P|213:176|226:221,1,92.0000017547608,2|0,0:0|0:0,0:0:0:0:
303,312,90560,1,2,0:0:0:0:
340,203,90744,1,0,0:0:0:0:
230,296,90928,2,0,P|185:310|140:297,1,92.0000017547608,2|0,0:0|0:0,0:0:0:0:
50,221,91297,1,2,0:0:0:0:
159,184,91480,1,0,0:0:0:0:
55,134,91664,6,0,P|38:176|49:220,1,92.0000017547608,2|0,0:0|0:0,0:0:0:0:
154,330,92032,2,0,L|253:316,1,92.0000017547608,2|0,0:0|0:0,0:0:0:0:
382,255,92400,2,0,L|283:241,1,92.0000017547608,2|0,0:0|0:0,0:0:0:0:
154,180,92768,2,0,L|253:166,1,92.0000017547608,2|0,0:0|0:0,0:0:0:0:
306,316,93136,5,2,0:0:0:0:
161,321,93320,1,0,0:0:0:0:
304,242,93504,1,2,0:0:0:0:
162,211,93688,1,0,0:0:0:0:
241,356,93872,1,2,0:0:0:0:
304,242,94056,1,0,0:0:0:0:
196,295,94241,1,2,0:0:0:0:
243,162,94425,1,0,0:0:0:0:
265,325,94609,6,0,L|308:231,1,92.0000017547608,2|0,0:0|0:0,0:0:0:0:
434,310,94977,2,0,L|375:225,1,92.0000017547608,2|0,0:0|0:0,0:0:0:0:
507,155,95345,2,0,L|404:163,1,92.0000017547608,2|0,0:0|0:0,0:0:0:0:
409,15,95713,2,0,L|365:108,1,92.0000017547608,2|0,0:0|0:0,0:0:0:0:
329,273,96081,5,2,0:0:0:0:
170,250,96265,1,0,0:0:0:0:
188,91,96449,1,2,0:0:0:0:
351,112,96633,1,0,0:0:0:0:
252,241,96817,1,2,0:0:0:0:
125,141,97001,1,0,0:0:0:0:
220,12,97185,1,2,0:0:0:0:
351,112,97369,1,0,0:0:0:0:
172,76,97553,5,6,0:0:0:0:
252,241,97737,1,6,0:0:0:0:
