osu file format v14

[General]
AudioFilename: Qrispy Joybox - [Reflec Beat limelight ORIGINAL SOUNDTRACK].mp3
AudioLeadIn: 2000
PreviewTime: 61762
Countdown: 0
SampleSet: None
StackLeniency: 0.7
Mode: 0
LetterboxInBreaks: 0
WidescreenStoryboard: 0

[Editor]
Bookmarks: 6009,21179,29567,34905,44001,56332,62222,67849,76210,82573,90197
DistanceSpacing: 1.3
BeatDivisor: 4
GridSize: 4
TimelineZoom: 2.5

[Metadata]
Title:Sorairo concerto
TitleUnicode:空色コンチェルト
Artist:Qrispy Joybox
ArtistUnicode:Qrispy Joybox
Creator:pinataman
Version:Insane
Source:REFLEC BEAT limelight
Tags:Konami rhythm game Tatsuya Iyama Twinkle World plus Jusenkyo
BeatmapID:1128774
BeatmapSetID:377582

[Difficulty]
HPDrainRate:6
CircleSize:4.2
OverallDifficulty:8
ApproachRate:9
SliderMultiplier:1.8
SliderTickRate:1

[Events]
//Background and Video events
0,0,"background.jpg",0,0
//Break Periods
//Storyboard Layer 0 (Background)
//Storyboard Layer 1 (Fail)
//Storyboard Layer 2 (Pass)
//Storyboard Layer 3 (Foreground)
//Storyboard Sound Samples

[TimingPoints]
376,368.098159509202,4,2,1,60,1,0
6265,-83.3333333333333,4,1,1,60,0,0
18044,-90.9090909090909,4,1,1,60,0,0
43995,-100,4,1,1,60,0,0
44363,-100,4,1,1,40,0,0
44547,-100,4,1,1,50,0,0
46940,-100,4,1,1,40,0,0
47676,-100,4,1,1,50,0,0
49885,-100,4,1,1,40,0,0
50621,-100,4,1,1,50,0,0
52829,-100,4,1,1,40,0,0
53566,-100,4,1,1,55,0,0
55958,-100,4,1,1,40,0,0
56510,-133.333333333333,4,2,1,35,0,0
57615,-125,4,2,1,45,0,0
59087,-111.111111111111,4,2,1,55,0,0
60560,-100,4,2,1,65,0,0
61848,-76.9230769230769,4,1,1,65,0,0
62216,-76.9230769230769,4,1,1,70,0,1
85774,-76.9230769230769,4,1,1,70,0,0

[Colours]
Combo1 : 65,235,120
Combo2 : 89,238,198
Combo3 : 74,208,232
Combo4 : 95,106,214

[HitObjects]
304,337,376,6,0,P|345:352|387:338,1,90
416,214,744,2,0,L|340:273,1,90,2|0,0:0|0:0,0:0:0:0:
212,288,1112,2,0,L|117:252,1,90,2|0,0:0|0:0,0:0:0:0:
45,153,1480,2,0,L|26:53,1,90,2|0,0:0|0:0,0:0:0:0:
217,36,1848,6,0,L|201:124,1,90,2|0,0:0|0:0,0:0:0:0:
345,162,2216,2,0,P|326:122|286:102,1,90,2|0,0:0|0:0,0:0:0:0:
217,211,2584,2,0,P|235:250|274:270,1,90,2|0,0:0|0:0,0:0:0:0:
411,223,2952,2,0,L|427:135,1,90,2|0,0:0|0:0,0:0:0:0:
476,306,3320,6,0,P|439:330|395:327,1,90,2|0,0:0|0:0,0:0:0:0:
261,254,3688,2,0,P|298:279|343:275,1,90,2|0,0:0|0:0,0:0:0:0:
351,72,4056,2,0,L|329:160,1,90,2|0,0:0|0:0,0:0:0:0:
114,244,4425,2,0,L|136:156,1,90,2|0,0:0|0:0,0:0:0:0:
202,52,4793,5,2,0:0:0:0:
340,264,5161,1,2,0:0:0:0:
511,77,5529,1,2,0:0:0:0:
186,33,5897,1,2,1:0:0:0:
190,70,5989,1,2,1:0:0:0:
194,107,6081,1,2,1:0:0:0:
200,145,6173,1,2,1:0:0:0:
204,182,6265,5,4,0:0:0:0:
357,79,6449,1,0,0:0:0:0:
357,79,6633,1,0,0:0:0:0:
240,272,6817,1,8,0:0:0:0:
67,194,7001,1,0,0:0:0:0:
67,194,7185,1,0,0:0:0:0:
222,364,7369,5,8,0:0:0:0:
378,245,7553,1,0,0:0:0:0:
378,245,7737,1,0,0:0:0:0:
236,52,7922,2,0,P|273:13|326:7,1,107.999996704102,8|0,0:0|0:0,0:0:0:0:
472,43,8290,1,0,0:0:0:0:
300,248,8474,6,0,L|310:141,1,107.999996704102,12|0,0:0|0:0,0:0:0:0:
73,50,8842,2,0,L|62:156,1,107.999996704102,12|0,0:0|0:0,0:0:0:0:
154,331,9210,5,12,0:0:0:0:
237,145,9394,1,0,0:0:0:0:
237,145,9578,1,0,0:0:0:0:
351,365,9762,1,8,0:0:0:0:
215,222,9946,1,0,0:0:0:0:
215,222,10130,1,0,0:0:0:0:
434,284,10314,5,8,0:0:0:0:
194,299,10498,1,0,0:0:0:0:
194,299,10682,1,0,0:0:0:0:
391,184,10866,2,0,L|490:129,1,107.999996704102,8|0,0:0|0:0,0:0:0:0:
462,270,11235,1,0,0:0:0:0:
233,129,11418,6,0,P|183:114|135:136,1,107.999996704102,12|0,0:0|0:0,0:0:0:0:
369,344,11787,2,0,P|381:292|357:244,1,107.999996704102,12|0,0:0|0:0,0:0:0:0:
119,215,12155,5,2,0:0:0:0:
159,373,12339,1,2,0:0:0:0:
52,281,12523,1,2,0:0:0:0:
274,199,12707,2,0,P|309:159|312:106,1,107.999996704102,2|0,0:0|0:0,0:0:0:0:
263,1,13075,1,2,0:0:0:0:
186,191,13259,6,0,L|143:290,1,107.999996704102,2|0,0:0|0:0,0:0:0:0:
312,106,13627,1,0,0:0:0:0:
231,288,13811,2,0,L|188:385,1,107.999996704102,2|0,0:0|0:0,0:0:0:0:
75,280,14179,1,2,0:0:0:0:
313,352,14363,2,0,P|364:361|411:336,1,107.999996704102,2|0,0:0|0:0,0:0:0:0:
512,170,14731,1,0,0:0:0:0:
510,118,14823,1,0,0:0:0:0:
494,75,14915,1,0,0:0:0:0:
459,40,15007,1,0,0:0:0:0:
416,21,15099,5,2,0:0:0:0:
253,78,15283,1,2,0:0:0:0:
407,154,15467,1,2,0:0:0:0:
184,228,15652,2,0,P|134:207|108:161,1,107.999996704102,2|0,0:0|0:0,0:0:0:0:
78,16,16019,1,2,0:0:0:0:
48,251,16204,6,0,L|32:357,1,107.999996704102,2|0,0:0|0:0,0:0:0:0:
192,384,16571,1,0,0:0:0:0:
161,121,16756,2,0,L|147:14,1,107.999996704102,2|0,0:0|0:0,0:0:0:0:
32,127,17123,1,2,0:0:0:0:
321,83,17308,2,0,P|369:101|392:149,1,107.999996704102,4|0,0:0|0:0,0:0:0:0:
328,282,17676,1,2,0:0:0:0:
433,340,17860,1,2,0:0:0:0:
256,364,18044,5,12,0:0:0:0:
256,183,18228,2,0,B|250:159|231:142|231:142|212:125|207:100,1,99.0000030212403,8|0,0:0|0:0,0:0:0:0:
70,305,18596,2,0,L|133:229,1,99.0000030212403,8|0,0:0|0:0,0:0:0:0:
256,364,18964,2,0,L|256:265,1,99.0000030212403,8|0,0:0|0:0,0:0:0:0:
442,305,19333,2,0,L|378:229,1,99.0000030212403,8|0,0:0|0:0,0:0:0:0:
353,22,19701,2,0,P|448:34|500:114,1,198.000006042481,8|0,0:0|0:0,0:0:0:0:
505,149,20161,1,0,0:0:0:0:
498,182,20253,5,12,0:0:0:0:
442,305,20437,1,12,0:0:0:0:
177,195,20989,5,4,0:0:0:0:
324,296,21173,1,2,0:0:0:0:
329,197,21357,1,2,0:0:0:0:
334,99,21541,1,2,0:0:0:0:
242,257,21725,1,2,0:0:0:0:
277,349,21909,1,2,0:0:0:0:
375,361,22093,1,2,0:0:0:0:
242,257,22277,6,0,L|207:165,1,99.0000030212403,2|0,0:0|0:0,0:0:0:0:
110,92,22645,1,2,0:0:0:0:
144,206,22829,1,2,0:0:0:0:
229,94,23014,2,0,P|274:83|319:102,1,99.0000030212403,10|8,0:0|0:0,0:0:0:0:
450,226,23382,1,10,0:0:0:0:
450,226,23566,1,10,0:0:0:0:
202,232,23934,5,4,0:0:0:0:
279,71,24118,1,2,0:0:0:0:
368,27,24302,1,2,0:0:0:0:
444,91,24486,1,2,0:0:0:0:
331,232,24670,1,2,0:0:0:0:
355,134,24854,1,2,0:0:0:0:
279,72,25038,1,2,0:0:0:0:
260,254,25222,6,0,P|288:292|334:306,1,99.0000030212403,2|0,0:0|0:0,0:0:0:0:
434,112,25590,1,2,0:0:0:0:
331,232,25774,1,2,0:0:0:0:
184,84,25958,2,0,L|117:161,1,99.0000030212403,2|0,0:0|0:0,0:0:0:0:
34,269,26327,1,10,0:0:0:0:
34,269,26511,1,10,0:0:0:0:
284,191,26879,5,4,0:0:0:0:
85,167,27063,1,2,0:0:0:0:
146,87,27247,1,2,0:0:0:0:
185,179,27431,1,2,0:0:0:0:
161,378,27615,1,2,0:0:0:0:
83,316,27799,1,2,0:0:0:0:
174,278,27983,1,2,0:0:0:0:
366,218,28167,6,0,P|405:186|427:145,1,99.0000030212403,2|0,0:0|0:0,0:0:0:0:
436,15,28535,1,2,0:0:0:0:
512,108,28719,1,2,0:0:0:0:
491,233,28903,2,0,P|462:272|420:297,1,99.0000030212403,2|0,0:0|0:0,0:0:0:0:
205,290,29271,1,10,0:0:0:0:
205,290,29455,2,0,L|188:175,1,99.0000030212403,10|0,0:0|0:0,0:0:0:0:
70,65,29823,6,0,P|28:156|38:264,1,198.000006042481,6|0,0:0|0:0,0:0:0:0:
160,367,30375,2,0,B|205:376|227:361|256:314|285:361|307:376|351:367,1,198.000006042481,2|0,0:0|0:0,0:0:0:0:
478,251,30928,2,0,P|483:153|442:65,1,198.000006042481,2|0,0:0|0:0,0:0:0:0:
234,13,31480,2,0,L|265:107,1,99.0000030212403,2|0,0:0|0:0,0:0:0:0:
312,246,31848,5,2,0:0:0:0:
157,123,32032,1,2,0:0:0:0:
355,123,32216,1,2,0:0:0:0:
200,245,32400,2,0,P|103:241|36:171,1,198.000006042481,2|4,0:0|0:0,0:0:0:0:
162,54,32952,5,2,0:0:0:0:
180,150,33136,1,2,0:0:0:0:
200,246,33320,1,2,0:0:0:0:
135,378,33504,1,2,0:0:0:0:
117,258,33688,1,2,0:0:0:0:
216,364,33872,1,2,0:0:0:0:
263,192,34056,6,0,P|291:154|338:135,1,99.0000030212403,2|0,0:0|0:0,0:0:0:0:
497,216,34425,1,2,0:0:0:0:
361,244,34609,1,2,0:0:0:0:
453,348,34793,2,0,L|432:251,1,99.0000030212403,2|0,0:0|0:0,0:0:0:0:
400,79,35161,1,10,0:0:0:0:
400,79,35345,1,10,0:0:0:0:
249,304,35713,5,4,0:0:0:0:
218,118,35897,1,2,0:0:0:0:
255,22,36081,1,2,0:0:0:0:
156,36,36265,1,2,0:0:0:0:
314,150,36449,1,2,0:0:0:0:
235,214,36633,1,2,0:0:0:0:
142,177,36817,1,2,0:0:0:0:
255,22,37001,5,2,0:0:0:0:
214,381,37369,1,2,0:0:0:0:
324,165,37553,1,2,0:0:0:0:
148,283,37737,2,0,P|94:282|54:247,1,99.0000030212403,2|0,0:0|0:0,0:0:0:0:
19,114,38106,1,10,0:0:0:0:
19,114,38290,1,10,0:0:0:0:
305,7,38658,5,4,0:0:0:0:
427,167,38842,1,2,0:0:0:0:
366,87,39026,1,2,0:0:0:0:
327,179,39210,1,2,0:0:0:0:
351,378,39394,1,2,0:0:0:0:
429,316,39578,1,2,0:0:0:0:
338,278,39762,1,2,0:0:0:0:
161,337,39946,6,0,P|131:297|119:249,1,99.0000030212403,2|0,0:0|0:0,0:0:0:0:
165,118,40314,1,2,0:0:0:0:
280,175,40498,1,2,0:0:0:0:
213,276,40682,2,0,P|163:272|120:250,1,99.0000030212403,2|0,0:0|0:0,0:0:0:0:
117,31,41051,1,10,0:0:0:0:
117,31,41234,2,0,L|164:117,1,99.0000030212403,10|0,0:0|0:0,0:0:0:0:
347,182,41602,6,0,P|415:111|423:15,1,198.000006042481,6|0,0:0|0:0,0:0:0:0:
164,117,42155,2,0,B|203:148|255:150|255:150|306:151|346:181,1,198.000006042481,2|0,0:0|0:0,0:0:0:0:
93,286,42707,2,0,P|98:189|164:117,1,198.000006042481,2|0,0:0|0:0,0:0:0:0:
400,209,43259,2,0,P|394:306|328:378,1,198.000006042481,2|0,0:0|0:0,0:0:0:0:
167,366,43811,5,0,0:0:0:0:
167,366,43995,2,0,B|119:322|119:250|167:207|167:207|191:184|191:149|167:127,1,270,4|0,0:0|0:0,0:0:0:0:
2,138,44731,5,2,0:0:0:0:
99,107,44915,1,2,0:0:0:0:
74,206,45099,1,2,0:0:0:0:
242,287,45283,1,2,0:0:0:0:
340,207,45468,1,2,0:0:0:0:
314,83,45652,1,2,0:0:0:0:
181,190,45836,6,0,P|153:154|142:110,1,90,2|0,0:0|0:0,0:0:0:0:
234,7,46204,1,2,0:0:0:0:
314,83,46388,1,2,0:0:0:0:
394,160,46572,1,2,0:0:0:0:
204,376,46940,5,4,0:2:0:0:
204,376,47124,1,4,0:2:0:0:
204,376,47308,1,4,0:2:0:0:
140,96,47676,5,2,0:0:0:0:
236,121,47860,1,2,0:0:0:0:
166,191,48044,1,2,0:0:0:0:
53,8,48228,1,2,0:0:0:0:
140,96,48413,1,2,0:0:0:0:
262,128,48596,1,2,0:0:0:0:
191,273,48781,6,0,P|146:273|107:251,1,90,2|0,0:0|0:0,0:0:0:0:
262,128,49149,1,2,0:0:0:0:
166,191,49333,1,2,0:0:0:0:
123,33,49517,1,2,0:0:0:0:
436,39,49885,5,4,0:2:0:0:
436,39,50069,1,4,0:2:0:0:
436,39,50253,1,4,0:2:0:0:
375,317,50621,5,2,0:0:0:0:
476,293,50805,1,2,0:0:0:0:
378,303,50989,1,2,0:0:0:0:
256,120,51173,1,2,0:0:0:0:
256,300,51358,1,2,0:0:0:0:
256,152,51542,1,2,0:0:0:0:
113,263,51726,6,0,P|68:262|34:233,1,90,2|0,0:0|0:0,0:0:0:0:
18,89,52093,1,2,0:0:0:0:
195,110,52277,1,2,0:0:0:0:
97,183,52461,1,2,0:0:0:0:
350,29,52829,5,4,0:2:0:0:
350,29,53014,1,4,0:2:0:0:
350,29,53198,1,4,0:2:0:0:
216,283,53566,5,2,0:0:0:0:
166,368,53750,1,2,0:0:0:0:
265,368,53934,1,2,0:0:0:0:
117,283,54118,2,0,L|162:205,1,90,2|0,0:0|0:0,0:0:0:0:
265,368,54486,1,2,0:0:0:0:
359,205,54670,2,0,L|403:127,1,90,2|0,0:0|0:0,0:0:0:0:
162,205,55038,1,2,0:0:0:0:
283,52,55222,5,2,0:0:0:0:
391,280,55406,2,0,P|332:359|243:372,1,180,2|0,0:0|0:0,0:0:0:0:
154,300,55958,5,4,0:2:0:0:
144,268,56050,1,4,0:2:0:0:
159,238,56142,1,4,0:2:0:0:
173,210,56234,1,4,0:2:0:0:
165,179,56326,1,4,0:2:0:0:
329,233,56510,5,0,0:0:0:0:
364,170,56695,1,0,0:0:0:0:
302,134,56879,1,0,0:0:0:0:
266,196,57063,1,0,0:0:0:0:
368,174,57247,1,0,0:0:0:0:
306,138,57431,1,0,0:0:0:0:
338,267,57615,2,0,L|357:340,1,72,2|0,0:0|0:0,0:0:0:0:
171,305,57983,5,0,0:0:0:0:
249,258,58168,1,0,0:0:0:0:
127,226,58352,1,0,0:0:0:0:
204,181,58536,1,0,0:0:0:0:
171,305,58719,1,0,0:0:0:0:
208,185,58904,1,0,0:0:0:0:
80,257,59087,2,0,L|4:227,1,80.9999975280763,2|0,0:0|0:0,0:0:0:0:
119,23,59455,5,0,0:0:0:0:
54,135,59640,1,0,0:0:0:0:
166,199,59824,1,0,0:0:0:0:
230,91,60008,1,0,0:0:0:0:
59,140,60192,1,0,0:0:0:0:
169,203,60376,1,0,0:0:0:0:
312,67,60560,2,0,L|394:98,1,90,2|0,0:0|0:0,0:0:0:0:
263,288,60928,5,0,0:0:0:0:
104,193,61113,1,0,0:0:0:0:
194,37,61297,1,0,0:0:0:0:
351,129,61481,1,0,0:0:0:0:
202,45,61664,1,0,0:0:0:0:
145,276,61848,5,2,0:0:0:0:
161,317,61940,1,2,0:0:0:0:
194,351,62032,1,2,0:0:0:0:
237,369,62124,1,2,0:0:0:0:
284,371,62216,6,0,L|394:333,1,116.999994644165,2|0,0:0|0:0,0:0:0:0:
402,136,62584,2,0,L|290:174,1,116.999994644165,2|0,0:0|0:0,0:0:0:0:
65,251,62952,1,2,0:0:0:0:
101,76,63136,1,2,0:0:0:0:
270,18,63320,1,2,0:0:0:0:
214,253,63504,1,0,0:0:0:0:
223,299,63596,1,0,0:0:0:0:
258,330,63688,6,0,P|315:332|364:301,1,116.999994644165,2|0,0:0|0:0,0:0:0:0:
96,249,64056,2,0,P|93:307|124:356,1,116.999994644165,2|0,0:0|0:0,0:0:0:0:
302,51,64425,2,0,P|244:47|195:78,1,116.999994644165,6|0,0:0|0:0,0:0:0:0:
441,209,64793,2,0,P|443:152|412:103,1,116.999994644165,6|0,0:0|0:0,0:0:0:0:
370,83,65069,1,0,0:0:0:0:
325,96,65161,6,0,L|241:177,1,116.999994644165,6|0,0:0|0:0,0:0:0:0:
82,11,65529,1,0,0:0:0:0:
241,177,65713,2,0,L|323:259,1,116.999994644165,2|0,0:0|0:0,0:0:0:0:
483,94,66081,1,0,0:0:0:0:
324,260,66265,6,0,L|234:350,1,116.999994644165,2|0,0:0|0:0,0:0:0:0:
82,176,66633,1,0,0:0:0:0:
272,61,66817,2,0,P|329:68|370:107,1,116.999994644165,2|0,0:0|0:0,0:0:0:0:
397,272,67185,1,0,0:0:0:0:
200,88,67369,6,0,L|114:6,1,116.999994644165,4|0,0:0|0:0,0:0:0:0:
94,332,67737,1,6,0:0:0:0:
137,337,67829,1,2,0:0:0:0:
181,325,67921,1,2,0:0:0:0:
219,298,68013,1,2,0:0:0:0:
241,256,68105,5,10,0:0:0:0:
425,359,68290,1,10,0:0:0:0:
406,150,68474,1,10,0:0:0:0:
219,298,68658,2,0,P|180:255|172:198,1,116.999994644165,10|0,0:0|0:0,0:0:0:0:
373,175,69026,1,2,0:0:0:0:
173,366,69210,6,0,P|100:277|98:162,1,233.999989288331,10|0,0:0|0:0,0:0:0:0:
311,94,69762,2,8,L|283:207,1,116.999994644165,10|8,0:0|0:0,0:0:0:0:
336,384,70130,1,10,0:0:0:0:
470,213,70314,1,10,0:0:0:0:
301,292,70498,1,0,0:0:0:0:
251,44,70682,1,4,0:0:0:0:
283,207,70866,1,0,0:0:0:0:
52,173,71050,5,10,0:0:0:0:
161,7,71234,1,8,0:0:0:0:
310,137,71418,1,8,0:0:0:0:
137,294,71602,2,0,P|157:348|206:380,1,116.999994644165,10|0,0:0|0:0,0:0:0:0:
385,294,71971,1,10,0:0:0:0:
195,95,72155,6,0,P|82:86|6:169,1,233.999989288331,10|0,0:0|0:0,0:0:0:0:
125,318,72707,2,0,L|132:201,1,116.999994644165,10|0,0:0|0:0,0:0:0:0:
173,2,73075,1,10,0:0:0:0:
100,197,73259,1,10,0:0:0:0:
262,133,73443,1,0,0:0:0:0:
337,283,73627,1,2,0:0:0:0:
296,260,73719,1,2,0:0:0:0:
268,223,73811,1,2,0:0:0:0:
255,179,73903,1,2,0:0:0:0:
262,133,73995,6,4,P|220:89|164:77,1,116.999994644165,6|0,0:0|0:0,0:0:0:0:
45,263,74363,2,0,P|86:306|142:318,1,116.999994644165,2|0,0:0|0:0,0:0:0:0:
361,208,74731,1,2,0:0:0:0:
242,376,74915,1,2,0:0:0:0:
105,175,75099,1,2,0:0:0:0:
370,166,75283,1,0,0:0:0:0:
390,212,75375,1,0,0:0:0:0:
386,263,75468,6,0,L|355:375,1,116.999994644165,2|0,0:0|0:0,0:0:0:0:
121,263,75836,2,0,L|154:384,1,116.999994644165,2|0,0:0|0:0,0:0:0:0:
383,120,76204,2,0,L|414:8,1,116.999994644165,6|0,0:0|0:0,0:0:0:0:
94,8,76572,2,0,L|125:120,1,116.999994644165,6|0,0:0|0:0,0:0:0:0:
136,167,76848,1,0,0:0:0:0:
112,207,76940,6,0,P|64:237|6:235,1,116.999994644165,6|0,0:0|0:0,0:0:0:0:
21,73,77308,1,0,0:0:0:0:
183,280,77492,2,0,P|229:246|248:191,1,116.999994644165,2|0,0:0|0:0,0:0:0:0:
201,15,77860,1,0,0:0:0:0:
417,164,78044,6,0,P|409:106|371:62,1,116.999994644165,2|0,0:0|0:0,0:0:0:0:
194,8,78412,1,0,0:0:0:0:
190,264,78596,2,0,P|236:230|255:175,1,116.999994644165,2|0,0:0|0:0,0:0:0:0:
212,8,78963,1,0,0:0:0:0:
328,277,79149,6,0,P|293:324|244:355,1,116.999994644165,4|0,0:0|0:0,0:0:0:0:
28,383,79517,1,4,0:0:0:0:
123,180,79701,1,2,0:0:0:0:
157,173,79793,1,2,0:0:0:0:
188,190,79885,5,10,0:0:0:0:
245,355,80069,1,10,0:0:0:0:
419,366,80252,1,10,0:0:0:0:
388,142,80437,2,0,L|356:29,1,116.999994644165,10|0,0:0|0:0,0:0:0:0:
338,210,80805,1,10,0:0:0:0:
67,126,80989,6,0,P|16:226|56:333,1,233.999989288331,10|0,0:0|0:0,0:0:0:0:
249,384,81541,2,0,L|263:258,1,116.999994644165,10|0,0:0|0:0,0:0:0:0:
280,89,81908,1,10,0:0:0:0:
72,122,82093,1,10,0:0:0:0:
207,6,82276,1,0,0:0:0:0:
262,267,82460,1,4,0:0:0:0:
336,106,82645,1,0,0:0:0:0:
97,145,82828,5,10,0:0:0:0:
250,267,83014,1,10,0:0:0:0:
68,157,83198,1,10,0:0:0:0:
336,106,83382,2,0,P|334:48|298:3,1,116.999994644165,10|0,0:0|0:0,0:0:0:0:
137,4,83749,1,10,0:0:0:0:
312,222,83933,6,0,B|343:283|295:333|295:333|241:339|195:380,1,233.999989288331,10|0,0:0|0:0,0:0:0:0:
49,262,84485,2,0,P|89:225|146:200,1,116.999994644165,10|0,0:0|0:0,0:0:0:0:
369,376,84853,1,10,0:0:0:0:
465,98,85037,1,14,0:0:0:0:
297,248,85221,1,2,0:0:0:0:
148,102,85406,2,0,P|93:83|37:100,1,116.999994644165,2|0,0:0|0:0,0:0:0:0:
240,156,85774,6,0,P|258:100|241:45,1,116.999994644165
91,207,86142,1,2,0:0:0:0:
158,316,86326,1,0,0:0:0:0:
307,213,86510,1,2,0:0:0:0:
374,322,86694,1,0,0:0:0:0:
214,238,86879,1,2,0:0:0:0:
251,114,87063,1,0,0:0:0:0:
277,342,87247,5,2,0:0:0:0:
99,259,87431,1,0,0:0:0:0:
285,192,87615,1,2,0:0:0:0:
93,166,87799,1,0,0:0:0:0:
295,271,87983,1,2,0:0:0:0:
120,338,88168,1,0,0:0:0:0:
295,271,88352,1,2,0:0:0:0:
104,172,88535,1,0,0:0:0:0:
381,120,88719,5,2,0:0:0:0:
286,346,88903,1,0,0:0:0:0:
220,90,89087,1,2,0:0:0:0:
351,296,89272,1,0,0:0:0:0:
467,45,89455,1,2,0:0:0:0:
378,275,89638,1,0,0:0:0:0:
313,17,89823,1,2,0:0:0:0:
443,225,90007,1,0,0:0:0:0:
204,106,90191,5,2,0:0:0:0:
99,180,90375,1,0,0:0:0:0:
198,359,90560,1,10,0:0:0:0:
105,268,90744,1,0,0:0:0:0:
307,229,90928,1,2,0:0:0:0:
179,217,91112,1,0,0:0:0:0:
317,370,91296,1,2,0:0:0:0:
403,274,91480,1,0,0:0:0:0:
193,295,91664,6,0,L|38:315,1,116.999994644165,2|0,0:0|0:0,0:0:0:0:
136,138,92032,1,2,0:0:0:0:
320,200,92216,1,0,0:0:0:0:
211,323,92400,1,2,0:0:0:0:
228,163,92584,1,0,0:0:0:0:
273,275,92768,1,2,0:0:0:0:
379,145,92953,1,0,0:0:0:0:
64,258,93136,5,2,0:0:0:0:
224,362,93320,1,0,0:0:0:0:
151,138,93504,1,2,0:0:0:0:
250,300,93688,1,0,0:0:0:0:
277,66,93872,1,2,0:0:0:0:
300,256,94056,1,0,0:0:0:0:
423,54,94241,1,2,0:0:0:0:
365,236,94425,1,0,0:0:0:0:
122,137,94609,5,2,0:0:0:0:
348,87,94792,1,0,0:0:0:0:
282,331,94976,1,2,0:0:0:0:
237,103,95160,1,0,0:0:0:0:
170,355,95344,1,2,0:0:0:0:
395,304,95529,1,0,0:0:0:0:
237,103,95713,1,2,0:0:0:0:
282,331,95897,1,0,0:0:0:0:
436,42,96081,5,2,0:0:0:0:
159,42,96264,1,0,0:0:0:0:
394,277,96449,1,2,0:0:0:0:
119,276,96632,1,0,0:0:0:0:
333,22,96817,1,2,0:0:0:0:
76,109,97000,1,0,0:0:0:0:
375,251,97185,1,2,0:0:0:0:
116,347,97368,1,0,0:0:0:0:
178,0,97553,5,6,0:0:0:0:
251,316,97737,1,6,0:0:0:0:
