osu file format v14

[General]
AudioFilename: Qrispy Joybox - [Reflec Beat limelight ORIGINAL SOUNDTRACK].mp3
AudioLeadIn: 2000
PreviewTime: 61762
Countdown: 0
SampleSet: Normal
StackLeniency: 0.6
Mode: 0
LetterboxInBreaks: 0
WidescreenStoryboard: 0

[Editor]
Bookmarks: 31960,56254,65273,74107,77052,85334,88095,94721
DistanceSpacing: 1.1
BeatDivisor: 4
GridSize: 4
TimelineZoom: 2

[Metadata]
Title:Sorairo concerto
TitleUnicode:空色コンチェルト
Artist:Qrispy Joybox
ArtistUnicode:Qrispy Joybox
Creator:pinataman
Version:Hard
Source:REFLEC BEAT limelight
Tags:Konami rhythm game Tatsuya Iyama Twinkle World plus Jusenkyo
BeatmapID:878346
BeatmapSetID:377582

[Difficulty]
HPDrainRate:4
CircleSize:3.5
OverallDifficulty:6
ApproachRate:7.5
SliderMultiplier:1.4
SliderTickRate:1

[Events]
//Background and Video events
0,0,"background.jpg",0,0
//Break Periods
//Storyboard Layer 0 (Background)
//Storyboard Layer 1 (Fail)
//Storyboard Layer 2 (Pass)
//Storyboard Layer 3 (Foreground)
//Storyboard Sound Samples

[TimingPoints]
376,368.098159509202,4,2,1,60,1,0
5897,-100,4,1,1,60,0,0
44179,-100,4,1,1,40,0,0
44547,-100,4,1,1,45,0,0
46940,-100,4,1,1,40,0,0
47676,-100,4,1,1,45,0,0
49885,-100,4,1,1,40,0,0
50621,-100,4,1,1,45,0,0
52829,-100,4,1,1,40,0,0
53566,-100,4,1,1,50,0,0
55958,-100,4,1,1,40,0,0
56510,-100,4,2,1,35,0,0
57615,-100,4,2,1,45,0,0
59087,-100,4,2,1,55,0,0
60560,-100,4,2,1,65,0,0
61848,-100,4,1,1,65,0,0
62216,-100,4,1,1,70,0,1
85774,-100,4,1,1,70,0,0

[Colours]
Combo1 : 65,235,120
Combo2 : 89,238,198
Combo3 : 74,208,232
Combo4 : 95,106,214

[HitObjects]
256,352,376,5,0,0:0:0:0:
291,202,744,2,0,L|309:134,1,70,2|0,0:0|0:0,0:0:0:0:
243,93,1112,2,0,L|224:25,1,70,2|0,0:0|0:0,0:0:0:0:
158,65,1480,2,0,L|176:132,1,70,2|0,0:0|0:0,0:0:0:0:
197,206,1848,6,0,P|187:239|163:264,1,70,2|0,0:0|0:0,0:0:0:0:
120,201,2216,2,0,P|86:191|61:167,1,70,2|0,0:0|0:0,0:0:0:0:
126,124,2584,2,0,P|135:90|159:65,1,70,2|0,0:0|0:0,0:0:0:0:
203,130,2952,2,0,P|236:139|261:163,1,70,2|0,0:0|0:0,0:0:0:0:
326,205,3320,6,0,L|344:137,1,70,2|0,0:0|0:0,0:0:0:0:
411,177,3688,2,0,L|392:244,1,70,2|0,0:0|0:0,0:0:0:0:
326,283,4056,2,0,L|258:264,1,70,2|0,0:0|0:0,0:0:0:0:
192,204,4425,2,0,L|259:185,1,70,2|0,0:0|0:0,0:0:0:0:
333,165,4793,5,2,0:0:0:0:
190,107,5161,1,2,0:0:0:0:
324,31,5529,1,2,0:0:0:0:
247,165,5897,2,0,P|254:198|276:225,1,70,2|2,0:0|0:0,0:0:0:0:
314,292,6265,5,4,0:0:0:0:
237,293,6449,2,0,P|207:275|188:245,1,70
170,171,6817,1,8,0:0:0:0:
247,165,7001,2,0,P|276:147|295:117,1,70
304,41,7369,5,8,0:0:0:0:
227,47,7553,2,0,P|197:64|178:94,1,70
170,171,7922,2,0,B|142:105|142:105|76:70,1,140,2|0,0:0|0:0,0:0:0:0:
18,117,8474,6,0,P|1:147|0:182,1,70,12|0,0:0|0:0,0:0:0:0:
15,257,8842,2,0,P|32:286|62:305,1,70,12|0,0:0|0:0,0:0:0:0:
136,323,9210,5,8,0:0:0:0:
209,300,9394,2,0,P|207:265|190:235,1,70
142,175,9762,1,8,0:0:0:0:
116,102,9946,2,0,P|117:67|134:37,1,70
210,27,10314,5,8,0:0:0:0:
231,101,10498,2,0,L|249:168,1,70
306,220,10867,2,0,P|375:228|417:169,1,140
402,102,11418,6,0,L|341:137,1,70,12|0,0:0|0:0,0:0:0:0:
281,87,11787,2,0,L|341:52,1,70,12|0,0:0|0:0,0:0:0:0:
414,28,12155,6,0,P|446:40|469:66,2,70,2|2|2,0:0|0:0|0:0,0:0:0:0:
341,52,12707,2,0,P|324:82|322:117,1,70,2|0,0:0|0:0,0:0:0:0:
314,193,13075,1,2,0:0:0:0:
239,212,13259,6,0,P|163:180|109:133,1,140,2|0,0:0|0:0,0:0:0:0:
57,97,13811,2,0,L|75:164,1,70,2|0,0:0|0:0,0:0:0:0:
103,236,14179,1,2,0:0:0:0:
168,275,14363,2,0,L|149:342,1,70,2|0,0:0|0:0,0:0:0:0:
74,362,14731,2,0,L|36:371,2,35
148,342,15099,6,0,L|208:378,2,70,2|2|2,0:0|0:0|0:0,0:0:0:0:
93,287,15652,2,0,P|84:252|92:218,1,70,2|0,0:0|0:0,0:0:0:0:
110,144,16019,1,2,0:0:0:0:
185,164,16204,6,0,P|259:129|312:80,1,140,2|0,0:0|0:0,0:0:0:0:
373,123,16756,2,0,L|354:190,1,70,2|0,0:0|0:0,0:0:0:0:
334,264,17123,1,2,0:0:0:0:
388,319,17308,1,4,0:0:0:0:
333,373,17492,1,2,0:0:0:0:
279,317,17676,2,0,P|245:309|211:317,1,70,2|2,0:0|0:0,0:0:0:0:
157,373,18044,5,12,0:0:0:0:
137,297,18228,2,0,P|151:266|179:246,1,70,8|0,0:0|0:0,0:0:0:0:
247,209,18596,2,0,B|276:141|217:141|247:74,2,140,8|8|8,0:0|0:0|0:0,0:0:0:0:
114,287,19701,2,0,P|77:225|101:157,1,140,8|0,0:0|0:0,0:0:0:0:
159,118,20253,5,12,0:0:0:0:
159,118,20437,1,12,0:0:0:0:
275,320,20989,5,4,0:0:0:0:
341,281,21173,2,0,L|409:299,2,70,2|2|2,0:0|0:0|0:0,0:0:0:0:
273,243,21725,1,2,0:0:0:0:
205,207,21909,2,0,P|196:173|204:139,1,70,2|2,0:0|0:0,0:0:0:0:
274,108,22277,6,0,P|289:175|273:242,1,140,2|2,0:0|0:0,0:0:0:0:
207,283,22829,1,2,0:0:0:0:
275,320,23014,1,2,0:0:0:0:
375,203,23382,1,10,0:0:0:0:
375,203,23566,1,10,0:0:0:0:
224,173,23934,5,4,0:0:0:0:
174,232,24118,2,0,P|183:265|207:290,2,70,2|2|2,0:0|0:0|0:0,0:0:0:0:
148,159,24670,1,2,0:0:0:0:
103,95,24854,2,0,P|77:71|44:61,1,70,2|2,0:0|0:0,0:0:0:0:
11,130,25222,6,0,L|47:265,1,140,2|2,0:0|0:0,0:0:0:0:
109,310,25774,1,2,0:0:0:0:
156,248,25959,1,2,0:0:0:0:
291,321,26327,1,10,0:0:0:0:
291,321,26511,1,10,0:0:0:0:
237,176,26879,5,4,0:0:0:0:
308,204,27063,2,0,P|337:186|355:157,2,70,2|2|2,0:0|0:0|0:0,0:0:0:0:
248,253,27615,1,2,0:0:0:0:
237,176,27799,2,0,P|254:146|284:128,1,70,2|2,0:0|0:0,0:0:0:0:
259,53,28167,6,0,P|199:88|163:147,1,140,2|2,0:0|0:0,0:0:0:0:
176,223,28719,1,2,0:0:0:0:
248,253,28903,1,2,0:0:0:0:
137,360,29272,1,10,0:0:0:0:
137,360,29456,1,10,0:0:0:0:
47,234,29823,6,0,P|71:167|125:122,1,140,6|0,0:0|0:0,0:0:0:0:
188,165,30375,2,0,P|256:183|324:165,1,140,2|0,0:0|0:0,0:0:0:0:
389,123,30928,2,0,P|441:168|465:234,1,140,2|0,0:0|0:0,0:0:0:0:
434,304,31480,6,0,P|405:284|390:253,1,70,2|0,0:0|0:0,0:0:0:0:
348,188,31848,1,2,0:0:0:0:
388,121,32032,2,0,P|356:110|322:114,1,70,2|2,0:0|0:0,0:0:0:0:
329,37,32400,2,0,P|364:35|401:45,1,70,2|0,0:0|0:0,0:0:0:0:
459,91,32768,5,4,0:0:0:0:
389,122,32952,2,0,P|361:143|348:175,2,70,2|2|2,0:0|0:0|0:0,0:0:0:0:
451,167,33504,1,2,0:0:0:0:
449,243,33688,2,0,P|436:275|408:296,1,70,2|2,0:0|0:0,0:0:0:0:
333,279,34056,6,0,P|262:262|197:278,1,140,2|2,0:0|0:0,0:0:0:0:
127,307,34608,1,2,0:0:0:0:
188,355,34793,1,2,0:0:0:0:
208,201,35161,1,10,0:0:0:0:
208,201,35345,1,10,0:0:0:0:
283,334,35713,5,4,0:0:0:0:
357,315,35897,2,0,P|381:338|415:348,2,70,2|2|2,0:0|0:0|0:0,0:0:0:0:
337,241,36449,1,2,0:0:0:0:
351,165,36633,2,0,P|344:131|323:102,1,70,2|2,0:0|0:0,0:0:0:0:
262,55,37001,5,2,0:0:0:0:
152,162,37369,1,2,0:0:0:0:
87,119,37553,1,2,0:0:0:0:
118,48,37738,1,2,0:0:0:0:
85,200,38106,1,10,0:0:0:0:
85,200,38290,1,10,0:0:0:0:
222,269,38658,5,4,0:0:0:0:
163,319,38842,2,0,P|147:349|146:384,2,70,2|2|0,0:0|0:0|0:0,0:0:0:0:
222,269,39394,1,2,0:0:0:0:
296,245,39578,2,0,P|279:215|250:196,1,70,2|2,0:0|0:0,0:0:0:0:
215,128,39946,6,0,P|249:66|321:45,1,140,2|2,0:0|0:0,0:0:0:0:
368,96,40498,1,2,0:0:0:0:
440,69,40683,1,2,0:0:0:0:
353,196,41051,1,10,0:0:0:0:
353,196,41235,1,10,0:0:0:0:
199,206,41602,6,0,P|199:276|252:318,1,140,6|0,0:0|0:0,0:0:0:0:
269,242,42155,2,0,P|200:257|171:318,1,140,2|0,0:0|0:0,0:0:0:0:
81,330,42707,2,0,P|21:300|7:233,1,140,2|0,0:0|0:0,0:0:0:0:
43,165,43259,2,0,P|112:150|141:89,1,140,2|0,0:0|0:0,0:0:0:0:
196,37,43811,6,0,P|323:68|332:199,1,280
256,205,44731,6,0,L|181:210,2,70,2|2|2,0:0|0:0|0:0,0:0:0:0:
333,199,45283,1,2,0:0:0:0:
299,269,45468,1,2,0:0:0:0:
375,263,45652,1,2,0:0:0:0:
342,332,45836,6,0,P|277:342|223:271,1,140,2|2,0:0|0:0,0:0:0:0:
241,218,46388,1,2,0:0:0:0:
299,269,46572,1,2,0:0:0:0:
148,304,46940,5,4,0:2:0:0:
148,304,47124,1,4,0:2:0:0:
148,304,47308,1,4,0:2:0:0:
97,158,47676,6,0,P|71:134|38:123,2,70,2|2|2,0:0|0:0|0:0,0:0:0:0:
141,220,48228,1,2,0:0:0:0:
217,231,48413,1,2,0:0:0:0:
275,181,48596,1,2,0:0:0:0:
351,192,48780,6,0,P|391:257|349:334,1,140,2|2,0:0|0:0,0:0:0:0:
309,356,49333,1,2,0:0:0:0:
236,330,49517,1,2,0:0:0:0:
283,189,49885,5,4,0:2:0:0:
283,189,50069,1,4,0:2:0:0:
283,189,50253,1,4,0:2:0:0:
140,130,50621,6,0,L|58:151,2,70,2|2|2,0:0|0:0|0:0,0:0:0:0:
219,118,51173,1,2,0:0:0:0:
203,193,51358,1,2,0:0:0:0:
131,215,51542,1,2,0:0:0:0:
155,287,51725,6,0,P|229:303|288:238,1,140,2|2,0:0|0:0,0:0:0:0:
302,195,52278,1,2,0:0:0:0:
378,208,52462,1,2,0:0:0:0:
313,82,52830,5,4,0:2:0:0:
313,82,53014,1,4,0:2:0:0:
313,82,53198,1,4,0:2:0:0:
159,82,53566,5,2,0:0:0:0:
233,63,53750,1,2,0:0:0:0:
253,138,53934,1,2,0:0:0:0:
179,157,54118,2,0,P|162:187|162:222,1,70,2|0,0:0|0:0,0:0:0:0:
181,296,54486,1,2,0:0:0:0:
106,316,54670,2,0,L|87:248,1,70,2|0,0:0|0:0,0:0:0:0:
68,174,55038,1,2,0:0:0:0:
14,228,55222,5,2,0:0:0:0:
86,247,55406,2,0,P|152:233|192:175,1,140,2|0,0:0|0:0,0:0:0:0:
215,101,55958,6,0,L|205:66,4,35,4|4|4|4|4,0:2|0:2|0:2|0:2|0:2,0:0:0:0:
270,155,56510,6,0,L|263:226,2,70
329,105,57063,2,0,L|400:112,2,70
256,79,57615,1,2,0:0:0:0:
368,203,57983,6,0,P|400:214|434:208,2,70
291,192,58535,2,0,P|259:206|239:234,2,70
338,131,59087,1,2,0:0:0:0:
170,113,59455,6,0,L|146:179,2,70
104,72,60007,2,0,L|80:5,2,70
74,143,60559,1,2,0:0:0:0:
120,305,60928,5,0,0:0:0:0:
183,347,61112,2,0,P|211:363|246:364,1,70
322,356,61480,2,0,P|354:344|379:319,1,70
445,279,61848,2,0,L|481:321,2,35,2|2|2,0:0|0:0|0:0,0:0:0:0:
380,238,62216,6,0,L|313:199,1,70,2|0,0:0|0:0,0:0:0:0:
238,164,62584,2,0,L|219:231,1,70,2|0,0:0|0:0,0:0:0:0:
142,279,62952,1,2,0:0:0:0:
150,188,63136,1,2,0:0:0:0:
238,164,63320,2,0,L|256:96,1,70,2|0,0:0|0:0,0:0:0:0:
199,24,63688,6,0,P|165:15|132:25,1,70,2|0,0:0|0:0,0:0:0:0:
98,110,64056,2,0,P|132:119|165:110,1,70,2|0,0:0|0:0,0:0:0:0:
127,212,64425,2,0,P|91:212|62:195,1,70,6|0,0:0|0:0,0:0:0:0:
32,107,64793,2,0,P|66:99|98:110,1,70,6|0,0:0|0:0,0:0:0:0:
175,160,65161,6,0,L|127:211,1,70,6|0,0:0|0:0,0:0:0:0:
120,302,65529,1,2,0:0:0:0:
196,352,65713,2,0,L|263:331,1,70,2|0,0:0|0:0,0:0:0:0:
350,362,66081,1,2,0:0:0:0:
415,299,66265,6,0,P|424:265|415:232,1,70,2|0,0:0|0:0,0:0:0:0:
326,215,66633,1,2,0:0:0:0:
353,127,66817,2,0,P|384:109|418:111,1,70,2|0,0:0|0:0,0:0:0:0:
485,173,67185,1,2,0:0:0:0:
506,84,67369,6,0,L|485:18,1,70,4|0,0:0|0:0,0:0:0:0:
397,44,67737,2,0,L|418:110,1,70,4|0,0:0|0:0,0:0:0:0:
485,173,68106,5,10,0:0:0:0:
409,223,68290,1,10,0:0:0:0:
471,289,68474,1,10,0:0:0:0:
394,339,68658,2,0,P|361:347|327:338,1,70,10|0,0:0|0:0,0:0:0:0:
256,284,69026,1,10,0:0:0:0:
183,339,69210,6,0,P|115:341|63:297,1,140,10|0,0:0|0:0,0:0:0:0:
25,214,69762,2,0,L|56:152,1,70,10|0,0:0|0:0,0:0:0:0:
147,166,70130,1,10,0:0:0:0:
145,257,70314,1,10,0:0:0:0:
256,112,70682,1,4,0:0:0:0:
326,279,71050,5,10,0:0:0:0:
235,268,71234,1,10,0:0:0:0:
289,195,71418,1,10,0:0:0:0:
326,279,71602,2,0,P|356:296|390:296,1,70,10|0,0:0|0:0,0:0:0:0:
477,263,71971,1,10,0:0:0:0:
411,198,72155,6,0,B|358:149|358:149|348:75,1,140,10|0,0:0|0:0,0:0:0:0:
263,53,72706,2,0,L|273:121,1,70,10|0,0:0|0:0,0:0:0:0:
286,212,73074,1,10,0:0:0:0:
231,284,73258,1,10,0:0:0:0:
49,262,73627,2,0,P|74:238|107:229,1,70,2|2,0:0|0:0,0:0:0:0:
195,202,73995,6,0,L|159:139,1,70,6|0,0:0|0:0,0:0:0:0:
116,61,74363,2,0,L|53:97,1,70,2|0,0:0|0:0,0:0:0:0:
1,169,74731,1,2,0:0:0:0:
91,181,74915,1,2,0:0:0:0:
70,269,75099,2,0,P|77:302|99:329,1,70,2|0,0:0|0:0,0:0:0:0:
189,344,75468,6,0,L|171:277,1,70,2|0,0:0|0:0,0:0:0:0:
256,216,75836,2,0,L|255:286,1,70,2|0,0:0|0:0,0:0:0:0:
324,345,76204,2,0,L|342:277,1,70,6|0,0:0|0:0,0:0:0:0:
416,225,76572,2,0,L|480:252,1,70,6|0,0:0|0:0,0:0:0:0:
502,156,76940,6,0,P|476:133|442:125,1,70,6|0,0:0|0:0,0:0:0:0:
352,133,77308,1,2,0:0:0:0:
289,67,77492,2,0,P|256:59|222:68,1,70,2|0,0:0|0:0,0:0:0:0:
160,133,77860,1,2,0:0:0:0:
69,125,78044,6,0,P|35:133|9:156,1,70,2|0,0:0|0:0,0:0:0:0:
0,246,78412,1,2,0:0:0:0:
66,309,78596,2,0,L|87:242,1,70,2|0,0:0|0:0,0:0:0:0:
144,171,78964,1,2,0:0:0:0:
193,247,79149,6,0,P|217:271|250:281,1,70,12|0,0:0|0:0,0:0:0:0:
321,337,79517,2,0,P|297:361|264:371,1,70,12|0,0:0|0:0,0:0:0:0:
174,358,79885,5,10,0:0:0:0:
110,292,80069,1,10,0:0:0:0:
99,200,80253,1,10,0:0:0:0:
147,121,80437,2,0,P|176:102|210:99,1,70,10|0,0:0|0:0,0:0:0:0:
300,115,80805,1,10,0:0:0:0:
260,33,80989,6,0,P|192:16|126:36,1,140,10|0,0:0|0:0,0:0:0:0:
78,115,81541,2,0,L|147:121,1,70,10|0,0:0|0:0,0:0:0:0:
237,132,81909,1,10,0:0:0:0:
182,205,82093,1,10,0:0:0:0:
273,362,82461,1,4,0:0:0:0:
312,184,82829,5,10,0:0:0:0:
378,246,83013,1,10,0:0:0:0:
292,273,83198,1,10,0:0:0:0:
312,184,83382,2,0,P|317:150|305:117,1,70,10|0,0:0|0:0,0:0:0:0:
247,46,83750,1,10,0:0:0:0:
173,100,83934,6,0,P|93:127|15:104,1,140,10|0,0:0|0:0,0:0:0:0:
20,213,84486,2,0,L|79:250,1,70,10|0,0:0|0:0,0:0:0:0:
158,294,84854,1,10,0:0:0:0:
82,344,85038,1,14,0:0:0:0:
83,254,85222,1,10,0:0:0:0:
152,195,85406,2,0,P|159:161|151:127,1,70,2|0,0:0|0:0,0:0:0:0:
66,95,85774,6,0,L|80:163,1,70
82,253,86142,2,0,P|108:277|142:284,1,70,2|0,0:0|0:0,0:0:0:0:
227,254,86510,2,0,L|245:322,1,70,2|0,0:0|0:0,0:0:0:0:
333,297,86879,2,0,L|315:229,1,70,2|0,0:0|0:0,0:0:0:0:
250,165,87247,5,2,0:0:0:0:
338,141,87431,1,0,0:0:0:0:
403,204,87615,2,0,L|421:272,1,70,2|0,0:0|0:0,0:0:0:0:
398,360,87983,1,2,0:0:0:0:
486,336,88167,1,0,0:0:0:0:
508,246,88351,2,0,L|490:178,1,70,2|0,0:0|0:0,0:0:0:0:
424,115,88719,6,0,P|392:103|356:109,1,70,2|0,0:0|0:0,0:0:0:0:
346,12,89087,2,0,P|372:31|387:63,1,70,2|0,0:0|0:0,0:0:0:0:
284,94,89455,2,0,P|256:73|241:41,1,70,2|0,0:0|0:0,0:0:0:0:
154,88,89823,2,0,P|185:98|220:92,1,70,2|0,0:0|0:0,0:0:0:0:
270,177,90191,6,0,L|263:247,1,70,2|0,0:0|0:0,0:0:0:0:
260,342,90560,1,2,0:0:0:0:
260,342,90744,1,0,0:0:0:0:
348,321,90928,2,0,L|415:302,1,70,2|0,0:0|0:0,0:0:0:0:
507,284,91297,1,2,0:0:0:0:
507,284,91481,1,0,0:0:0:0:
446,216,91664,5,2,0:0:0:0:
430,34,92032,2,0,P|429:67|411:97,1,70,2|0,0:0|0:0,0:0:0:0:
319,107,92400,2,0,L|274:53,1,70,2|0,0:0|0:0,0:0:0:0:
186,78,92768,2,0,L|118:96,1,70,2|0,0:0|0:0,0:0:0:0:
83,179,93136,5,2,0:0:0:0:
106,267,93320,1,0,0:0:0:0:
190,232,93504,2,0,P|188:197|172:166,1,70,2|0,0:0|0:0,0:0:0:0:
136,85,93872,1,2,0:0:0:0:
56,130,94056,1,0,0:0:0:0:
114,200,94240,2,0,P|147:190|172:166,1,70,2|0,0:0|0:0,0:0:0:0:
247,113,94609,6,0,L|247:189,1,70,2|0,0:0|0:0,0:0:0:0:
349,158,94977,2,0,L|311:223,1,70,2|0,0:0|0:0,0:0:0:0:
415,248,95345,2,0,L|349:286,1,70,2|0,0:0|0:0,0:0:0:0:
427,359,95713,2,0,L|351:359,1,70,2|0,0:0|0:0,0:0:0:0:
252,348,96081,5,2,0:0:0:0:
184,267,96265,1,0,0:0:0:0:
247,183,96449,2,0,L|302:249,1,70,2|0,0:0|0:0,0:0:0:0:
385,283,96817,1,2,0:0:0:0:
366,178,97001,1,0,0:0:0:0:
463,137,97185,2,0,L|477:222,1,70,2|0,0:0|0:0,0:0:0:0:
472,310,97553,5,6,0:0:0:0:
385,283,97737,1,6,0:0:0:0:
