osu file format v14

[General]
AudioFilename: Qrispy Joybox - [Reflec Beat limelight ORIGINAL SOUNDTRACK].mp3
AudioLeadIn: 2000
PreviewTime: 61762
Countdown: 0
SampleSet: Soft
StackLeniency: 0.7
Mode: 0
LetterboxInBreaks: 0
WidescreenStoryboard: 0

[Editor]
Bookmarks: 6377,18156,21101,32880,44659,56438,62328,74107,85886,97665
DistanceSpacing: 1
BeatDivisor: 2
GridSize: 4
TimelineZoom: 0.9

[Metadata]
Title:Sorairo concerto
TitleUnicode:空色コンチェルト
Artist:Qrispy Joybox
ArtistUnicode:Qrispy Joybox
Creator:pinataman
Version:Easy
Source:REFLEC BEAT limelight
Tags:Konami rhythm game Tatsuya Iyama Twinkle World plus Jusenkyo
BeatmapID:860413
BeatmapSetID:377582

[Difficulty]
HPDrainRate:2
CircleSize:2.5
OverallDifficulty:2
ApproachRate:3
SliderMultiplier:0.9
SliderTickRate:1

[Events]
//Background and Video events
0,0,"background.jpg",0,0
//Break Periods
//Storyboard Layer 0 (Background)
//Storyboard Layer 1 (Fail)
//Storyboard Layer 2 (Pass)
//Storyboard Layer 3 (Foreground)
//Storyboard Sound Samples

[TimingPoints]
376,368.098159509202,4,2,1,60,1,0
6265,-100,4,1,1,60,0,0
43627,-100,4,1,1,40,0,0
43811,-100,4,1,1,45,0,0
53382,-100,4,1,1,50,0,0
56510,-100,4,2,1,35,0,0
57615,-100,4,2,1,45,0,0
59087,-100,4,2,1,55,0,0
60560,-100,4,2,1,65,0,0
61848,-100,4,1,1,65,0,0
62216,-100,4,1,1,70,0,1
85774,-100,4,1,1,70,0,0

[Colours]
Combo1 : 65,235,120
Combo2 : 89,238,198
Combo3 : 74,208,232
Combo4 : 95,106,214

[HitObjects]
244,357,376,6,0,L|234:245,1,90,0|2,0:0|0:0,0:0:0:0:
182,196,1112,2,0,P|187:151|211:113,1,90,2|2,0:0|0:0,0:0:0:0:
300,97,1848,1,2,0:0:0:0:
375,149,2216,2,0,L|486:139,2,90,2|2|2,0:0|0:0|0:0,0:0:0:0:
311,212,3320,5,2,0:0:0:0:
234,166,3688,2,0,P|195:145|149:144,1,90,2|2,0:0|0:0,0:0:0:0:
85,205,4424,1,2,0:0:0:0:
110,290,4792,2,0,P|148:266|171:228,1,90,2|2,0:0|0:0,0:0:0:0:
234,166,5529,2,0,P|277:174|312:202,1,90,2|0,0:0|0:0,0:0:0:0:
383,259,6265,6,0,P|451:257|501:188,1,135,4|8,0:0|0:0,0:0:0:0:
450,84,7369,2,0,P|385:95|330:58,1,135,4|8,0:0|0:0,0:0:0:0:
195,56,8474,2,0,P|153:71|123:104,1,90,12|4,0:0|0:0,0:0:0:0:
87,187,9210,5,8,0:0:0:0:
203,253,9762,1,8,0:0:0:0:
135,370,10314,1,8,0:0:0:0:
20,303,10866,1,8,0:0:0:0:
87,187,11418,2,0,P|120:156|162:143,1,90,12|12,0:0|0:0,0:0:0:0:
238,193,12155,6,0,P|302:213|366:193,2,135,2|2|2,0:0|0:0|0:0,0:0:0:0:
116,134,13811,1,2,0:0:0:0:
175,66,14179,2,0,L|205:32,1,45,2|2,0:0|0:0,0:0:0:0:
351,140,15099,6,0,P|390:193|394:259,2,135,2|2|2,0:0|0:0|0:0,0:0:0:0:
216,121,16756,1,2,0:0:0:0:
225,210,17124,2,0,P|234:230|251:244,1,45,2|2,0:0|0:0,0:0:0:0:
122,371,18044,6,0,P|72:325|58:260,1,135,12|8,0:0|0:0,0:0:0:0:
125,144,19149,2,0,L|159:274,1,135,8|8,0:0|0:0,0:0:0:0:
274,345,20253,2,0,P|302:337|336:318,1,45,12|0,0:0|0:0,0:0:0:0:
395,221,20989,6,0,P|444:175|510:165,2,135,12|8|8,0:0|0:0|0:0,0:0:0:0:
301,318,22645,2,0,P|235:333|173:308,1,135,8|0,0:0|0:0,0:0:0:0:
130,230,23566,1,0,0:0:0:0:
140,141,23934,6,0,P|183:90|247:73,2,135,12|8|8,0:0|0:0|0:0,0:0:0:0:
255,207,25590,2,0,P|319:189|362:139,1,135,8|0,0:0|0:0,0:0:0:0:
337,52,26510,1,0,0:0:0:0:
247,73,26879,6,0,L|158:174,2,135,12|8|8,0:0|0:0|0:0,0:0:0:0:
382,73,28535,2,0,P|424:123|430:190,1,135,8|0,0:0|0:0,0:0:0:0:
406,276,29455,1,0,0:0:0:0:
316,277,29823,5,14,0:0:0:0:
215,188,30375,1,2,0:0:0:0:
188,320,30928,1,2,0:0:0:0:
316,277,31480,2,0,B|349:255|350:219|350:219|350:183|381:165,1,135,2|0,0:0|0:0,0:0:0:0:
418,83,32400,1,2,0:0:0:0:
328,92,32768,6,0,P|264:76|218:28,2,135,12|8|8,0:0|0:0|0:0,0:0:0:0:
425,186,34425,2,0,P|370:225|304:224,1,135,8|0,0:0|0:0,0:0:0:0:
238,163,35345,1,0,0:0:0:0:
149,179,35713,6,0,L|115:309,2,135,12|8|8,0:0|0:0|0:0,0:0:0:0:
199,53,37369,2,0,P|263:35|325:58,1,135,8|0,0:0|0:0,0:0:0:0:
347,145,38290,1,0,0:0:0:0:
258,163,38658,6,0,P|254:229|289:284,2,135,12|8|8,0:0|0:0|0:0,0:0:0:0:
203,41,40314,2,0,P|136:32|77:63,1,135,8|0,0:0|0:0,0:0:0:0:
72,153,41234,1,0,0:0:0:0:
161,169,41602,5,6,0:0:0:0:
274,95,42155,1,2,0:0:0:0:
385,168,42707,1,2,0:0:0:0:
326,289,43259,2,0,P|273:247|252:184,1,135,2|0,0:0|0:0,0:0:0:0:
119,65,44547,6,0,B|95:107|130:145|130:145|200:230|130:311,1,270,2|0,0:0|0:0,0:0:0:0:
47,275,46020,2,0,B|54:169|164:159|164:159|215:156|228:110,1,270,2|0,0:0|0:0,0:0:0:0:
313,80,47492,6,0,B|375:115|377:189|377:189|315:208|301:291,1,270,2|0,0:0|0:0,0:0:0:0:
210,291,48964,2,0,B|197:208|134:189|134:189|136:115|199:80,1,270,2|0,0:0|0:0,0:0:0:0:
259,147,50437,6,0,P|291:196|313:284,2,135,2|0|0,0:0|0:0|0:0,0:0:0:0:
335,101,51909,2,0,P|367:150|397:243,2,135,2|0|0,0:0|0:0|0:0,0:0:0:0:
256,58,53382,6,0,P|214:71|182:101,1,90,2|0,0:0|0:0,0:0:0:0:
184,192,54118,2,0,P|225:178|257:148,1,90,2|0,0:0|0:0,0:0:0:0:
335,101,54854,1,2,0:0:0:0:
424,98,55222,2,0,P|468:105|504:132,1,90,2|0,0:0|0:0,0:0:0:0:
392,324,56510,6,0,B|321:347|264:306|264:306|207:264|136:288,1,270,0|2,0:0|0:0,0:0:0:0:
80,216,57983,2,0,P|214:191|335:244,1,270,0|2,0:0|0:0,0:0:0:0:
424,243,59455,6,0,P|499:156|403:47,1,270,0|2,0:0|0:0,0:0:0:0:
328,54,60928,2,0,B|280:95|287:153|287:153|293:212|247:254,1,225
162,282,62216,5,2,0:0:0:0:
96,220,62584,1,2,0:0:0:0:
120,133,62952,2,0,P|159:111|203:109,1,90,2|0,0:0|0:0,0:0:0:0:
293,102,63688,2,0,L|324:17,2,90,2|2|6,0:0|0:0|0:0,0:0:0:0:
324,186,64793,1,6,0:0:0:0:
249,236,65161,6,0,B|241:273|249:306|249:306|258:340|249:369,2,135,2|2|2,0:0|0:0|0:0,0:0:0:0:
272,103,66817,1,2,0:0:0:0:
138,108,67369,2,0,P|116:147|114:191,1,90,4|4,0:0|0:0,0:0:0:0:
110,280,68106,6,0,P|49:252|23:192,1,135,14|10,0:0|0:0,0:0:0:0:
59,61,69209,2,0,P|110:19|175:23,1,135,10|10,0:0|0:0,0:0:0:0:
239,89,70130,2,0,P|266:91|297:80,1,45,10|10,0:0|0:0,0:0:0:0:
363,46,70682,1,4,0:0:0:0:
407,124,71050,6,0,L|372:254,1,135,8|10,0:0|0:0,0:0:0:0:
253,318,72155,2,0,P|233:254|252:190,1,135,10|10,0:0|0:0,0:0:0:0:
293,110,73075,2,0,L|271:28,1,45,10|10,0:0|0:0,0:0:0:0:
204,19,73627,1,0,0:0:0:0:
140,83,73995,5,6,0:0:0:0:
164,170,74363,1,2,0:0:0:0:
251,191,74731,2,0,P|293:204|326:234,1,90,2|0,0:0|0:0,0:0:0:0:
249,281,75468,2,0,L|141:281,2,90,2|2|6,0:0|0:0|0:0,0:0:0:0:
329,324,76572,1,6,0:0:0:0:
418,315,76940,6,0,P|477:285|508:226,2,135,2|2|2,0:0|0:0|0:0,0:0:0:0:
299,248,78596,1,2,0:0:0:0:
292,113,79149,2,4,P|248:120|211:146,1,90
175,227,79885,6,0,P|142:286|83:317,1,135,10|10,0:0|0:0,0:0:0:0:
49,190,80989,2,0,L|144:94,1,135,10|10,0:0|0:0,0:0:0:0:
228,132,81909,2,0,L|261:163,1,45,10|10,0:0|0:0,0:0:0:0:
347,190,82461,1,4,0:0:0:0:
436,163,82829,6,0,P|393:112|329:102,1,135,10|10,0:0|0:0,0:0:0:0:
245,208,83934,2,0,P|178:199|136:150,1,135,10|10,0:0|0:0,0:0:0:0:
107,65,84854,2,0,L|153:60,1,45,10|10,0:0|0:0,0:0:0:0:
223,115,85406,1,0,0:0:0:0:
295,61,85774,5,0,0:0:0:0:
384,62,86142,2,0,L|461:107,1,90,2|2,0:0|0:0,0:0:0:0:
505,185,86879,1,2,0:0:0:0:
462,263,87247,2,0,L|384:308,2,90,2|2|2,0:0|0:0|0:0,0:0:0:0:
418,185,88351,1,2,0:0:0:0:
328,185,88719,6,0,L|224:185,1,90,2|2,0:0|0:0,0:0:0:0:
159,228,89455,2,0,P|149:184|159:140,1,90,2|2,0:0|0:0,0:0:0:0:
204,63,90191,1,2,0:0:0:0:
114,62,90560,1,2,0:0:0:0:
69,141,90928,2,0,P|59:184|69:228,1,90,2|2,0:0|0:0,0:0:0:0:
114,306,91664,5,2,0:0:0:0:
201,285,92032,2,0,P|245:286|286:307,1,90,2|2,0:0|0:0,0:0:0:0:
355,363,92769,1,2,0:0:0:0:
439,332,93136,2,0,P|476:307|500:270,2,90,2|2|2,0:0|0:0|0:0,0:0:0:0:
370,274,94241,1,2,0:0:0:0:
301,216,94609,6,0,L|331:103,1,90,2|2,0:0|0:0,0:0:0:0:
411,108,95345,2,0,L|387:21,1,90,2|2,0:0|0:0,0:0:0:0:
298,12,96081,1,2,0:0:0:0:
219,55,96450,1,2,0:0:0:0:
168,129,96817,2,0,P|125:139|80:129,1,90,2|2,0:0|0:0,0:0:0:0:
17,66,97553,6,0,L|5:23,1,45,6|6,0:0|0:0,0:0:0:0:
