osu file format v14

[General]
AudioFilename: printemps _ qrispy joybox.mp3
AudioLeadIn: 0
PreviewTime: 17729
Countdown: 0
SampleSet: Soft
StackLeniency: 0.7
Mode: 3
LetterboxInBreaks: 0
SpecialStyle: 0
WidescreenStoryboard: 1

[Editor]
DistanceSpacing: 0.6
BeatDivisor: 4
GridSize: 4
TimelineZoom: 2.2

[Metadata]
Title:Printemps
TitleUnicode:Printemps
Artist:Qrispy Joybox
ArtistUnicode:Qrispy Joybox
Creator:suryaanoragajy
Version:Another
Source:REFLEC BEAT colette -Spring-
Tags:
BeatmapID:857302
BeatmapSetID:393358

[Difficulty]
HPDrainRate:8.5
CircleSize:4
OverallDifficulty:9
ApproachRate:5
SliderMultiplier:1.4
SliderTickRate:1

[Events]
//Background and Video events
0,0,"Spring-Nature-Wallpaper.jpg",0,0
//Break Periods
//Storyboard Layer 0 (Background)
//Storyboard Layer 1 (Fail)
//Storyboard Layer 2 (Pass)
//Storyboard Layer 3 (Foreground)
//Storyboard Sound Samples

[TimingPoints]
587,357.142857142857,4,2,0,40,1,0
17729,-100,4,2,0,40,0,1
28801,-100,4,2,0,40,0,0
80586,-100,4,2,0,40,0,1
97372,-100,4,2,0,40,0,0

[HitObjects]
64,192,587,5,0,0:0:0:0:
320,192,587,1,0,0:0:0:0:
192,192,765,1,0,0:0:0:0:
320,192,944,1,0,0:0:0:0:
448,192,944,1,0,0:0:0:0:
64,192,1301,1,0,0:0:0:0:
448,192,1301,1,0,0:0:0:0:
192,192,1479,1,0,0:0:0:0:
320,192,1658,1,0,0:0:0:0:
64,192,1658,1,0,0:0:0:0:
192,192,1836,1,0,0:0:0:0:
64,192,2015,1,0,0:0:0:0:
192,192,2194,1,0,0:0:0:0:
448,192,2194,1,0,0:0:0:0:
320,192,2372,1,0,0:0:0:0:
64,192,2551,1,0,0:0:0:0:
192,192,2551,1,0,0:0:0:0:
320,192,2729,1,0,0:0:0:0:
448,192,2729,1,0,0:0:0:0:
192,192,2908,1,0,0:0:0:0:
320,192,3086,1,0,0:0:0:0:
64,192,3444,1,0,0:0:0:0:
320,192,3444,1,0,0:0:0:0:
448,192,3444,1,0,0:0:0:0:
192,192,3622,1,0,0:0:0:0:
320,192,3801,1,0,0:0:0:0:
64,192,3801,1,0,0:0:0:0:
192,192,4158,1,0,0:0:0:0:
320,192,4158,1,0,0:0:0:0:
320,192,4336,1,0,0:0:0:0:
448,192,4515,1,0,0:0:0:0:
64,192,4515,1,0,0:0:0:0:
192,192,4694,1,0,0:0:0:0:
448,192,4694,1,0,0:0:0:0:
320,192,4872,1,0,0:0:0:0:
64,192,4872,1,0,0:0:0:0:
448,192,5051,1,0,0:0:0:0:
320,192,5051,1,0,0:0:0:0:
320,192,5229,1,0,0:0:0:0:
64,192,5229,1,0,0:0:0:0:
192,192,5408,1,0,0:0:0:0:
320,192,5586,1,0,0:0:0:0:
448,192,5586,1,0,0:0:0:0:
192,192,5765,1,0,0:0:0:0:
192,192,5944,1,0,0:0:0:0:
320,192,5944,1,0,0:0:0:0:
64,192,6301,1,0,0:0:0:0:
192,192,6301,1,0,0:0:0:0:
448,192,6301,1,0,0:0:0:0:
320,192,6479,1,0,0:0:0:0:
192,192,6658,1,0,0:0:0:0:
448,192,6658,1,0,0:0:0:0:
64,192,6836,1,0,0:0:0:0:
320,192,7015,1,0,0:0:0:0:
448,192,7015,1,0,0:0:0:0:
192,192,7194,1,0,0:0:0:0:
448,192,7372,1,0,0:0:0:0:
64,192,7372,1,0,0:0:0:0:
192,192,7551,1,0,0:0:0:0:
320,192,7729,1,0,0:0:0:0:
448,192,7729,1,0,0:0:0:0:
192,192,7908,1,0,0:0:0:0:
64,192,8086,1,0,0:0:0:0:
448,192,8086,1,0,0:0:0:0:
320,192,8265,1,0,0:0:0:0:
64,192,8444,1,0,0:0:0:0:
320,192,8444,1,0,0:0:0:0:
192,192,8622,1,0,0:0:0:0:
448,192,8622,1,0,0:0:0:0:
320,192,8801,1,0,0:0:0:0:
64,192,9158,1,0,0:0:0:0:
448,192,9158,1,0,0:0:0:0:
320,192,9158,1,0,0:0:0:0:
192,192,9336,1,0,0:0:0:0:
320,192,9515,1,0,0:0:0:0:
448,192,9515,1,0,0:0:0:0:
64,192,9872,1,0,0:0:0:0:
448,192,9872,1,0,0:0:0:0:
192,192,10051,1,0,0:0:0:0:
320,192,10229,1,0,0:0:0:0:
64,192,10229,1,0,0:0:0:0:
192,192,10408,1,0,0:0:0:0:
320,192,10586,1,0,0:0:0:0:
448,192,10586,1,0,0:0:0:0:
192,192,10765,1,0,0:0:0:0:
64,192,10944,1,0,0:0:0:0:
320,192,10944,1,0,0:0:0:0:
192,192,11122,1,0,0:0:0:0:
320,192,11301,1,0,0:0:0:0:
320,192,11479,1,0,0:0:0:0:
64,192,11658,1,0,0:0:0:0:
192,192,11658,1,0,0:0:0:0:
448,192,11658,1,0,0:0:0:0:
64,192,12015,1,0,0:0:0:0:
320,192,12015,1,0,0:0:0:0:
448,192,12015,1,0,0:0:0:0:
192,192,12104,1,0,0:0:0:0:
320,192,12194,1,0,0:0:0:0:
192,192,12283,1,0,0:0:0:0:
320,192,12372,1,0,0:0:0:0:
64,192,12372,1,0,0:0:0:0:
448,192,12551,1,0,0:0:0:0:
192,192,12551,1,0,0:0:0:0:
320,192,12640,1,0,0:0:0:0:
192,192,12729,1,0,0:0:0:0:
320,192,12819,1,0,0:0:0:0:
192,192,12908,1,0,0:0:0:0:
448,192,12908,1,0,0:0:0:0:
64,192,13086,1,0,0:0:0:0:
448,192,13086,1,0,0:0:0:0:
192,192,13176,1,0,0:0:0:0:
320,192,13265,1,0,0:0:0:0:
192,192,13354,1,0,0:0:0:0:
320,192,13444,1,0,0:0:0:0:
64,192,13444,1,0,0:0:0:0:
192,192,13533,1,0,0:0:0:0:
320,192,13622,1,0,0:0:0:0:
192,192,13711,1,0,0:0:0:0:
64,192,13801,1,0,0:0:0:0:
320,192,13801,1,0,0:0:0:0:
448,192,13801,1,0,0:0:0:0:
192,192,13979,1,0,0:0:0:0:
448,192,13979,1,0,0:0:0:0:
64,192,14158,1,0,0:0:0:0:
192,192,14158,1,0,0:0:0:0:
448,192,14158,1,0,0:0:0:0:
192,192,14336,1,0,0:0:0:0:
320,192,14336,1,0,0:0:0:0:
64,192,14515,1,0,0:0:0:0:
320,192,14515,1,0,0:0:0:0:
448,192,14515,1,0,0:0:0:0:
192,192,14694,1,0,0:0:0:0:
64,192,14872,1,0,0:0:0:0:
448,192,14872,1,0,0:0:0:0:
192,192,15051,1,0,0:0:0:0:
64,192,15229,1,0,0:0:0:0:
320,192,15229,1,0,0:0:0:0:
192,192,15408,1,0,0:0:0:0:
64,192,15586,1,0,0:0:0:0:
320,192,15586,1,0,0:0:0:0:
448,192,15586,1,0,0:0:0:0:
320,192,15765,1,0,0:0:0:0:
192,192,15944,1,0,0:0:0:0:
448,192,15944,1,0,0:0:0:0:
320,192,16122,1,0,0:0:0:0:
64,192,16301,1,0,0:0:0:0:
320,192,16301,1,0,0:0:0:0:
192,192,16479,1,0,0:0:0:0:
64,192,16658,1,0,0:0:0:0:
192,192,16658,1,0,0:0:0:0:
448,192,16658,1,0,0:0:0:0:
320,192,16836,1,0,0:0:0:0:
64,192,17015,1,0,0:0:0:0:
448,192,17015,1,0,0:0:0:0:
192,192,17194,1,0,0:0:0:0:
320,192,17194,1,0,0:0:0:0:
448,192,17194,1,0,0:0:0:0:
64,192,17194,1,0,0:0:0:0:
64,192,17372,1,0,0:0:0:0:
192,192,17372,1,0,0:0:0:0:
320,192,17372,1,0,0:0:0:0:
448,192,17372,1,0,0:0:0:0:
64,192,17729,1,0,0:0:0:0:
192,192,17729,1,0,0:0:0:0:
448,192,17729,1,0,0:0:0:0:
320,192,17819,1,0,0:0:0:0:
192,192,17908,1,0,0:0:0:0:
320,192,17997,1,0,0:0:0:0:
192,192,18086,1,0,0:0:0:0:
448,192,18086,1,0,0:0:0:0:
320,192,18176,1,0,0:0:0:0:
192,192,18265,1,0,0:0:0:0:
64,192,18354,1,0,0:0:0:0:
320,192,18354,1,0,0:0:0:0:
192,192,18444,1,0,0:0:0:0:
448,192,18444,1,0,0:0:0:0:
320,192,18533,1,0,0:0:0:0:
192,192,18622,1,0,0:0:0:0:
64,192,18711,1,0,0:0:0:0:
192,192,18801,1,0,0:0:0:0:
320,192,18890,1,0,0:0:0:0:
192,192,18979,1,0,0:0:0:0:
320,192,19069,1,0,0:0:0:0:
448,192,19158,1,0,0:0:0:0:
64,192,19158,1,0,0:0:0:0:
320,192,19247,1,0,0:0:0:0:
192,192,19336,1,0,0:0:0:0:
320,192,19426,1,0,0:0:0:0:
448,192,19515,1,0,0:0:0:0:
64,192,19515,1,0,0:0:0:0:
192,192,19515,1,0,0:0:0:0:
192,192,19694,1,0,0:0:0:0:
320,192,19694,1,0,0:0:0:0:
320,192,19872,1,0,0:0:0:0:
448,192,19872,1,0,0:0:0:0:
64,192,20051,1,0,0:0:0:0:
448,192,20051,1,0,0:0:0:0:
64,192,20229,1,0,0:0:0:0:
320,192,20229,1,0,0:0:0:0:
448,192,20229,1,0,0:0:0:0:
192,192,20408,1,0,0:0:0:0:
320,192,20408,1,0,0:0:0:0:
64,192,20586,1,0,0:0:0:0:
320,192,20586,1,0,0:0:0:0:
448,192,20586,1,0,0:0:0:0:
192,192,20676,1,0,0:0:0:0:
320,192,20765,1,0,0:0:0:0:
192,192,20854,1,0,0:0:0:0:
320,192,20944,1,0,0:0:0:0:
64,192,20944,1,0,0:0:0:0:
320,192,21122,1,0,0:0:0:0:
192,192,21122,1,0,0:0:0:0:
320,192,21301,1,0,0:0:0:0:
64,192,21301,1,0,0:0:0:0:
320,192,21479,1,0,0:0:0:0:
448,192,21479,1,0,0:0:0:0:
192,192,21658,1,0,0:0:0:0:
64,192,21658,1,0,0:0:0:0:
192,192,21836,1,0,0:0:0:0:
192,192,22015,1,0,0:0:0:0:
448,192,22015,1,0,0:0:0:0:
64,192,22015,1,0,0:0:0:0:
320,192,22194,1,0,0:0:0:0:
64,192,22194,1,0,0:0:0:0:
192,192,22372,1,0,0:0:0:0:
320,192,22551,1,0,0:0:0:0:
64,192,22551,1,0,0:0:0:0:
448,192,22551,1,0,0:0:0:0:
320,192,22729,1,0,0:0:0:0:
192,192,22819,1,0,0:0:0:0:
64,192,22908,1,0,0:0:0:0:
320,192,22908,1,0,0:0:0:0:
192,192,22997,1,0,0:0:0:0:
64,192,23086,1,0,0:0:0:0:
320,192,23086,1,0,0:0:0:0:
448,192,23086,1,0,0:0:0:0:
192,192,23176,1,0,0:0:0:0:
64,192,23265,1,0,0:0:0:0:
320,192,23265,1,0,0:0:0:0:
64,192,23444,1,0,0:0:0:0:
192,192,23444,1,0,0:0:0:0:
320,192,23444,1,0,0:0:0:0:
448,192,23444,1,0,0:0:0:0:
320,192,23622,1,0,0:0:0:0:
448,192,23622,1,0,0:0:0:0:
64,192,23801,1,0,0:0:0:0:
320,192,23801,1,0,0:0:0:0:
192,192,23979,1,0,0:0:0:0:
320,192,24158,1,0,0:0:0:0:
448,192,24158,1,0,0:0:0:0:
192,192,24336,1,0,0:0:0:0:
320,192,24515,1,0,0:0:0:0:
64,192,24515,1,0,0:0:0:0:
192,192,24694,1,0,0:0:0:0:
64,192,24872,1,0,0:0:0:0:
448,192,24872,1,0,0:0:0:0:
448,192,25051,1,0,0:0:0:0:
192,192,25051,1,0,0:0:0:0:
448,192,25229,1,0,0:0:0:0:
320,192,25229,1,0,0:0:0:0:
192,192,25408,1,0,0:0:0:0:
320,192,25586,1,0,0:0:0:0:
64,192,25586,1,0,0:0:0:0:
448,192,25765,1,0,0:0:0:0:
320,192,25765,1,0,0:0:0:0:
320,192,25944,1,0,0:0:0:0:
192,192,26122,1,0,0:0:0:0:
448,192,26122,1,0,0:0:0:0:
64,192,26301,1,0,0:0:0:0:
448,192,26301,1,0,0:0:0:0:
192,192,26390,1,0,0:0:0:0:
320,192,26390,1,0,0:0:0:0:
64,192,26479,1,0,0:0:0:0:
448,192,26479,1,0,0:0:0:0:
64,192,26658,1,0,0:0:0:0:
192,192,26658,1,0,0:0:0:0:
448,192,26658,1,0,0:0:0:0:
192,192,26836,1,0,0:0:0:0:
448,192,26836,1,0,0:0:0:0:
64,192,26926,1,0,0:0:0:0:
320,192,26926,1,0,0:0:0:0:
448,192,27015,1,0,0:0:0:0:
192,192,27015,1,0,0:0:0:0:
64,192,27104,1,0,0:0:0:0:
320,192,27104,1,0,0:0:0:0:
64,192,27283,1,0,0:0:0:0:
320,192,27283,1,0,0:0:0:0:
448,192,27283,1,0,0:0:0:0:
192,192,27461,1,0,0:0:0:0:
320,192,27461,1,0,0:0:0:0:
64,192,27551,1,0,0:0:0:0:
448,192,27551,1,0,0:0:0:0:
192,192,27640,1,0,0:0:0:0:
320,192,27640,1,0,0:0:0:0:
64,192,27729,1,0,0:0:0:0:
448,192,27729,1,0,0:0:0:0:
192,192,27819,1,0,0:0:0:0:
320,192,27819,1,0,0:0:0:0:
64,192,27908,1,0,0:0:0:0:
320,192,27908,1,0,0:0:0:0:
192,192,27997,1,0,0:0:0:0:
448,192,27997,1,0,0:0:0:0:
64,192,28086,1,0,0:0:0:0:
320,192,28086,1,0,0:0:0:0:
192,192,28176,1,0,0:0:0:0:
448,192,28176,1,0,0:0:0:0:
320,192,28265,1,0,0:0:0:0:
192,192,28354,1,0,0:0:0:0:
64,192,28444,1,0,0:0:0:0:
320,192,28444,1,0,0:0:0:0:
192,192,28533,1,0,0:0:0:0:
64,192,28622,1,0,0:0:0:0:
192,192,28711,1,0,0:0:0:0:
448,192,28711,1,0,0:0:0:0:
320,192,28801,1,0,0:0:0:0:
448,192,28890,1,0,0:0:0:0:
192,192,28890,1,0,0:0:0:0:
320,192,28979,1,0,0:0:0:0:
64,192,29158,1,0,0:0:0:0:
192,192,29158,1,0,0:0:0:0:
320,192,29158,1,0,0:0:0:0:
448,192,29158,1,0,0:0:0:0:
64,192,29694,1,0,0:0:0:0:
320,192,29694,1,0,0:0:0:0:
448,192,29694,1,0,0:0:0:0:
192,192,30229,1,0,0:0:0:0:
448,192,30229,1,0,0:0:0:0:
64,192,30765,1,0,0:0:0:0:
192,192,30765,1,0,0:0:0:0:
448,192,30765,1,0,0:0:0:0:
64,192,31301,1,0,0:0:0:0:
320,192,31301,1,0,0:0:0:0:
192,192,31479,1,0,0:0:0:0:
320,192,31658,1,0,0:0:0:0:
448,192,31836,1,0,0:0:0:0:
192,192,32015,1,0,0:0:0:0:
320,192,32015,1,0,0:0:0:0:
64,192,32015,1,0,0:0:0:0:
64,192,32372,1,0,0:0:0:0:
448,192,32372,1,0,0:0:0:0:
320,192,32372,1,0,0:0:0:0:
192,192,32729,1,0,0:0:0:0:
320,192,32729,1,0,0:0:0:0:
64,192,33086,1,0,0:0:0:0:
192,192,33086,1,0,0:0:0:0:
64,192,33444,1,0,0:0:0:0:
320,192,33444,1,0,0:0:0:0:
448,192,33444,1,0,0:0:0:0:
192,192,33801,1,0,0:0:0:0:
448,192,33801,1,0,0:0:0:0:
448,192,34158,1,0,0:0:0:0:
64,192,34158,1,0,0:0:0:0:
320,192,34247,1,0,0:0:0:0:
192,192,34336,1,0,0:0:0:0:
320,192,34426,1,0,0:0:0:0:
64,192,34426,1,0,0:0:0:0:
192,192,34515,1,0,0:0:0:0:
320,192,34604,1,0,0:0:0:0:
64,192,34604,1,0,0:0:0:0:
448,192,34694,1,0,0:0:0:0:
192,192,34694,1,0,0:0:0:0:
320,192,34783,1,0,0:0:0:0:
64,192,34872,1,0,0:0:0:0:
192,192,34872,1,0,0:0:0:0:
448,192,34872,1,0,0:0:0:0:
