osu file format v14

[General]
AudioFilename: audio.mp3
AudioLeadIn: 0
PreviewTime: 10513
Countdown: 0
SampleSet: Normal
StackLeniency: 0.3
Mode: 0
LetterboxInBreaks: 0
WidescreenStoryboard: 1

[Editor]
Bookmarks: 10513,15702,18297,24783,32567,35162,70513,76675,94837
DistanceSpacing: 1
BeatDivisor: 4
GridSize: 16
TimelineZoom: 2.299999

[Metadata]
Title:Ascalon
TitleUnicode:Ascalon
Artist:Qrispy Joybox
ArtistUnicode:Qrispy Joybox
Creator:InfinityGhost
Version:Insane
Source:beatmania IIDX 20 tricoro
Tags:
BeatmapID:1626445
BeatmapSetID:773761

[Difficulty]
HPDrainRate:5
CircleSize:4
OverallDifficulty:6
ApproachRate:9.1
SliderMultiplier:1.6
SliderTickRate:1

[Events]
//Background and Video events
0,0,"ascalon.jpg",0,0
//Break Periods
2,66334,69929
//Storyboard Layer 0 (Background)
//Storyboard Layer 1 (Fail)
//Storyboard Layer 2 (Pass)
//Storyboard Layer 3 (Foreground)
//Storyboard Layer 4 (Overlay)
//Storyboard Sound Samples

[TimingPoints]
135,324.324324324324,4,2,0,30,1,0
135,-100,4,2,0,20,0,0
4351,-100,4,2,0,10,0,0
4675,-100,4,2,0,20,0,0
4999,-100,4,2,0,30,0,0
5324,-100,4,1,0,30,0,0
10513,-100,4,1,0,30,0,0
14243,-133.333333333333,4,1,0,30,0,0
17486,-100,4,1,0,30,0,0
24783,-100,4,1,0,30,0,0
44080,-161.290322580645,4,1,0,30,0,0
45216,-133.333333333333,4,1,0,30,0,0
45540,-200,4,1,0,30,0,0
50729,-133.333333333333,4,1,0,30,0,0
63053,-117.647058823529,4,1,0,30,0,0
63702,-100,4,1,0,30,0,0
64351,-90.9090909090909,4,1,0,30,0,0
64999,-83.3333333333333,4,1,0,30,0,0
65648,-76.9230769230769,4,1,0,30,0,0
66297,-100,4,2,0,20,0,0
75216,-200,4,2,0,30,0,0
76675,-100,4,2,0,30,0,0
102621,-83.3333333333333,4,2,0,30,0,0

[HitObjects]
176,80,135,6,0,L|96:73,2,80
199,161,622,2,0,L|295:153,1,80
415,84,945,2,0,L|336:78,1,80
372,167,1270,2,0,P|381:224|340:264,1,120
292,261,1594,2,0,L|371:267,1,80
242,330,1918,2,0,P|215:301|205:263,1,80
148,210,2243,2,0,B|128:234|127:266|127:266|89:231|34:241,1,160
59,334,2729,5,0,0:0:0:0:
35,241,2891,1,0,0:0:0:0:
61,149,3053,1,0,0:0:0:0:
148,210,3216,2,0,P|186:220|225:211,1,80
148,210,3540,2,0,P|186:220|225:211,1,80
314,177,3864,2,0,B|331:216|314:255|314:255|296:294|313:332,1,160
402,369,4351,5,0,0:0:0:0:
420,361,4432,1,0,0:0:0:0:
436,350,4513,1,0,0:0:0:0:
449,334,4594,1,0,0:0:0:0:
457,316,4675,5,0,0:0:0:0:
460,296,4756,1,0,0:0:0:0:
458,277,4837,1,0,0:0:0:0:
451,258,4918,1,0,0:0:0:0:
440,242,4999,5,0,0:0:0:0:
400,248,5080,1,0,0:0:0:0:
361,253,5161,1,0,0:0:0:0:
321,245,5242,1,0,0:0:0:0:
282,237,5323,5,8,0:0:0:0:
232,93,5486,1,0,0:0:0:0:
282,237,5810,5,8,0:0:0:0:
206,222,6134,1,0,0:0:0:0:
332,178,6459,2,0,P|361:218|293:310,1,160,8|0,0:0|0:0,0:0:0:0:
206,222,6945,1,0,0:0:0:0:
332,178,7107,6,0,L|411:184,1,80,8|0,0:0|0:0,0:0:0:0:
343,94,7432,2,0,B|274:82|268:35|268:35|301:69|262:127,1,200,8|0,0:0|0:0,0:0:0:0:
223,150,7918,5,8,0:0:0:0:
352,9,8080,1,0,0:0:0:0:
410,192,8405,5,0,3:0:0:0:
223,150,8729,1,8,0:0:0:0:
410,192,9053,1,0,0:0:0:0:
410,192,9134,1,0,0:0:0:0:
410,192,9216,2,0,L|461:198,3,40
304,238,9540,2,0,L|253:244,3,40
382,293,9864,1,0,0:0:0:0:
304,238,10026,1,0,0:0:0:0:
297,334,10189,5,0,0:0:0:0:
257,340,10270,1,0,0:0:0:0:
218,345,10351,1,0,0:0:0:0:
178,337,10432,1,0,0:0:0:0:
139,329,10513,5,8,0:0:0:0:
217,241,10675,2,0,P|227:185|210:141,1,80,0|8,0:0|0:0,0:0:0:0:
137,117,10999,2,0,P|127:173|144:217,1,80
154,26,11324,2,0,P|191:40|219:69,1,80,0|8,0:0|0:0,0:0:0:0:
305,114,11648,2,0,B|325:73|308:36|308:36|335:45|372:39,1,120
348,198,11972,2,0,P|292:207|248:190,1,80,0|8,0:0|0:0,0:0:0:0:
137,117,12297,5,0,0:0:0:0:
404,121,12621,1,0,0:0:0:0:
404,121,12702,1,0,0:0:0:0:
404,121,12783,1,0,0:0:0:0:
346,41,12945,1,0,0:0:0:0:
348,198,13107,5,8,0:0:0:0:
232,174,13270,2,0,P|178:193|148:230,1,80,0|8,0:0|0:0,0:0:0:0:
164,303,13594,2,0,P|218:284|248:247,1,80
84,262,13918,2,0,P|74:300|79:339,1,80,0|8,0:0|0:0,0:0:0:0:
71,166,14243,2,0,B|48:138|48:138|65:98|51:56,1,120,12|0,0:0|0:0,0:0:0:0:
138,106,14729,5,0,0:0:0:0:
177,114,14810,1,0,0:0:0:0:
217,122,14891,1,0,0:0:0:0:
256,117,14972,1,0,0:0:0:0:
296,111,15053,5,0,0:0:0:0:
307,127,15134,1,0,0:0:0:0:
314,146,15215,1,0,0:0:0:0:
316,165,15296,1,0,0:0:0:0:
313,185,15377,5,0,0:0:0:0:
305,203,15458,1,0,0:0:0:0:
292,219,15539,1,0,0:0:0:0:
276,230,15620,1,0,0:0:0:0:
258,238,15702,5,8,0:0:0:0:
113,342,15864,2,0,L|172:337,1,60.0000022888184
254,298,16189,2,0,L|258:238,1,60.0000022888184
341,319,16513,2,0,L|345:378,1,60.0000022888184
417,277,16837,2,0,B|477:282|477:282|501:298,1,90.0000034332277
409,192,17162,2,0,L|404:132,1,60.0000022888184
393,36,17486,5,8,0:0:0:0:
340,245,17810,1,0,0:0:0:0:
393,36,18134,1,0,0:0:0:0:
316,94,18297,6,0,L|220:86,1,80
141,188,18621,2,0,L|221:182,1,80
84,110,18945,2,0,P|57:139|47:177,1,80
84,266,19270,2,0,L|78:346,1,80
179,253,19594,6,0,P|167:215|139:187,1,80
144,36,19918,6,0,P|155:74|184:102,1,80
179,253,20243,6,0,P|167:215|139:187,1,80
234,174,20567,2,0,L|314:168,1,80
409,158,20891,5,0,0:0:0:0:
372,246,21053,1,0,0:0:0:0:
313,168,21216,1,0,0:0:0:0:
350,80,21378,1,0,0:0:0:0:
433,155,21540,5,0,0:0:0:0:
377,287,21702,1,0,0:0:0:0:
289,170,21865,1,0,0:0:0:0:
344,38,22027,1,0,0:0:0:0:
451,153,22189,6,0,L|490:150,3,40
271,172,22513,2,0,L|231:169,3,40
377,287,22837,6,0,L|400:286,6,20
303,355,23162,2,0,L|280:354,6,20
281,255,23486,5,12,0:0:0:0:
281,255,24134,5,0,0:0:0:0:
281,255,24216,1,0,0:0:0:0:
281,255,24297,1,0,0:0:0:0:
281,255,24378,1,0,0:0:0:0:
281,255,24459,2,0,P|242:264|204:253,1,80
161,167,24783,6,0,L|65:159,1,80
27,240,25107,1,0,0:0:0:0:
123,248,25270,2,0,L|219:256,1,80
257,175,25594,1,0,0:0:0:0:
161,167,25756,6,0,L|65:159,1,80
27,240,26080,1,0,0:0:0:0:
123,248,26243,2,0,L|219:256,1,80
135,80,26567,5,0,0:0:0:0:
202,254,26891,1,0,0:0:0:0:
135,80,27216,1,0,0:0:0:0:
161,167,27378,6,0,L|257:175,1,80
295,94,27702,1,0,0:0:0:0:
419,184,27864,2,0,L|340:178,1,80
286,258,28188,1,0,0:0:0:0:
391,98,28351,5,0,0:0:0:0:
240,173,28513,1,0,0:0:0:0:
419,184,28675,6,0,P|428:222|417:260,1,80,8|0,0:0|0:0,0:0:0:0:
240,173,28999,2,0,P|230:134|241:96,1,80,8|0,0:0|0:0,0:0:0:0:
419,184,29324,2,0,P|428:222|417:260,1,80,8|0,0:0|0:0,0:0:0:0:
316,137,29648,1,0,0:0:0:0:
316,137,29810,1,0,0:0:0:0:
274,224,29972,6,0,L|178:232,1,80
140,151,30296,1,0,0:0:0:0:
236,143,30459,2,0,L|332:135,1,80
370,216,30783,1,0,0:0:0:0:
274,224,30945,6,0,L|178:232,1,80
140,151,31269,1,0,0:0:0:0:
236,143,31432,2,0,L|332:135,1,80
248,311,31756,5,0,0:0:0:0:
315,136,32080,1,0,0:0:0:0:
248,311,32405,1,0,0:0:0:0:
248,311,32567,5,0,0:0:0:0:
209,302,32648,1,0,0:0:0:0:
170,312,32729,1,0,0:0:0:0:
131,320,32810,1,0,0:0:0:0:
92,311,32891,2,0,P|69:303|49:279,1,40
98,206,33053,2,0,P|121:214|141:238,1,40
2,213,33216,5,0,0:0:0:0:
175,150,33378,1,0,0:0:0:0:
98,206,33540,1,0,0:0:0:0:
138,72,33702,2,0,B|176:55|215:73|215:73|254:90|293:73,1,160
387,52,34189,5,0,0:0:0:0:
405,60,34270,1,0,0:0:0:0:
421,71,34351,1,0,0:0:0:0:
434,87,34432,1,0,0:0:0:0:
442,105,34513,5,0,0:0:0:0:
445,125,34594,1,0,0:0:0:0:
443,144,34675,1,0,0:0:0:0:
436,163,34756,1,0,0:0:0:0:
425,179,34837,5,0,0:0:0:0:
385,173,34918,1,0,0:0:0:0:
346,168,34999,1,0,0:0:0:0:
306,176,35080,1,0,0:0:0:0:
267,184,35161,5,8,0:0:0:0:
182,230,35324,2,0,P|172:174|189:130,1,80,0|8,0:0|0:0,0:0:0:0:
262,106,35648,6,0,P|272:162|255:206,1,80
245,15,35972,2,0,P|208:29|180:58,1,80,0|8,0:0|0:0,0:0:0:0:
94,103,36297,2,0,B|74:62|91:25|91:25|64:34|27:28,1,120
51,187,36621,2,0,P|107:196|151:179,1,80,0|8,0:0|0:0,0:0:0:0:
262,106,36945,5,0,0:0:0:0:
128,190,37270,1,0,0:0:0:0:
262,106,37432,5,8,0:0:0:0:
221,192,37594,1,0,0:0:0:0:
221,192,37675,1,0,0:0:0:0:
221,192,37756,1,0,0:0:0:0:
262,106,37918,6,0,P|318:96|362:113,1,80,0|8,0:0|0:0,0:0:0:0:
385,185,38243,2,0,P|347:195|308:189,1,80
475,218,38567,2,0,P|481:179|471:141,1,80
385,184,38891,2,0,P|379:223|390:262,1,80
436,346,39216,6,0,P|380:356|336:339,1,80,0|8,0:0|0:0,0:0:0:0:
218,284,39540,2,0,P|274:274|318:291,1,80
265,370,39864,1,0,0:0:0:0:
218,284,40026,5,0,0:0:0:0:
207,245,40107,1,0,0:0:0:0:
213,206,40189,1,0,0:0:0:0:
223,167,40270,1,0,0:0:0:0:
217,128,40351,5,8,0:0:0:0:
290,190,40514,2,0,P|346:200|390:183,1,80,0|8,0:0|0:0,0:0:0:0:
414,110,40838,2,0,P|358:100|314:117,1,80
505,127,41162,2,0,P|491:164|462:192,1,80,0|8,0:0|0:0,0:0:0:0:
417,278,41487,2,0,B|458:298|495:281|495:281|486:308|492:345,1,120
333,321,41811,2,0,P|324:265|341:221,1,80,0|8,0:0|0:0,0:0:0:0:
462,191,42134,5,0,0:0:0:0:
329,243,42459,1,0,0:0:0:0:
462,191,42783,5,0,0:0:0:0:
297,152,42945,2,0,L|201:144,1,80
163,225,43269,1,0,0:0:0:0:
195,316,43432,6,0,L|291:324,1,80
329,243,43756,1,0,0:0:0:0:
297,152,43918,1,0,0:0:0:0:
412,285,44080,6,0,B|429:246|412:207|412:207|394:168|413:131|413:131|439:79|515:114|487:170,1,297.59998819336
329,242,45216,5,0,0:0:0:0:
299,239,45297,1,0,0:0:0:0:
269,237,45378,1,0,0:0:0:0:
239,234,45459,1,0,0:0:0:0:
209,232,45540,6,0,L|119:239,1,80
26,152,46026,2,0,L|106:159,1,80
209,232,46513,2,0,L|119:239,1,80
26,152,46999,2,0,L|106:159,1,80
106,119,47486,6,0,L|105:158,1,40
128,238,47810,2,0,L|128:278,1,40
185,181,48134,6,0,L|274:173,1,80
367,260,48620,2,0,L|287:253,1,80
437,218,49107,6,0,L|447:340,1,120
367,260,49756,1,0,0:0:0:0:
340,366,49918,1,0,0:0:0:0:
367,260,50080,5,0,0:0:0:0:
340,366,50242,1,0,0:0:0:0:
261,289,50405,1,0,0:0:0:0:
367,260,50567,1,0,0:0:0:0:
289,183,50729,6,0,L|199:175,1,90.0000034332277
163,173,51053,1,8,0:0:0:0:
57,84,51378,6,0,L|146:76,1,90.0000034332277
183,74,51702,1,8,0:0:0:0:
289,163,52026,6,0,L|199:155,1,90.0000034332277
163,153,52350,1,8,0:0:0:0:
162,324,52675,6,0,P|150:280|165:234,1,90.0000034332277
163,153,52999,2,0,P|174:196|160:243,1,90.0000034332277
233,281,53324,5,2,0:0:0:0:
92,195,53486,1,0,0:0:0:0:
236,115,53648,1,0,0:0:0:0:
137,278,53810,5,0,0:0:0:0:
141,113,53972,1,0,0:0:0:0:
282,198,54134,1,0,0:0:0:0:
92,195,54297,5,0,0:0:0:0:
233,281,54459,1,0,0:0:0:0:
236,115,54621,6,0,L|265:117,3,30.0000011444092
188,199,54945,2,0,L|158:201,3,30.0000011444092
233,281,55270,6,0,L|247:282,6,15.0000005722046
128,313,55594,2,0,L|113:314,6,15.0000005722046
318,354,55918,6,0,L|350:358,1,30.0000011444092
247,282,56080,2,0,L|215:286,1,30.0000011444092
345,257,56243,2,0,L|377:261,1,30.0000011444092
273,186,56405,2,0,L|241:190,1,30.0000011444092
376,164,56567,6,0,L|408:168,3,30.0000011444092
304,93,56891,1,0,0:0:0:0:
273,186,57053,1,0,0:0:0:0:
376,164,57216,2,0,L|408:168,1,30.0000011444092
304,93,57378,2,0,L|272:97,1,30.0000011444092
185,108,57540,1,0,0:0:0:0:
247,282,57702,1,0,0:0:0:0:
164,211,57864,6,0,P|134:201|102:203,1,60.0000022888184
164,211,58189,2,0,P|134:201|102:203,1,60.0000022888184
14,245,58513,5,0,0:0:0:0:
22,144,58675,1,0,0:0:0:0:
105,202,58837,2,0,L|109:234,1,30.0000011444092
113,101,58999,2,0,L|117:69,1,30.0000011444092
196,158,59162,2,0,P|239:169|286:155,1,90.0000034332277
297,122,59486,1,0,0:0:0:0:
389,166,59648,1,0,0:0:0:0:
397,65,59810,6,0,L|401:33,1,30.0000011444092
389,166,59972,2,0,L|393:198,1,30.0000011444092
405,284,60134,1,0,0:0:0:0:
231,222,60296,1,0,0:0:0:0:
305,293,60459,6,0,P|315:323|313:355,1,60.0000022888184
305,293,60784,2,0,P|315:323|313:355,1,60.0000022888184
205,320,61107,1,0,0:0:0:0:
231,222,61270,1,0,0:0:0:0:
134,249,61432,6,0,L|104:245,1,30.0000011444092
231,224,61594,2,0,L|260:220,1,30.0000011444092
159,156,61756,2,0,P|148:113|162:66,1,90.0000034332277
195,55,62080,1,0,0:0:0:0:
292,82,62243,1,0,0:0:0:0:
317,179,62405,6,0,L|313:211,1,30.0000011444092
292,82,62567,2,0,L|288:50,1,30.0000011444092
362,1,62729,1,0,0:0:0:0:
317,179,62891,1,0,0:0:0:0:
384,100,63053,2,0,P|432:87|485:103,1,102.000001945496
468,123,63378,2,0,P|454:171|467:220,1,102.000001945496
512,297,63702,6,0,L|352:313,1,160
79,288,64351,6,0,L|254:270,1,176.000005371094
348,201,64999,6,0,L|204:185,1,143.999995605469
129,179,65324,1,0,0:0:0:0:
329,85,65648,6,0,B|174:102|174:102|126:81|126:81|155:132|129:179,1,311.999985717774
50,126,70513,5,0,0:0:0:0:
58,108,70594,1,0,0:0:0:0:
69,92,70675,1,0,0:0:0:0:
85,79,70756,1,0,0:0:0:0:
103,71,70837,5,0,0:0:0:0:
123,68,70918,1,0,0:0:0:0:
142,70,70999,1,0,0:0:0:0:
161,77,71080,1,0,0:0:0:0:
177,88,71161,5,0,0:0:0:0:
171,128,71242,1,0,0:0:0:0:
166,167,71323,1,0,0:0:0:0:
174,207,71404,1,0,0:0:0:0:
182,246,71485,5,8,0:0:0:0:
326,296,71648,1,0,0:0:0:0:
182,246,71972,5,8,0:0:0:0:
326,296,72297,1,0,0:0:0:0:
182,246,72621,2,0,L|175:166,1,80
165,70,72945,1,0,0:0:0:0:
165,70,73107,1,0,0:0:0:0:
254,110,73270,2,0,P|281:139|291:177,1,80
348,230,73595,2,0,B|368:206|369:174|369:174|407:209|462:199,1,160
341,94,74080,5,0,0:0:0:0:
413,281,74243,1,0,0:0:0:0:
341,94,74567,5,0,0:0:0:0:
413,281,74891,1,0,0:0:0:0:
341,94,75216,2,0,B|302:77|263:94|263:94|224:112|186:95,1,160
150,62,76026,1,0,0:0:0:0:
223,19,76270,1,0,0:0:0:0:
150,62,76513,1,0,0:0:0:0:
301,168,76675,6,0,L|397:160,1,80
435,241,76999,1,0,0:0:0:0:
339,249,77162,2,0,L|243:257,1,80
205,176,77486,1,0,0:0:0:0:
301,168,77648,6,0,L|397:160,1,80
435,241,77972,1,0,0:0:0:0:
339,249,78135,2,0,L|243:257,1,80
327,81,78459,5,0,0:0:0:0:
260,255,78783,1,0,0:0:0:0:
327,81,79108,1,0,0:0:0:0:
301,168,79270,6,0,L|205:176,1,80
167,95,79594,1,0,0:0:0:0:
43,185,79756,2,0,L|122:179,1,80
176,259,80080,1,0,0:0:0:0:
71,99,80243,5,0,0:0:0:0:
222,174,80405,1,0,0:0:0:0:
43,185,80567,6,0,P|34:223|45:261,1,80,8|0,0:0|0:0,0:0:0:0:
222,174,80891,2,0,P|232:135|221:97,1,80,8|0,0:0|0:0,0:0:0:0:
43,185,81216,2,0,P|34:223|45:261,1,80,8|0,0:0|0:0,0:0:0:0:
146,138,81540,1,0,0:0:0:0:
146,138,81702,1,0,0:0:0:0:
188,225,81864,6,0,L|284:233,1,80
322,152,82188,1,0,0:0:0:0:
226,144,82351,2,0,L|130:136,1,80
92,217,82675,1,0,0:0:0:0:
188,225,82837,6,0,L|284:233,1,80
322,152,83161,1,0,0:0:0:0:
226,144,83324,2,0,L|130:136,1,80
214,312,83648,5,0,0:0:0:0:
147,137,83972,1,0,0:0:0:0:
214,312,84297,1,0,0:0:0:0:
214,312,84459,5,0,0:0:0:0:
253,303,84540,1,0,0:0:0:0:
292,313,84621,1,0,0:0:0:0:
331,321,84702,1,0,0:0:0:0:
370,312,84783,2,0,P|393:304|413:280,1,40
364,207,84945,2,0,P|341:215|321:239,1,40
460,214,85108,5,0,0:0:0:0:
287,151,85270,1,0,0:0:0:0:
364,207,85432,1,0,0:0:0:0:
324,73,85594,6,0,P|286:64|248:75,1,80,8|0,0:0|0:0,0:0:0:0:
201,148,85918,1,0,0:0:0:0:
150,224,86080,5,0,0:0:0:0:
112,232,86161,1,0,0:0:0:0:
74,221,86242,1,0,0:0:0:0:
48,192,86323,1,0,0:0:0:0:
39,153,86405,2,0,P|31:130|7:110,1,40
19,270,86567,2,0,P|27:293|51:313,1,40
112,232,86729,5,0,0:0:0:0:
150,223,86810,1,0,0:0:0:0:
188,234,86891,1,0,0:0:0:0:
214,263,86972,1,0,0:0:0:0:
223,303,87053,5,0,0:0:0:0:
150,223,87216,2,0,P|140:167|157:123,1,80,0|8,0:0|0:0,0:0:0:0:
230,99,87540,2,0,P|240:155|223:199,1,80
213,8,87865,2,0,P|176:22|148:51,1,80,0|8,0:0|0:0,0:0:0:0:
62,96,88189,2,0,B|42:55|59:18|59:18|32:27|-5:21,1,120
19,180,88513,2,0,P|75:189|119:172,1,80,0|8,0:0|0:0,0:0:0:0:
230,99,88837,1,0,0:0:0:0:
230,99,89162,5,0,0:0:0:0:
190,185,89324,1,0,0:0:0:0:
285,177,89486,1,0,0:0:0:0:
135,107,89648,5,0,0:0:0:0:
245,263,89810,2,0,P|301:273|345:256,1,80,0|8,0:0|0:0,0:0:0:0:
369,183,90134,2,0,P|313:173|269:190,1,80,0|8,0:0|0:0,0:0:0:0:
444,229,90459,2,0,P|454:173|437:129,1,80,0|8,0:0|0:0,0:0:0:0:
386,21,90783,6,0,P|376:77|393:121,1,80,0|8,0:0|0:0,0:0:0:0:
292,187,91107,2,0,P|331:195|369:183,1,80,0|8,0:0|0:0,0:0:0:0:
257,104,91432,2,0,P|218:96|181:109,1,80,0|8,0:0|0:0,0:0:0:0:
245,272,91756,1,0,0:0:0:0:
335,153,91918,5,0,0:0:0:0:
373,162,91999,1,0,0:0:0:0:
411,151,92080,1,0,0:0:0:0:
437,122,92161,1,0,0:0:0:0:
446,82,92242,5,0,0:0:0:0:
373,162,92405,2,0,P|363:218|380:262,1,80,0|8,0:0|0:0,0:0:0:0:
453,286,92729,2,0,P|463:230|446:186,1,80
436,377,93054,2,0,P|399:363|371:334,1,80,0|8,0:0|0:0,0:0:0:0:
285,289,93378,2,0,B|265:330|282:367|282:367|255:358|218:364,1,120
242,205,93702,2,0,P|298:196|342:213,1,80,0|8,0:0|0:0,0:0:0:0:
453,286,94026,5,0,0:0:0:0:
186,283,94351,1,0,0:0:0:0:
467,126,94675,5,0,0:0:0:0:
467,126,94756,1,0,0:0:0:0:
467,126,94837,2,0,L|371:134,1,80
291,145,95162,1,0,0:0:0:0:
351,219,95324,1,0,0:0:0:0:
328,58,95486,5,0,0:0:0:0:
291,145,95648,1,0,0:0:0:0:
351,219,95810,2,0,L|430:225,1,80
254,232,96134,1,0,0:0:0:0:
314,306,96297,5,0,0:0:0:0:
254,232,96459,1,0,0:0:0:0:
351,219,96621,1,0,0:0:0:0:
217,319,96783,1,0,0:0:0:0:
291,145,96945,1,0,0:0:0:0:
291,145,97270,5,0,0:0:0:0:
291,145,97351,1,0,0:0:0:0:
291,145,97432,2,0,L|195:153,1,80
115,164,97757,1,0,0:0:0:0:
175,238,97919,1,0,0:0:0:0:
152,77,98081,5,0,0:0:0:0:
115,164,98243,1,0,0:0:0:0:
175,238,98405,2,0,L|254:244,1,80
78,251,98729,1,0,0:0:0:0:
138,325,98892,5,0,0:0:0:0:
78,251,99054,1,0,0:0:0:0:
175,238,99216,1,0,0:0:0:0:
41,338,99378,1,0,0:0:0:0:
115,164,99540,1,0,0:0:0:0:
115,164,99864,5,0,0:0:0:0:
115,164,99945,1,0,0:0:0:0:
115,164,100026,1,0,0:0:0:0:
134,321,100189,1,0,0:0:0:0:
209,153,100351,1,0,0:0:0:0:
41,338,100513,1,0,0:0:0:0:
272,225,100675,1,0,0:0:0:0:
19,174,100837,1,0,0:0:0:0:
19,174,101162,5,0,0:0:0:0:
19,174,101243,1,0,0:0:0:0:
19,174,101324,1,0,0:0:0:0:
176,155,101487,1,0,0:0:0:0:
8,80,101649,1,0,0:0:0:0:
193,248,101811,1,0,0:0:0:0:
80,17,101973,1,0,0:0:0:0:
29,270,102135,1,0,0:0:0:0:
29,270,102459,5,0,0:0:0:0:
29,270,102540,1,0,0:0:0:0:
29,270,102621,1,0,0:0:0:0:
98,167,102783,2,0,L|193:175,2,95.9999970703126
142,273,103270,1,0,0:0:0:0:
249,86,103432,2,0,L|344:78,1,95.9999970703126
418,139,103756,5,0,0:0:0:0:
418,139,103837,1,0,0:0:0:0:
418,139,103919,1,0,0:0:0:0:
349,242,104080,2,0,L|254:234,2,95.9999970703126
305,136,104567,1,0,0:0:0:0:
198,323,104729,2,0,L|103:331,1,95.9999970703126
29,270,105053,5,0,0:0:0:0:
29,270,105134,1,0,0:0:0:0:
29,270,105216,1,0,0:0:0:0:
98,167,105377,2,0,L|193:175,2,95.9999970703126
142,273,105864,1,0,0:0:0:0:
249,85,106026,2,0,L|344:77,1,95.9999970703126
431,120,106351,5,0,0:0:0:0:
452,162,106432,1,0,0:0:0:0:
450,209,106513,1,0,0:0:0:0:
381,312,106675,2,0,L|286:304,2,95.9999970703126
337,206,107162,1,0,0:0:0:0:
202,384,107324,1,0,0:0:0:0:
285,303,107486,1,0,0:0:0:0:
179,272,107648,5,0,0:0:0:0:
179,272,107729,1,0,0:0:0:0:
179,272,107810,2,0,L|115:266,7,47.9999985351563
246,177,108459,2,0,L|310:171,7,47.9999985351563
132,164,109107,2,0,L|68:158,7,47.9999985351563
275,78,109756,2,0,L|339:72,7,47.9999985351563
132,164,110405,5,0,0:0:0:0:
279,256,110567,1,0,0:0:0:0:
275,78,110729,1,0,0:0:0:0:
132,164,110891,1,0,0:0:0:0:
279,256,111053,1,0,0:0:0:0:
275,78,111215,1,0,0:0:0:0:
132,164,111378,1,0,0:0:0:0:
279,256,111540,1,0,0:0:0:0:
182,81,111702,5,0,0:0:0:0:
175,254,111864,1,0,0:0:0:0:
328,162,112027,1,0,0:0:0:0:
175,254,112189,1,0,0:0:0:0:
182,81,112351,5,0,0:0:0:0:
279,256,112513,1,0,0:0:0:0:
182,81,112675,1,0,0:0:0:0:
279,256,112837,1,0,0:0:0:0:
