osu file format v14

[General]
AudioFilename: audio.mp3
AudioLeadIn: 0
PreviewTime: 3122
Countdown: 0
SampleSet: Normal
StackLeniency: 0
Mode: 1
LetterboxInBreaks: 0
WidescreenStoryboard: 0

[Editor]
DistanceSpacing: 3.5
BeatDivisor: 4
GridSize: 32
TimelineZoom: 2.800001

[Metadata]
Title:Dian Yin Zhi Wu 2.0
TitleUnicode:电 音 之 舞 2.0
Artist:Qiang Dan Gui Ji
ArtistUnicode:枪弹轨迹
Creator:liku
Version:Inner Oni
Source:BOFU2017 - LEGENDA EST A MYTH -
Tags:THE BMS OF FIGHTERS ULTIMATE 2017 bilibili remix 鬼畜 音mad otomad oto-mad 音MAD chinese 蔡徐坤 cai xu kun 鸡你太美 只因你太美 ji zhi yin ni tai mei 你干嘛 ikun electronic novelty ebimayo goodrage
BeatmapID:4139962
BeatmapSetID:1992384

[Difficulty]
HPDrainRate:6.5
CircleSize:5
OverallDifficulty:6.5
ApproachRate:5
SliderMultiplier:1.4
SliderTickRate:1

[Events]
//Background and Video events
0,0,"bg.jpg",0,0
Video,-20,"output.mp4"
//Break Periods
//Storyboard Layer 0 (Background)
//Storyboard Layer 1 (Fail)
//Storyboard Layer 2 (Pass)
//Storyboard Layer 3 (Foreground)
//Storyboard Layer 4 (Overlay)
//Storyboard Sound Samples

[TimingPoints]
3393,270.27027027027,4,1,0,80,1,0
10011,-98.4629397700102,4,1,0,80,0,0
10146,-96.9724153397623,4,1,0,80,0,0
10281,-95.5263448580581,4,1,0,80,0,0
10417,-94.1125258461204,4,1,0,80,0,0
10552,-92.7498927498928,4,1,0,80,0,0
10687,-91.4261549846707,4,1,0,80,0,0
10822,-90.1396706274755,4,1,0,80,0,0
10957,-88.8888888888889,4,1,0,80,0,0
11092,-87.6723438767234,4,1,0,80,0,0
11160,-87.0720902134515,4,1,0,80,0,0
11227,-86.4886488648865,4,1,0,80,0,0
11362,-85.3364910203276,4,1,0,80,0,0
11498,-84.2064264849075,4,1,0,80,0,0
11565,-83.6606365483216,4,1,0,80,0,0
11633,-83.1138875540606,4,1,0,80,0,0
11700,-82.5821237585943,4,1,0,80,0,0
11768,-82.0493358633776,4,1,0,80,0,0
11835,-81.5310643914396,4,1,0,80,0,0
11903,-81.0117096018735,4,1,0,80,0,0
11971,-80.4989295355115,4,1,0,80,0,0
12038,-80,4,1,0,90,0,0
12176,-100,4,1,0,90,0,0
18460,-100,4,1,0,80,0,0
18795,-101.35,4,1,0,80,0,0
18930,-102.038761641077,4,1,0,80,0,0
19065,-102.73694880892,4,1,0,80,0,0
19335,-104.162384378212,4,1,0,80,0,0
19606,-105.633435822607,4,1,0,80,0,0
19741,-106.381862076204,4,1,0,80,0,0
19876,-107.140969395845,4,1,0,80,0,0
20011,-107.910988074957,4,1,0,80,0,0
20146,-108.692155075339,4,1,0,80,0,0
20281,-109.484714270282,4,1,0,80,0,0
20417,-110.294917836544,4,1,0,80,0,0
20552,-111.111111111111,4,1,0,80,0,0
20622,-100,4,1,0,90,0,0
25146,-97.8743504959849,4,1,0,80,0,0
25281,-95.8371877890842,4,1,0,80,0,0
25417,-93.8689217758985,4,1,0,80,0,0
25552,-91.9934882344236,4,1,0,80,0,0
25687,-90.1915264074289,4,1,0,80,0,0
25822,-88.4588017646222,4,1,0,80,0,0
25957,-86.7913990505445,4,1,0,80,0,0
26092,-85.1856927504454,4,1,0,80,0,0
26227,-83.6383207750269,4,1,0,80,0,0
26362,-82.1461609620721,4,1,0,80,0,0
26498,-80.6958327924185,4,1,0,80,0,0
26633,-79.3059453942332,4,1,0,80,0,0
26768,-77.963125548727,4,1,0,80,0,0
26903,-76.665022200296,4,1,0,80,0,0
27038,-75.4094383112944,4,1,0,80,0,0
27173,-74.1943184530914,4,1,0,80,0,0
27241,-73.5969689793985,4,1,0,80,0,0
27308,-73.0177375778221,4,1,0,80,0,0
27376,-72.4391096608787,4,1,0,80,0,0
27444,-71.8695802983004,4,1,0,80,0,0
27511,-71.317117944011,4,1,0,80,0,0
27579,-70.7650273224044,4,1,0,80,0,0
27646,-70.2293526155237,4,1,0,80,0,0
27714,-69.6939118735284,4,1,0,80,0,0
27781,-69.1742710883597,4,1,0,80,0,0
27849,-68.6547382372432,4,1,0,80,0,0
27917,-68.1429511072133,4,1,0,80,0,0
27984,-67.6460985961476,4,1,0,80,0,0
28052,-67.1491844009938,4,1,0,80,0,0
28119,-66.6666666666667,4,1,0,80,0,0
28190,-40,4,1,0,80,0,0
29271,-90.9090909090909,4,1,0,100,0,0
35957,-92.4736706909838,4,1,0,100,0,0
36092,-94.1053457064436,4,1,0,100,0,0
36227,-95.7956359765833,4,1,0,100,0,0
36362,-97.5477577564016,4,1,0,100,0,0
36498,-99.3788819875776,4,1,0,100,0,0
36633,-101.26582278481,4,1,0,100,0,0
36768,-103.225806451613,4,1,0,100,0,0
36903,-105.263157894737,4,1,0,100,0,0
37038,-103.227654698243,4,1,0,100,0,0
37173,-101.269380298843,4,1,0,100,0,0
37308,-99.3840213294107,4,1,0,100,0,0
37444,-97.554372349066,4,1,0,100,0,0
37579,-95.8036070368237,4,1,0,100,0,0
37714,-94.1145742643218,4,1,0,100,0,0
37849,-92.4840655344997,4,1,0,100,0,0
37984,-90.9090909090909,4,1,0,100,0,0
42579,-93.0212546252474,4,1,0,80,0,0
42714,-94.1145742643218,4,1,0,80,0,0
42849,-95.2339000969078,4,1,0,80,0,0
43119,-97.554372349066,4,1,0,80,0,0
43389,-99.9907501618722,4,1,0,80,0,0
43660,-102.561669829222,4,1,0,80,0,0
43795,-103.892359442576,4,1,0,80,0,0
44065,-106.660088801184,4,1,0,80,0,0
44200,-108.1,4,1,0,80,0,0
44335,-109.579320831221,4,1,0,80,0,0
44471,-111.111111111111,4,1,0,80,0,0
44538,-109.465930018416,4,1,0,80,0,0
44606,-107.845271790406,4,1,0,80,0,0
44673,-106.294706723891,4,1,0,80,0,0
44741,-104.765933446136,4,1,0,80,0,0
44808,-103.302050747306,4,1,0,80,0,0
44876,-101.85756391802,4,1,0,80,0,0
44944,-100.452916920165,4,1,0,80,0,0
45011,-99.1063091903428,4,1,0,80,0,0
45079,-97.7760231609422,4,1,0,80,0,0
45146,-96.4997727125138,4,1,0,80,0,0
45214,-95.2380952380952,4,1,0,80,0,0
45281,-94.0268286509744,4,1,0,80,0,0
45349,-92.8285857071464,4,1,0,80,0,0
45417,-91.6604983962497,4,1,0,80,0,0
45484,-90.5379881801011,4,1,0,80,0,0
45552,-89.4264909430102,4,1,0,80,0,0
45687,-87.2987898014334,4,1,0,80,0,0
45822,-85.2699833591553,4,1,0,80,0,0
45957,-83.3333333333333,4,1,0,80,0,0
46028,-50,4,1,0,30,0,0
46636,-111.111111111111,4,1,0,70,0,0
54335,-109.590429845904,4,1,0,70,0,0
54471,-108.1,4,1,0,70,0,0
54606,-106.660088801184,4,1,0,70,0,0
54741,-105.258033106134,4,1,0,70,0,0
54876,-103.892359442576,4,1,0,70,0,0
55011,-102.561669829222,4,1,0,70,0,0
55079,-101.904223227753,4,1,0,70,0,0
55146,-101.264637002342,4,1,0,70,0,0
55214,-100.623661919389,4,1,0,70,0,0
55281,-100,4,1,0,80,0,0
57649,-71.4285714285714,4,1,0,100,0,0
57784,-100,4,1,0,80,0,0
63865,-100,4,1,0,100,0,0
64065,-98.5930171964565,4,1,0,100,0,0
64200,-97.2250770811922,4,1,0,100,0,0
64335,-95.8945767866194,4,1,0,100,0,0
64471,-94.5905409459054,4,1,0,100,0,0
64606,-93.3307024467246,4,1,0,100,0,0
64741,-92.1039820854834,4,1,0,100,0,0
64876,-90.9090909090909,4,1,0,100,0,0
65011,-89.7448059956361,4,1,0,100,0,0
65146,-88.6099662795054,4,1,0,100,0,0
65281,-87.5034686892979,4,1,0,100,0,0
65417,-86.4163697816754,4,1,0,100,0,0
65552,-85.3636527702581,4,1,0,100,0,0
65687,-84.3362752964251,4,1,0,100,0,0
65822,-83.3333333333333,4,1,0,100,0,0
65957,-82.3539653521372,4,1,0,100,0,0
66092,-81.3973498537257,4,1,0,100,0,0
66160,-80.9238665526091,4,1,0,100,0,0
66227,-80.4627030705112,4,1,0,100,0,0
66295,-80,4,1,0,100,0,0
66362,-79.5492768247561,4,1,0,100,0,0
66430,-79.0969899665552,4,1,0,100,0,0
66498,-78.6498170934486,4,1,0,100,0,0
66565,-78.2141380735841,4,1,0,100,0,0
66633,-77.7768642604621,4,1,0,100,0,0
66700,-77.3507767784137,4,1,0,100,0,0
66768,-76.9230769230769,4,1,0,100,0,0
66835,-76.5062676910635,4,1,0,100,0,0
66903,-76.087830772943,4,1,0,100,0,0
66971,-75.6739460843133,4,1,0,100,0,0
67038,-75.2705283259071,4,1,0,100,0,0
67106,-74.8654637543526,4,1,0,100,0,0
67173,-74.4705974966543,4,1,0,100,0,0
67241,-74.0740740740741,4,1,0,100,0,0
67308,-73.6874902632809,4,1,0,100,0,0
67376,-73.2992406632574,4,1,0,100,0,0
67444,-72.9150608910128,4,1,0,100,0,0
67511,-72.5404493520436,4,1,0,100,0,0
67579,-72.164162026089,4,1,0,100,0,0
67646,-71.7972070431087,4,1,0,100,0,0
67714,-71.4285714285714,4,1,0,100,0,0
68257,-80,4,1,0,100,0,1
76498,-78.4228455461332,4,1,0,100,0,1
76633,-76.9176085874742,4,1,0,100,0,1
76700,-76.1918174776424,4,1,0,100,0,1
76768,-75.4690660528702,4,1,0,100,0,1
76835,-74.7702301154032,4,1,0,100,0,1
76903,-74.0740740740741,4,1,0,100,0,1
85284,-71.4285714285714,4,1,0,90,0,0
85555,-100,4,1,0,90,0,0
89879,-71.4285714285714,4,1,0,100,0,1
92308,-70.0947506743205,4,1,0,100,0,1
92579,-68.8051595383571,4,1,0,100,0,1
92849,-67.5666666666667,4,1,0,100,0,1
93119,-66.3719711853307,4,1,0,100,0,1
93254,-65.7903278156443,4,1,0,100,0,1
93389,-65.2187902187902,4,1,0,100,0,1
93525,-64.6529726971166,4,1,0,100,0,1
93660,-64.100942381886,4,1,0,100,0,1
93795,-63.5582591245453,4,1,0,100,0,1
93930,-63.0246875194329,4,1,0,100,0,1
94065,-62.5,4,1,0,100,0,1
94203,-50,4,1,0,100,0,0
94271,-100,4,1,0,40,0,0

[HitObjects]
219,164,3393,5,0,0:0:0:0:
219,164,3663,1,8,0:0:0:0:
219,164,3933,1,8,0:0:0:0:
188,135,4001,1,8,0:0:0:0:
188,135,4068,1,8,0:0:0:0:
219,164,4136,1,8,0:0:0:0:
188,135,4203,1,0,0:0:0:0:
188,135,4271,1,0,0:0:0:0:
188,135,4338,1,0,0:0:0:0:
188,135,4406,1,0,0:0:0:0:
188,135,4474,1,8,0:0:0:0:
188,135,4744,1,0,0:0:0:0:
188,135,4879,1,8,0:0:0:0:
188,135,5149,1,0,0:0:0:0:
219,164,5555,1,0,0:0:0:0:
219,164,5825,1,8,0:0:0:0:
219,164,6095,1,8,0:0:0:0:
188,135,6163,1,0,0:0:0:0:
188,135,6230,1,8,0:0:0:0:
219,164,6298,1,8,0:0:0:0:
188,135,6365,1,0,0:0:0:0:
188,135,6433,1,8,0:0:0:0:
188,135,6501,1,0,0:0:0:0:
188,135,6568,1,0,0:0:0:0:
188,135,6636,1,8,0:0:0:0:
188,135,6906,1,0,0:0:0:0:
188,135,7041,1,8,0:0:0:0:
188,135,7311,1,8,0:0:0:0:
163,142,7447,1,0,0:0:0:0:
205,145,7480,1,0,0:0:0:0:
195,167,7582,1,8,0:0:0:0:
205,145,7615,1,8,0:0:0:0:
219,164,7717,1,0,0:0:0:0:
219,164,7987,1,8,0:0:0:0:
219,164,8257,1,8,0:0:0:0:
188,135,8325,1,8,0:0:0:0:
188,135,8392,1,8,0:0:0:0:
219,164,8460,1,8,0:0:0:0:
188,135,8528,1,0,0:0:0:0:
188,135,8595,1,8,0:0:0:0:
188,135,8663,1,0,0:0:0:0:
188,135,8730,1,0,0:0:0:0:
188,135,8798,1,8,0:0:0:0:
188,135,9068,1,0,0:0:0:0:
188,135,9203,1,8,0:0:0:0:
188,135,9474,1,0,0:0:0:0:
219,164,9879,1,0,0:0:0:0:
188,128,10014,1,0,0:0:0:0:
219,164,10149,1,8,0:0:0:0:
186,128,10284,1,8,0:0:0:0:
188,128,10420,1,0,0:0:0:0:
182,130,10555,1,0,0:0:0:0:
182,130,10690,1,8,0:0:0:0:
182,130,10825,1,8,0:0:0:0:
197,175,10960,1,0,0:0:0:0:
197,175,11095,1,0,0:0:0:0:
197,175,11163,1,0,0:0:0:0:
197,175,11230,1,8,0:0:0:0:
155,117,11365,1,8,0:0:0:0:
155,117,11501,1,8,0:0:0:0:
155,117,11568,1,0,0:0:0:0:
155,117,11636,1,8,0:0:0:0:
155,117,11703,1,8,0:0:0:0:
155,117,11771,1,0,0:0:0:0:
155,117,11838,1,0,0:0:0:0:
155,117,11906,1,8,0:0:0:0:
155,117,11974,1,8,0:0:0:0:
155,117,12041,1,4,0:0:0:0:
170,157,12311,1,8,0:0:0:0:
170,157,12447,1,8,0:0:0:0:
152,128,12582,1,0,0:0:0:0:
152,128,12717,1,8,0:0:0:0:
152,128,12784,1,8,0:0:0:0:
153,128,12852,1,0,0:0:0:0:
152,128,12987,1,8,0:0:0:0:
152,128,13122,1,8,0:0:0:0:
155,133,13257,1,0,0:0:0:0:
154,133,13325,1,0,0:0:0:0:
154,133,13392,1,0,0:0:0:0:
155,133,13528,1,8,0:0:0:0:
155,133,13663,1,0,0:0:0:0:
154,134,13730,1,0,0:0:0:0:
154,134,13798,1,8,0:0:0:0:
154,134,13933,1,0,0:0:0:0:
155,133,14068,1,8,0:0:0:0:
154,133,14203,1,0,0:0:0:0:
155,133,14338,1,0,0:0:0:0:
155,133,14406,1,0,0:0:0:0:
155,133,14474,1,8,0:0:0:0:
199,142,14541,1,0,0:0:0:0:
199,142,14609,1,8,0:0:0:0:
199,142,14744,1,0,0:0:0:0:
199,142,14879,1,8,0:0:0:0:
199,142,14947,1,8,0:0:0:0:
199,142,15014,1,0,0:0:0:0:
203,159,15149,1,0,0:0:0:0:
203,159,15284,1,8,0:0:0:0:
203,159,15420,1,0,0:0:0:0:
203,159,15487,1,0,0:0:0:0:
203,159,15555,1,0,0:0:0:0:
214,158,15690,1,8,0:0:0:0:
212,158,15825,1,0,0:0:0:0:
212,158,15892,1,0,0:0:0:0:
212,158,15960,1,8,0:0:0:0:
221,120,16095,1,0,0:0:0:0:
221,120,16129,1,0,0:0:0:0:
221,120,16230,1,8,0:0:0:0:
221,120,16264,1,8,0:0:0:0:
360,163,16365,1,0,0:0:0:0:
255,160,16501,1,0,0:0:0:0:
255,160,16568,1,0,0:0:0:0:
239,165,16636,1,8,0:0:0:0:
239,165,16703,1,8,0:0:0:0:
239,165,16771,1,8,0:0:0:0:
241,161,16906,1,0,0:0:0:0:
241,161,17041,1,8,0:0:0:0:
241,161,17109,1,8,0:0:0:0:
241,161,17176,1,0,0:0:0:0:
241,161,17311,1,8,0:0:0:0:
241,161,17447,1,0,0:0:0:0:
239,165,17582,1,8,0:0:0:0:
239,165,17649,1,8,0:0:0:0:
241,161,17717,1,0,0:0:0:0:
241,161,17852,1,8,0:0:0:0:
241,161,17987,1,0,0:0:0:0:
241,161,18055,1,0,0:0:0:0:
241,161,18122,1,8,0:0:0:0:
241,161,18257,1,0,0:0:0:0:
245,161,18392,1,8,0:0:0:0:
245,161,18528,1,4,0:0:0:0:
241,161,18798,1,0,0:0:0:0:
241,161,18933,1,0,0:0:0:0:
241,161,19068,1,8,0:0:0:0:
245,161,19338,1,0,0:0:0:0:
241,161,19609,1,8,0:0:0:0:
241,161,19744,1,0,0:0:0:0:
241,161,19879,1,0,0:0:0:0:
245,161,20014,1,8,0:0:0:0:
245,161,20149,1,0,0:0:0:0:
241,161,20284,1,8,0:0:0:0:
241,161,20420,1,8,0:0:0:0:
241,161,20555,1,8,0:0:0:0:
214,130,20690,1,0,0:0:0:0:
255,253,20825,1,0,0:0:0:0:
110,215,20892,1,0,0:0:0:0:
255,253,20960,1,8,0:0:0:0:
167,145,21095,1,0,0:0:0:0:
255,253,21230,1,8,0:0:0:0:
78,216,21298,1,8,0:0:0:0:
78,216,21365,1,0,0:0:0:0:
160,132,21433,1,0,0:0:0:0:
160,132,21501,1,8,0:0:0:0:
160,132,21636,1,8,0:0:0:0:
252,224,21771,1,0,0:0:0:0:
150,129,21906,1,0,0:0:0:0:
160,132,21974,1,0,0:0:0:0:
160,132,22041,1,8,0:0:0:0:
157,137,22176,1,8,0:0:0:0:
157,137,22311,1,0,0:0:0:0:
252,224,22447,1,0,0:0:0:0:
157,137,22514,1,0,0:0:0:0:
252,224,22582,1,8,0:0:0:0:
157,137,22649,1,0,0:0:0:0:
214,187,22717,1,8,0:0:0:0:
252,224,22852,1,0,0:0:0:0:
214,187,22987,1,0,0:0:0:0:
199,168,23122,1,8,0:0:0:0:
214,187,23257,1,0,0:0:0:0:
198,168,23325,1,0,0:0:0:0:
198,168,23392,1,8,0:0:0:0:
193,166,23528,1,8,0:0:0:0:
252,224,23663,1,0,0:0:0:0:
189,166,23730,1,0,0:0:0:0:
192,160,23798,1,8,0:0:0:0:
192,160,23865,1,8,0:0:0:0:
252,224,23933,1,0,0:0:0:0:
206,156,24068,1,0,0:0:0:0:
181,164,24136,1,0,0:0:0:0:
181,164,24203,1,8,0:0:0:0:
152,165,24338,1,8,0:0:0:0:
206,156,24406,1,8,0:0:0:0:
252,224,24474,1,0,0:0:0:0:
206,156,24609,1,0,0:0:0:0:
206,156,24676,1,0,0:0:0:0:
252,224,24744,1,8,0:0:0:0:
206,156,24879,1,8,0:0:0:0:
252,224,25014,1,4,0:0:0:0:
334,309,25149,1,4,0:0:0:0:
334,309,25284,1,12,0:0:0:0:
334,309,25420,1,12,0:0:0:0:
334,309,25555,1,4,0:0:0:0:
334,309,25690,1,12,0:0:0:0:
334,309,25825,1,12,0:0:0:0:
334,309,25960,1,12,0:0:0:0:
341,311,26095,1,4,0:0:0:0:
334,309,26230,1,4,0:0:0:0:
341,311,26365,1,12,0:0:0:0:
341,311,26501,1,12,0:0:0:0:
341,311,26636,1,4,0:0:0:0:
341,311,26771,1,12,0:0:0:0:
341,311,26906,1,12,0:0:0:0:
341,314,27041,1,12,0:0:0:0:
257,304,27176,1,0,0:0:0:0:
257,304,27244,1,0,0:0:0:0:
257,304,27311,1,0,0:0:0:0:
257,304,27379,1,0,0:0:0:0:
257,304,27447,1,8,0:0:0:0:
257,304,27514,1,8,0:0:0:0:
257,304,27582,1,8,0:0:0:0:
257,304,27649,1,8,0:0:0:0:
257,304,27717,1,0,0:0:0:0:
257,304,27784,1,0,0:0:0:0:
257,304,27852,1,0,0:0:0:0:
257,304,27920,1,0,0:0:0:0:
257,304,27987,1,8,0:0:0:0:
257,304,28055,1,8,0:0:0:0:
257,304,28122,1,0,0:0:0:0:
256,192,28257,8,0,29068,0:0:0:0:
245,208,29338,5,4,0:0:0:0:
179,111,29609,1,8,0:0:0:0:
179,111,29642,1,8,0:0:0:0:
179,111,29744,1,0,0:0:0:0:
179,111,29778,1,0,0:0:0:0:
205,136,29879,1,8,0:0:0:0:
205,136,29947,1,8,0:0:0:0:
205,136,30014,1,0,0:0:0:0:
202,105,30149,1,8,0:0:0:0:
201,105,30284,1,0,0:0:0:0:
170,156,30420,1,8,0:0:0:0:
194,116,30465,1,0,0:0:0:0:
194,116,30510,1,0,0:0:0:0:
194,116,30555,1,8,0:0:0:0:
193,99,30690,1,0,0:0:0:0:
179,104,30724,1,0,0:0:0:0:
188,62,30825,1,8,0:0:0:0:
188,62,30892,1,8,0:0:0:0:
188,62,30960,1,0,0:0:0:0:
208,186,31095,1,8,0:0:0:0:
208,186,31129,1,8,0:0:0:0:
100,144,31230,1,0,0:0:0:0:
100,144,31264,1,0,0:0:0:0:
100,144,31365,1,8,0:0:0:0:
100,144,31399,1,8,0:0:0:0:
93,175,31501,1,0,0:0:0:0:
179,111,31771,1,8,0:0:0:0:
179,111,31805,1,8,0:0:0:0:
179,111,31906,1,0,0:0:0:0:
179,111,31940,1,0,0:0:0:0:
205,136,32041,1,8,0:0:0:0:
205,136,32109,1,8,0:0:0:0:
205,136,32176,1,0,0:0:0:0:
202,105,32311,1,8,0:0:0:0:
201,105,32447,1,8,0:0:0:0:
170,156,32582,1,0,0:0:0:0:
148,149,32717,1,0,0:0:0:0:
148,149,32784,1,0,0:0:0:0:
193,99,32852,1,8,0:0:0:0:
188,62,32897,1,0,0:0:0:0:
188,62,32942,1,0,0:0:0:0:
188,62,32987,1,8,0:0:0:0:
194,88,33122,1,0,0:0:0:0:
194,89,33156,1,0,0:0:0:0:
188,92,33257,1,8,0:0:0:0:
188,92,33291,1,8,0:0:0:0:
187,180,33392,1,0,0:0:0:0:
187,180,33460,1,0,0:0:0:0:
187,180,33528,1,8,0:0:0:0:
245,208,33663,1,0,0:0:0:0:
179,111,33933,1,8,0:0:0:0:
179,111,33967,1,8,0:0:0:0:
179,111,34068,1,0,0:0:0:0:
179,111,34102,1,0,0:0:0:0:
205,136,34203,1,8,0:0:0:0:
205,136,34271,1,8,0:0:0:0:
205,136,34338,1,0,0:0:0:0:
202,105,34474,1,8,0:0:0:0:
201,105,34609,1,0,0:0:0:0:
170,156,34744,1,8,0:0:0:0:
194,116,34789,1,0,0:0:0:0:
194,116,34834,1,0,0:0:0:0:
194,116,34879,1,8,0:0:0:0:
193,99,35014,1,0,0:0:0:0:
179,104,35048,1,0,0:0:0:0:
188,62,35149,1,8,0:0:0:0:
188,62,35217,1,8,0:0:0:0:
188,62,35284,1,0,0:0:0:0:
208,186,35420,1,8,0:0:0:0:
208,186,35453,1,8,0:0:0:0:
100,144,35555,1,0,0:0:0:0:
100,144,35588,1,0,0:0:0:0:
100,144,35690,1,8,0:0:0:0:
100,144,35724,1,8,0:0:0:0:
93,175,35825,1,0,0:0:0:0:
150,95,35960,1,0,0:0:0:0:
150,95,36095,1,8,0:0:0:0:
150,95,36230,1,0,0:0:0:0:
150,95,36365,1,8,0:0:0:0:
150,95,36501,1,8,0:0:0:0:
150,95,36636,1,0,0:0:0:0:
146,99,36771,1,8,0:0:0:0:
146,99,36906,1,0,0:0:0:0:
146,99,37041,1,0,0:0:0:0:
146,99,37176,1,8,0:0:0:0:
146,99,37311,1,0,0:0:0:0:
146,99,37447,1,8,0:0:0:0:
146,99,37582,1,8,0:0:0:0:
146,99,37717,1,8,0:0:0:0:
146,99,37852,1,8,0:0:0:0:
245,208,37987,1,4,0:0:0:0:
179,111,38257,1,8,0:0:0:0:
179,111,38291,1,8,0:0:0:0:
179,111,38392,1,0,0:0:0:0:
179,111,38426,1,0,0:0:0:0:
205,136,38528,1,8,0:0:0:0:
205,136,38595,1,8,0:0:0:0:
205,136,38663,1,0,0:0:0:0:
202,105,38798,1,8,0:0:0:0:
201,105,38933,1,0,0:0:0:0:
170,156,39068,1,8,0:0:0:0:
194,116,39113,1,0,0:0:0:0:
194,116,39158,1,0,0:0:0:0:
194,116,39203,1,8,0:0:0:0:
193,99,39338,1,0,0:0:0:0:
179,104,39372,1,0,0:0:0:0:
188,62,39474,1,8,0:0:0:0:
188,62,39541,1,8,0:0:0:0:
188,62,39609,1,0,0:0:0:0:
208,186,39744,1,8,0:0:0:0:
208,186,39778,1,8,0:0:0:0:
100,144,39879,1,0,0:0:0:0:
100,144,39913,1,0,0:0:0:0:
100,144,40014,1,8,0:0:0:0:
100,144,40048,1,8,0:0:0:0:
93,175,40149,1,0,0:0:0:0:
179,111,40420,1,8,0:0:0:0:
179,111,40453,1,8,0:0:0:0:
179,111,40555,1,0,0:0:0:0:
179,111,40588,1,0,0:0:0:0:
205,136,40690,1,8,0:0:0:0:
205,136,40757,1,8,0:0:0:0:
205,136,40825,1,0,0:0:0:0:
202,105,40960,1,8,0:0:0:0:
201,105,41095,1,8,0:0:0:0:
170,156,41230,1,0,0:0:0:0:
148,149,41365,1,0,0:0:0:0:
148,149,41433,1,0,0:0:0:0:
193,99,41501,1,8,0:0:0:0:
188,62,41546,1,8,0:0:0:0:
188,62,41591,1,8,0:0:0:0:
188,62,41636,1,0,0:0:0:0:
194,88,41771,1,0,0:0:0:0:
194,89,41805,1,0,0:0:0:0:
188,92,41906,1,8,0:0:0:0:
188,92,41940,1,8,0:0:0:0:
187,180,42041,1,0,0:0:0:0:
187,180,42109,1,0,0:0:0:0:
187,180,42176,1,8,0:0:0:0:
245,208,42311,1,0,0:0:0:0:
250,49,42582,1,8,0:0:0:0:
250,49,42717,1,0,0:0:0:0:
250,49,42852,1,8,0:0:0:0:
250,49,43122,1,8,0:0:0:0:
250,49,43392,1,0,0:0:0:0:
250,49,43663,1,8,0:0:0:0:
250,49,43798,1,8,0:0:0:0:
250,49,44068,1,0,0:0:0:0:
250,49,44203,1,8,0:0:0:0:
250,49,44338,1,8,0:0:0:0:
210,209,44474,1,0,0:0:0:0:
210,209,44541,1,0,0:0:0:0:
210,209,44609,1,8,0:0:0:0:
210,209,44676,1,0,0:0:0:0:
210,209,44744,1,8,0:0:0:0:
210,209,44811,1,8,0:0:0:0:
210,209,44879,1,0,0:0:0:0:
210,209,44947,1,8,0:0:0:0:
210,209,45014,1,0,0:0:0:0:
210,209,45082,1,0,0:0:0:0:
210,209,45149,1,8,0:0:0:0:
210,209,45217,1,0,0:0:0:0:
210,209,45284,1,8,0:0:0:0:
210,209,45352,1,8,0:0:0:0:
210,209,45420,1,0,0:0:0:0:
210,209,45487,1,0,0:0:0:0:
210,209,45555,1,8,0:0:0:0:
210,209,45690,1,0,0:0:0:0:
210,209,45825,1,8,0:0:0:0:
210,209,45960,1,0,0:0:0:0:
256,192,46095,8,0,46501,0:0:0:0:
164,158,46636,5,4,0:0:0:0:
59,111,46906,1,0,0:0:0:0:
59,111,47041,1,0,0:0:0:0:
59,111,47176,1,8,0:0:0:0:
59,111,47379,1,0,0:0:0:0:
119,148,47582,1,0,0:0:0:0:
119,148,47717,1,8,0:0:0:0:
119,148,47920,1,8,0:0:0:0:
119,148,48122,1,0,0:0:0:0:
119,148,48257,1,8,0:0:0:0:
119,148,48798,1,8,0:0:0:0:
119,148,49001,1,8,0:0:0:0:
119,148,49203,1,0,0:0:0:0:
119,148,49338,1,8,0:0:0:0:
119,148,49609,1,8,0:0:0:0:
151,173,49744,1,8,0:0:0:0:
151,173,49879,1,0,0:0:0:0:
151,173,50149,1,8,0:0:0:0:
133,147,50284,1,0,0:0:0:0:
133,147,50420,1,8,0:0:0:0:
204,152,50960,1,0,0:0:0:0:
204,152,51230,1,8,0:0:0:0:
204,152,51365,1,0,0:0:0:0:
204,152,51501,1,8,0:0:0:0:
193,150,51636,1,0,0:0:0:0:
193,150,51771,1,8,0:0:0:0:
193,150,51906,1,8,0:0:0:0:
193,150,52041,1,0,0:0:0:0:
191,150,52311,1,0,0:0:0:0:
193,150,52447,1,8,0:0:0:0:
154,149,52717,1,0,0:0:0:0:
154,149,52852,1,8,0:0:0:0:
154,149,52987,1,0,0:0:0:0:
154,149,53122,1,8,0:0:0:0:
139,146,53257,1,8,0:0:0:0:
139,146,53392,1,0,0:0:0:0:
139,146,53528,1,0,0:0:0:0:
139,146,53663,1,8,0:0:0:0:
139,146,53798,1,0,0:0:0:0:
139,146,53933,1,8,0:0:0:0:
139,146,54068,1,0,0:0:0:0:
139,146,54203,1,8,0:0:0:0:
133,152,54338,1,8,0:0:0:0:
133,152,54474,1,8,0:0:0:0:
133,152,54609,1,8,0:0:0:0:
133,152,54744,1,8,0:0:0:0:
133,152,54879,1,8,0:0:0:0:
133,152,55014,1,8,0:0:0:0:
151,189,55082,1,8,0:0:0:0:
151,189,55149,1,8,0:0:0:0:
151,189,55217,1,8,0:0:0:0:
151,189,55284,1,4,0:0:0:0:
115,211,55555,1,0,0:0:0:0:
135,218,55690,1,0,0:0:0:0:
134,221,55825,1,8,0:0:0:0:
115,211,56095,1,0,0:0:0:0:
168,198,56230,1,0,0:0:0:0:
168,198,56365,1,8,0:0:0:0:
168,198,56501,1,0,0:0:0:0:
168,198,56636,1,8,0:0:0:0:
168,198,56771,1,8,0:0:0:0:
115,211,56906,1,0,0:0:0:0:
168,198,57176,1,8,0:0:0:0:
168,198,57311,1,8,0:0:0:0:
115,211,57447,1,0,0:0:0:0:
168,198,57717,1,12,0:0:0:0:
115,211,57987,1,0,0:0:0:0:
163,194,58257,1,8,0:0:0:0:
115,211,58528,1,0,0:0:0:0:
163,194,58663,1,0,0:0:0:0:
163,194,58798,1,8,0:0:0:0:
163,194,58933,1,0,0:0:0:0:
163,194,59068,1,8,0:0:0:0:
163,194,59203,1,0,0:0:0:0:
163,194,59338,1,8,0:0:0:0:
163,194,59474,1,8,0:0:0:0:
115,211,59609,1,0,0:0:0:0:
163,194,59879,1,8,0:0:0:0:
163,194,60014,1,0,0:0:0:0:
115,211,60149,1,8,0:0:0:0:
115,211,60420,1,0,0:0:0:0:
165,152,60555,1,0,0:0:0:0:
158,153,60690,1,8,0:0:0:0:
157,154,60825,1,0,0:0:0:0:
157,154,60960,1,8,0:0:0:0:
157,154,61095,1,8,0:0:0:0:
115,211,61230,1,0,0:0:0:0:
156,155,61501,1,8,0:0:0:0:
115,211,61771,1,0,0:0:0:0:
157,154,62041,1,8,0:0:0:0:
157,154,62176,1,8,0:0:0:0:
115,211,62311,1,0,0:0:0:0:
123,83,62582,1,8,0:0:0:0:
115,211,62852,1,0,0:0:0:0:
136,89,62987,1,0,0:0:0:0:
136,89,63122,1,8,0:0:0:0:
136,89,63257,1,8,0:0:0:0:
115,211,63392,1,0,0:0:0:0:
136,89,63663,1,8,0:0:0:0:
214,258,63933,1,4,0:0:0:0:
214,258,64068,1,0,0:0:0:0:
214,258,64203,1,0,0:0:0:0:
214,258,64338,1,0,0:0:0:0:
214,258,64474,1,12,0:0:0:0:
214,258,64609,1,8,0:0:0:0:
214,258,64744,1,8,0:0:0:0:
214,258,64879,1,8,0:0:0:0:
214,258,65014,1,4,0:0:0:0:
214,258,65149,1,0,0:0:0:0:
214,258,65284,1,0,0:0:0:0:
214,258,65420,1,0,0:0:0:0:
214,258,65555,1,12,0:0:0:0:
214,258,65690,1,8,0:0:0:0:
214,258,65825,1,0,0:0:0:0:
214,258,65960,1,0,0:0:0:0:
214,258,66095,1,8,0:0:0:0:
214,258,66163,1,8,0:0:0:0:
214,258,66230,1,0,0:0:0:0:
214,258,66298,1,0,0:0:0:0:
214,258,66365,1,8,0:0:0:0:
214,258,66433,1,8,0:0:0:0:
214,258,66501,1,0,0:0:0:0:
214,258,66568,1,0,0:0:0:0:
214,258,66636,1,8,0:0:0:0:
214,258,66703,1,0,0:0:0:0:
214,258,66771,1,0,0:0:0:0:
214,258,66838,1,0,0:0:0:0:
214,258,66906,1,8,0:0:0:0:
214,258,66974,1,8,0:0:0:0:
214,258,67041,1,0,0:0:0:0:
214,258,67109,1,0,0:0:0:0:
214,258,67176,1,8,0:0:0:0:
214,258,67244,1,0,0:0:0:0:
214,258,67311,1,8,0:0:0:0:
214,258,67379,1,0,0:0:0:0:
214,258,67447,1,8,0:0:0:0:
214,258,67514,1,8,0:0:0:0:
214,258,67582,1,0,0:0:0:0:
214,258,67649,1,8,0:0:0:0:
214,258,67717,1,0,0:0:0:0:
214,258,67852,1,8,0:0:0:0:
231,181,68257,1,0,0:0:0:0:
150,178,68392,1,0,0:0:0:0:
150,178,68460,1,0,0:0:0:0:
150,178,68528,1,8,0:0:0:0:
150,178,68663,1,0,0:0:0:0:
231,181,68798,1,0,0:0:0:0:
231,181,68865,1,0,0:0:0:0:
231,181,68933,1,8,0:0:0:0:
231,181,69001,1,0,0:0:0:0:
231,181,69068,1,8,0:0:0:0:
210,161,69203,1,8,0:0:0:0:
152,153,69271,1,8,0:0:0:0:
210,161,69338,1,0,0:0:0:0:
231,181,69474,1,0,0:0:0:0:
152,155,69609,1,8,0:0:0:0:
231,181,69744,1,8,0:0:0:0:
231,181,69811,1,0,0:0:0:0:
169,164,69879,1,8,0:0:0:0:
169,164,70014,1,0,0:0:0:0:
231,181,70082,1,0,0:0:0:0:
231,181,70149,1,8,0:0:0:0:
231,181,70284,1,8,0:0:0:0:
231,181,70352,1,0,0:0:0:0:
231,181,70420,1,8,0:0:0:0:
231,181,70555,1,0,0:0:0:0:
137,113,70622,1,0,0:0:0:0:
137,113,70690,1,8,0:0:0:0:
137,113,70757,1,0,0:0:0:0:
137,113,70825,1,8,0:0:0:0:
137,113,70892,1,8,0:0:0:0:
190,206,70960,1,0,0:0:0:0:
190,206,71095,1,0,0:0:0:0:
130,113,71163,1,0,0:0:0:0:
130,113,71230,1,8,0:0:0:0:
130,113,71365,1,8,0:0:0:0:
190,206,71501,1,0,0:0:0:0:
190,206,71636,1,0,0:0:0:0:
135,126,71703,1,0,0:0:0:0:
135,126,71771,1,8,0:0:0:0:
135,126,71838,1,0,0:0:0:0:
190,206,71906,1,8,0:0:0:0:
133,126,72041,1,0,0:0:0:0:
101,163,72176,1,8,0:0:0:0:
101,163,72244,1,8,0:0:0:0:
101,163,72311,1,8,0:0:0:0:
112,149,72447,1,8,0:0:0:0:
112,153,72582,1,0,0:0:0:0:
190,206,72717,1,0,0:0:0:0:
175,147,72784,1,0,0:0:0:0:
190,206,72852,1,8,0:0:0:0:
190,206,72987,1,8,0:0:0:0:
190,206,73122,1,0,0:0:0:0:
190,206,73190,1,0,0:0:0:0:
190,206,73257,1,8,0:0:0:0:
190,206,73325,1,8,0:0:0:0:
190,206,73392,1,0,0:0:0:0:
190,206,73528,1,8,0:0:0:0:
142,133,73595,1,8,0:0:0:0:
190,206,73663,1,0,0:0:0:0:
190,206,73798,1,0,0:0:0:0:
190,206,73933,1,8,0:0:0:0:
209,189,74068,1,0,0:0:0:0:
208,189,74136,1,0,0:0:0:0:
208,189,74203,1,8,0:0:0:0:
208,189,74338,1,8,0:0:0:0:
208,189,74406,1,0,0:0:0:0:
208,189,74474,1,8,0:0:0:0:
208,190,74609,1,0,0:0:0:0:
208,190,74676,1,0,0:0:0:0:
208,190,74744,1,8,0:0:0:0:
155,180,74811,1,8,0:0:0:0:
198,196,74879,1,0,0:0:0:0:
198,196,75014,1,0,0:0:0:0:
183,178,75149,1,8,0:0:0:0:
181,179,75217,1,8,0:0:0:0:
198,196,75284,1,0,0:0:0:0:
198,196,75420,1,0,0:0:0:0:
181,179,75555,1,8,0:0:0:0:
179,180,75622,1,8,0:0:0:0:
198,196,75690,1,0,0:0:0:0:
179,180,75757,1,0,0:0:0:0:
179,180,75825,1,8,0:0:0:0:
198,196,75960,1,8,0:0:0:0:
175,181,76095,1,0,0:0:0:0:
175,181,76230,1,8,0:0:0:0:
175,181,76365,1,8,0:0:0:0:
175,181,76501,1,8,0:0:0:0:
198,196,76636,1,8,0:0:0:0:
198,196,76703,1,8,0:0:0:0:
198,196,76771,1,8,0:0:0:0:
198,196,76838,1,8,0:0:0:0:
198,196,76906,1,4,0:0:0:0:
89,188,77041,1,0,0:0:0:0:
89,188,77176,1,8,0:0:0:0:
89,188,77244,1,0,0:0:0:0:
89,188,77311,1,8,0:0:0:0:
89,188,77379,1,8,0:0:0:0:
224,197,77447,1,0,0:0:0:0:
89,188,77582,1,0,0:0:0:0:
89,188,77649,1,0,0:0:0:0:
89,188,77717,1,8,0:0:0:0:
89,188,77852,1,8,0:0:0:0:
89,188,77920,1,8,0:0:0:0:
224,197,77987,1,0,0:0:0:0:
92,178,78122,1,0,0:0:0:0:
92,178,78190,1,0,0:0:0:0:
92,178,78257,1,8,0:0:0:0:
92,178,78325,1,8,0:0:0:0:
92,178,78392,1,0,0:0:0:0:
92,178,78460,1,0,0:0:0:0:
92,178,78528,1,8,0:0:0:0:
92,178,78663,1,8,0:0:0:0:
92,178,78730,1,0,0:0:0:0:
92,178,78798,1,8,0:0:0:0:
92,178,78933,1,0,0:0:0:0:
92,178,79001,1,0,0:0:0:0:
92,178,79068,1,8,0:0:0:0:
92,178,79203,1,8,0:0:0:0:
92,178,79271,1,8,0:0:0:0:
224,197,79338,1,0,0:0:0:0:
92,178,79406,1,0,0:0:0:0:
92,178,79474,1,8,0:0:0:0:
224,197,79609,1,0,0:0:0:0:
92,178,79744,1,8,0:0:0:0:
114,143,79811,1,0,0:0:0:0:
114,143,79879,1,8,0:0:0:0:
114,143,79947,1,0,0:0:0:0:
114,143,80014,1,8,0:0:0:0:
114,143,80082,1,8,0:0:0:0:
224,197,80149,1,0,0:0:0:0:
114,143,80284,1,0,0:0:0:0:
114,143,80352,1,0,0:0:0:0:
114,143,80420,1,8,0:0:0:0:
114,143,80487,1,0,0:0:0:0:
114,143,80555,1,8,0:0:0:0:
224,197,80690,1,0,0:0:0:0:
126,134,80825,1,8,0:0:0:0:
125,135,80892,1,0,0:0:0:0:
124,135,80960,1,8,0:0:0:0:
122,135,81028,1,8,0:0:0:0:
124,135,81095,1,0,0:0:0:0:
116,135,81230,1,8,0:0:0:0:
110,135,81298,1,8,0:0:0:0:
97,136,81365,1,0,0:0:0:0:
97,136,81501,1,8,0:0:0:0:
97,136,81568,1,8,0:0:0:0:
97,136,81636,1,0,0:0:0:0:
97,136,81703,1,0,0:0:0:0:
97,136,81771,1,8,0:0:0:0:
97,136,81906,1,0,0:0:0:0:
97,136,82041,1,8,0:0:0:0:
97,136,82109,1,0,0:0:0:0:
96,136,82176,1,8,0:0:0:0:
96,136,82244,1,8,0:0:0:0:
224,197,82311,1,0,0:0:0:0:
97,136,82447,1,0,0:0:0:0:
97,136,82514,1,0,0:0:0:0:
97,136,82582,1,8,0:0:0:0:
97,136,82649,1,8,0:0:0:0:
97,136,82717,1,0,0:0:0:0:
97,136,82784,1,0,0:0:0:0:
97,136,82852,1,8,0:0:0:0:
97,136,82987,1,8,0:0:0:0:
97,136,83055,1,0,0:0:0:0:
97,136,83122,1,8,0:0:0:0:
96,136,83190,1,8,0:0:0:0:
96,136,83257,1,0,0:0:0:0:
97,136,83325,1,0,0:0:0:0:
92,135,83392,1,8,0:0:0:0:
92,135,83528,1,0,0:0:0:0:
92,135,83663,1,8,0:0:0:0:
92,135,83730,1,8,0:0:0:0:
92,137,83798,1,0,0:0:0:0:
92,137,83865,1,0,0:0:0:0:
83,137,83933,1,8,0:0:0:0:
83,137,84068,1,0,0:0:0:0:
83,137,84203,1,8,0:0:0:0:
83,137,84271,1,0,0:0:0:0:
83,137,84338,1,8,0:0:0:0:
83,137,84406,1,0,0:0:0:0:
83,137,84474,1,8,0:0:0:0:
83,137,84541,1,8,0:0:0:0:
83,137,84609,1,0,0:0:0:0:
83,137,84676,1,0,0:0:0:0:
83,137,84744,1,8,0:0:0:0:
83,137,84811,1,8,0:0:0:0:
83,137,84879,1,0,0:0:0:0:
83,137,84947,1,8,0:0:0:0:
224,197,85014,1,0,0:0:0:0:
83,137,85082,1,0,0:0:0:0:
83,137,85149,1,8,0:0:0:0:
83,137,85217,1,0,0:0:0:0:
77,137,85284,1,12,0:0:0:0:
219,164,85555,1,0,0:0:0:0:
135,157,85690,1,0,0:0:0:0:
129,157,85757,1,0,0:0:0:0:
219,164,85825,1,8,0:0:0:0:
128,157,85960,1,0,0:0:0:0:
219,164,86095,1,8,0:0:0:0:
188,135,86163,1,8,0:0:0:0:
188,135,86230,1,8,0:0:0:0:
219,164,86298,1,8,0:0:0:0:
188,135,86365,1,0,0:0:0:0:
188,135,86433,1,0,0:0:0:0:
188,135,86501,1,0,0:0:0:0:
188,135,86568,1,0,0:0:0:0:
188,135,86636,1,8,0:0:0:0:
119,159,86771,1,0,0:0:0:0:
119,159,86838,1,0,0:0:0:0:
119,159,86906,1,8,0:0:0:0:
188,135,87041,1,8,0:0:0:0:
119,159,87109,1,0,0:0:0:0:
114,156,87176,1,8,0:0:0:0:
188,135,87311,1,0,0:0:0:0:
112,156,87447,1,8,0:0:0:0:
112,156,87582,1,8,0:0:0:0:
219,164,87717,1,0,0:0:0:0:
109,157,87852,1,0,0:0:0:0:
108,157,87920,1,0,0:0:0:0:
219,164,87987,1,8,0:0:0:0:
108,157,88122,1,0,0:0:0:0:
219,164,88257,1,8,0:0:0:0:
188,135,88325,1,0,0:0:0:0:
188,135,88392,1,8,0:0:0:0:
219,164,88460,1,8,0:0:0:0:
188,135,88528,1,0,0:0:0:0:
188,135,88595,1,8,0:0:0:0:
188,135,88663,1,0,0:0:0:0:
188,135,88730,1,0,0:0:0:0:
188,135,88798,1,8,0:0:0:0:
101,162,88933,1,0,0:0:0:0:
97,162,89001,1,0,0:0:0:0:
95,162,89068,1,8,0:0:0:0:
188,135,89203,1,8,0:0:0:0:
95,162,89271,1,8,0:0:0:0:
95,162,89338,1,0,0:0:0:0:
188,135,89474,1,8,0:0:0:0:
195,167,89609,1,0,0:0:0:0:
68,158,89642,1,0,0:0:0:0:
195,167,89744,1,8,0:0:0:0:
83,161,89778,1,8,0:0:0:0:
210,172,89879,1,4,0:0:0:0:
210,172,90149,1,4,0:0:0:0:
210,172,90420,1,4,0:0:0:0:
210,172,90690,1,4,0:0:0:0:
210,172,90960,1,4,0:0:0:0:
210,172,91230,1,4,0:0:0:0:
210,172,91501,1,4,0:0:0:0:
210,172,91771,1,4,0:0:0:0:
210,172,91906,1,12,0:0:0:0:
210,172,92041,1,4,0:0:0:0:
210,172,92311,1,12,0:0:0:0:
210,172,92582,1,4,0:0:0:0:
210,172,92852,1,12,0:0:0:0:
210,172,93122,1,4,0:0:0:0:
210,172,93257,1,4,0:0:0:0:
210,172,93392,1,12,0:0:0:0:
210,172,93528,1,4,0:0:0:0:
210,172,93663,1,12,0:0:0:0:
210,172,93798,1,12,0:0:0:0:
210,172,93933,1,4,0:0:0:0:
210,172,94068,1,12,0:0:0:0:
256,192,94203,8,0,96906,0:0:0:0:
