osu file format v14

[General]
AudioFilename: audio.mp3
AudioLeadIn: 0
PreviewTime: 24282
Countdown: 0
SampleSet: Normal
StackLeniency: 0.3
Mode: 0
LetterboxInBreaks: 0
WidescreenStoryboard: 0

[Editor]
DistanceSpacing: 0.8
BeatDivisor: 4
GridSize: 32
TimelineZoom: 1.6

[Metadata]
Title:Hitorigoto
TitleUnicode:独白(ヒトリゴト中文版)(Cover ClariS)
Artist:Qi Inory
ArtistUnicode:祈Inory
Creator:AngelSnow
Version:Manga
Source:エロマンガ先生
Tags:
BeatmapID:1788331
BeatmapSetID:855932

[Difficulty]
HPDrainRate:6
CircleSize:4.2
OverallDifficulty:8
ApproachRate:9.2
SliderMultiplier:1.8
SliderTickRate:1

[Events]
//Background and Video events
0,0,"illust_62530172_20180209_172636.jpg",0,0
//Break Periods
//Storyboard Layer 0 (Background)
//Storyboard Layer 1 (Fail)
//Storyboard Layer 2 (Pass)
//Storyboard Layer 3 (Foreground)
//Storyboard Sound Samples

[TimingPoints]
873.162358555869,363.636406533575,4,1,0,75,1,0
5236,-125,4,1,0,75,0,0
5964,-83.3333333333333,4,1,0,75,0,0
6691,-100,4,1,0,75,0,0
11054,-125,4,1,0,75,0,0
11782,-83.3333333333333,4,1,0,75,0,0
12509,-90.9090909090909,4,1,0,75,0,0
24145,-125,4,1,0,75,0,0
35782,-166.666666666667,4,1,0,75,0,0
41600,-111.111111111111,4,1,0,75,0,0
53236,-100,4,1,0,75,0,0
54145,-83.3333333333333,4,1,0,40,0,0
54691,-90.9090909090909,4,1,0,75,0,1
63054,-111.111111111111,4,1,0,75,0,1
63418,-90.9090909090909,4,1,0,75,0,1
66282,-90.9090909090909,4,1,0,75,0,0
66327,-90.9090909090909,4,1,0,75,0,1
75009,-90.9090909090909,4,1,0,75,0,0
75054,-90.9090909090909,4,1,0,75,0,1
75736,-90.9090909090909,4,1,0,75,0,0
75782,-90.9090909090909,4,1,0,75,0,1
76464,-90.9090909090909,4,1,0,75,0,0
76509,-90.9090909090909,4,1,0,75,0,1
77236,-90.9090909090909,4,1,0,75,0,0
77964,-90.9090909090909,4,1,0,75,0,1
86691,-125,4,1,0,75,0,0

[HitObjects]
184,72,509,6,0,L|155:77,7,22.5
117,83,873,5,0,0:0:0:0:
141,305,1054,1,0,0:0:0:0:
305,326,1782,6,0,P|226:285|139:306,1,180
64,301,2327,5,0,0:0:0:0:
117,83,2508,1,0,0:0:0:0:
280,63,3236,6,0,P|201:103|114:82,1,180
62,155,3782,5,0,0:0:0:0:
280,208,3963,1,0,0:0:0:0:
341,55,4691,6,0,P|281:120|279:209,1,180
371,214,5236,2,0,P|301:295|209:264,1,216
138,215,5964,6,0,P|106:234|72:235,1,71.9999978027344
165,135,6206,2,0,P|197:153|215:182,1,71.9999978027344
82,148,6448,2,0,P|81:110|97:80,1,71.9999978027344
178,49,6691,5,0,0:0:0:0:
393,115,6873,1,0,0:0:0:0:
384,279,7600,6,0,P|357:194|393:113,1,180
465,167,8145,5,0,0:0:0:0:
250,233,8327,1,0,0:0:0:0:
241,68,9054,6,0,P|214:152|250:233,1,180
245,321,9600,5,0,0:0:0:0:
385,145,9782,1,0,0:0:0:0:
228,93,10509,6,0,P|316:89|385:145,1,180
414,225,11054,2,0,B|380:388|380:388|359:344,1,216
310,267,11782,6,0,P|291:237|260:220,1,71.9999978027344
166,319,12024,2,0,P|202:318|233:300,1,71.9999978027344
192,165,12267,2,0,P|176:197|177:233,1,71.9999978027344
312,148,12509,6,0,P|353:175|379:217,1,99.0000030212403
265,65,12873,2,0,P|312:54|360:65,1,99.0000030212403
499,124,13236,1,0,0:0:0:0:
378,216,13418,1,0,0:0:0:0:
360,65,13600,1,0,0:0:0:0:
478,212,13782,6,0,P|466:259|435:297,1,99.0000030212403
377,216,14146,2,0,P|335:241|286:246,1,99.0000030212403
302,147,14509,2,0,P|254:135|216:104,1,99.0000030212403
129,153,14873,2,0,P|143:199|134:248,2,99.0000030212403
132,53,15418,5,0,0:0:0:0:
53,206,15600,1,0,0:0:0:0:
216,104,15782,2,0,P|254:135|302:147,1,99.0000030212403
390,193,16145,1,0,0:0:0:0:
294,52,16327,1,0,0:0:0:0:
224,206,16509,1,0,0:0:0:0:
478,232,16691,6,0,P|486:183|472:136,1,99.0000030212403
295,52,17054,2,0,P|287:100|302:147,1,99.0000030212403
472,136,17418,2,0,P|433:105|385:94,1,99.0000030212403
312,248,17782,2,0,P|357:230|390:193,2,99.0000030212403
225,206,18327,5,0,0:0:0:0:
385,94,18509,1,0,0:0:0:0:
401,288,18691,2,0,P|408:336|393:383,1,99.0000030212403
311,326,19054,1,0,0:0:0:0:
225,206,19236,1,0,0:0:0:0:
390,193,19418,1,0,0:0:0:0:
213,303,19600,6,0,P|167:285|134:248,1,99.0000030212403
312,135,19964,2,0,P|350:104|398:93,1,99.0000030212403
401,288,20327,2,0,P|408:336|393:383,1,99.0000030212403
213,303,20691,2,0,P|167:285|134:248,2,99.0000030212403
225,206,21236,5,0,0:0:0:0:
401,288,21418,1,0,0:0:0:0:
228,104,21600,2,0,P|180:114|141:145,1,99.0000030212403
225,206,21964,1,0,0:0:0:0:
401,288,22146,1,0,0:0:0:0:
384,94,22327,1,0,0:0:0:0:
134,248,22509,6,0,P|167:285|213:303,1,99.0000030212403
228,104,22873,2,0,P|180:114|141:145,1,99.0000030212403
306,257,23236,2,0,P|321:210|313:161,1,99.0000030212403
134,248,23600,2,0,L|90:269,1,49.5000015106202
228,104,23782,2,0,L|231:55,1,49.5000015106202
306,257,23964,2,0,L|346:284,1,49.5000015106202
469,243,24145,5,0,0:0:0:0:
375,109,24327,1,0,0:0:0:0:
306,257,24509,2,0,B|261:290|209:268|209:268|229:307,2,144
452,143,25600,6,0,P|459:109|451:73,1,72
249,142,25964,2,0,L|249:178,2,36
385,192,26327,2,0,P|410:215|446:226,1,72
321,90,26691,2,0,P|295:66|259:55,1,72
177,230,27054,5,0,0:0:0:0:
385,192,27236,2,0,P|418:181|446:155,2,72
298,324,27782,2,0,P|308:357|334:385,1,72
177,230,28145,2,0,P|143:240|115:266,1,72
271,109,28509,5,0,0:0:0:0:
177,230,28691,2,0,L|175:274,2,36
117,88,29054,2,0,L|79:64,2,36
187,141,29418,1,0,0:0:0:0:
271,109,29600,2,0,L|310:88,3,36
348,33,29964,6,0,P|372:59|378:94,1,72
444,180,30327,2,0,P|417:204|382:210,1,72
292,272,30691,2,0,P|268:245|262:210,1,72
197,125,31054,2,0,P|223:100|258:94,1,72
383,211,31418,6,0,L|402:247,2,36
129,211,31782,2,0,L|110:247,2,36
364,309,32145,2,0,P|397:320|432:312,1,72
148,309,32509,2,0,P|114:320|79:312,1,72
224,244,32873,5,0,0:0:0:0:
364,309,33054,2,0,P|397:320|432:312,2,72
224,244,33600,2,0,P|197:267|186:301,1,72
350,155,33964,2,0,P|343:120|319:93,1,72
313,236,34327,5,0,0:0:0:0:
135,236,34509,2,0,L|93:236,2,36
274,313,34873,2,0,L|295:349,2,36
224,244,35236,1,0,0:0:0:0:
263,167,35418,2,0,L|284:130,3,36
214,104,35782,6,0,P|303:64|353:153,1,215.999993408203
214,104,36873,1,0,0:0:0:0:
214,104,37054,1,0,0:0:0:0:
214,104,37236,2,0,L|105:97,2,107.999996704102
364,257,38327,1,0,0:0:0:0:
364,257,38509,1,0,0:0:0:0:
364,257,38691,6,0,L|353:148,1,107.999996704102
164,48,39418,2,0,L|153:157,1,107.999996704102
93,246,39964,1,0,0:0:0:0:
93,246,40145,2,0,L|87:300,2,53.9999983520508
153,155,40873,6,0,L|158:100,2,35.9999989013672
187,260,41236,2,0,L|181:314,2,35.9999989013672
256,191,41600,6,0,P|297:185|336:200,1,80.9999975280763
423,241,41964,1,0,0:0:0:0:
423,58,42145,1,0,0:0:0:0:
333,100,42327,2,0,P|295:114|256:108,1,80.9999975280763
184,150,42691,5,0,0:0:0:0:
394,150,42873,1,0,0:0:0:0:
179,72,43054,2,0,P|171:111|184:150,1,80.9999975280763
389,227,43418,2,0,P|401:188|393:149,1,80.9999975280763
289,37,43782,5,0,0:0:0:0:
189,228,43964,1,0,0:0:0:0:
179,72,44145,1,0,0:0:0:0:
303,250,44327,1,0,0:0:0:0:
184,150,44509,1,0,0:0:0:0:
184,150,44873,5,0,0:0:0:0:
393,149,45054,1,0,0:0:0:0:
189,228,45236,2,0,P|149:220|118:195,1,80.9999975280763
184,150,45600,1,0,0:0:0:0:
333,100,45782,1,0,0:0:0:0:
257,260,45964,2,0,P|230:290|193:304,1,80.9999975280763
184,150,46327,5,0,0:0:0:0:
393,149,46509,1,0,0:0:0:0:
189,228,46691,1,0,0:0:0:0:
179,72,46873,1,0,0:0:0:0:
257,260,47054,1,0,0:0:0:0:
176,61,47236,1,0,0:0:0:0:
193,304,47418,1,0,0:0:0:0:
193,304,47782,5,0,0:0:0:0:
325,208,47964,1,0,0:0:0:0:
184,150,48145,2,0,P|144:141|113:115,1,80.9999975280763
333,100,48509,1,0,0:0:0:0:
189,228,48691,1,0,0:0:0:0:
179,72,48873,2,0,P|206:41|243:28,1,80.9999975280763
184,150,49236,6,0,P|144:141|113:115,1,80.9999975280763
251,106,49600,2,0,P|263:144|256:183,1,80.9999975280763
179,72,49964,1,0,0:0:0:0:
333,100,50145,1,0,0:0:0:0:
189,228,50327,6,0,P|109:210|48:159,1,161.999995056153
251,106,50873,1,0,0:0:0:0:
262,264,51054,2,0,P|234:293|197:307,1,80.9999975280763
184,150,51418,1,0,0:0:0:0:
370,206,51600,1,0,0:0:0:0:
197,308,51782,6,0,L|190:227,1,80.9999975280763
177,69,52145,1,0,0:0:0:0:
363,125,52327,1,0,0:0:0:0:
190,227,52509,2,0,P|150:217|120:192,1,80.9999975280763
278,69,52873,5,0,0:0:0:0:
306,40,52963,1,0,0:0:0:0:
343,25,53054,1,0,0:0:0:0:
383,25,53145,1,0,0:0:0:0:
420,40,53236,2,0,P|425:64|433:83,1,45
363,125,53418,2,0,P|358:149|350:168,1,45
409,291,53782,2,0,P|319:280|276:283,1,135
232,278,54145,6,0,B|196:324|196:324|202:238|183:167,1,215.999993408203
363,125,54691,5,0,0:0:0:0:
