osu file format v14

[General]
AudioFilename: audio.mp3
AudioLeadIn: 0
PreviewTime: -1
Countdown: 0
SampleSet: None
StackLeniency: 0.7
Mode: 3
LetterboxInBreaks: 0
SpecialStyle: 0
WidescreenStoryboard: 0

[Editor]
DistanceSpacing: 0.6
BeatDivisor: 4
GridSize: 8
TimelineZoom: 1.3

[Metadata]
Title:T.B.H
TitleUnicode:T.B.H
Artist:QWER
ArtistUnicode:QWER
Creator:Janceee
Version:Chodan
Source:
Tags:
BeatmapID:4567529
BeatmapSetID:2165223

[Difficulty]
HPDrainRate:5
CircleSize:7
OverallDifficulty:5
ApproachRate:5
SliderMultiplier:1.4
SliderTickRate:1

[Events]
//Background and Video events
0,0,"GJqlx_aaoAA6K_g.jpg",0,0
//Break Periods
//Storyboard Layer 0 (Background)
//Storyboard Layer 1 (Fail)
//Storyboard Layer 2 (Pass)
//Storyboard Layer 3 (Foreground)
//Storyboard Layer 4 (Overlay)
//Storyboard Sound Samples

[TimingPoints]
3532,337.078651685393,4,1,0,100,1,0
25105,-66.6666666666667,4,1,0,100,0,0
25442,-100,4,1,0,100,0,0
35878,-133.333333333333,4,1,0,100,0,0
38588,-100,4,1,0,100,0,0
91172,-133.333333333333,4,1,0,100,0,0
96565,-100,4,1,0,100,0,0
141060,-50,4,1,0,100,0,0
141397,-50,4,1,0,100,0,0
141734,-66.6666666666667,4,1,0,100,0,0
142071,-133.333333333333,4,1,0,100,0,0
142324,-100,4,1,0,100,0,0

[HitObjects]
36,192,835,5,0,0:0:0:0:
182,192,1509,1,0,0:0:0:0:
109,192,1509,1,0,0:0:0:0:
329,192,2183,1,0,0:0:0:0:
402,192,2183,1,0,0:0:0:0:
475,192,2183,1,0,0:0:0:0:
182,192,2520,1,0,0:0:0:0:
109,192,2520,1,0,0:0:0:0:
36,192,2520,1,0,0:0:0:0:
329,192,2857,1,0,0:0:0:0:
402,192,2857,1,0,0:0:0:0:
475,192,2857,1,0,0:0:0:0:
182,192,2857,1,0,0:0:0:0:
109,192,2857,1,0,0:0:0:0:
36,192,2857,1,0,0:0:0:0:
182,192,3194,1,0,0:0:0:0:
109,192,3194,1,0,0:0:0:0:
36,192,3194,1,0,0:0:0:0:
329,192,3194,1,0,0:0:0:0:
475,192,3194,1,0,0:0:0:0:
402,192,3194,1,0,0:0:0:0:
256,192,3279,1,0,0:0:0:0:
329,192,3363,1,0,0:0:0:0:
182,192,3363,1,0,0:0:0:0:
109,192,3447,1,0,0:0:0:0:
402,192,3447,1,0,0:0:0:0:
36,192,3531,1,0,0:0:0:0:
256,192,3531,1,0,0:0:0:0:
475,192,3531,1,0,0:0:0:0:
109,192,3616,1,0,0:0:0:0:
182,192,3616,1,0,0:0:0:0:
402,192,3616,1,0,0:0:0:0:
329,192,3616,1,0,0:0:0:0:
475,192,3700,1,0,0:0:0:0:
36,192,3784,1,0,0:0:0:0:
402,192,3784,1,0,0:0:0:0:
109,192,3869,1,0,0:0:0:0:
329,192,3869,1,0,0:0:0:0:
182,192,3953,1,0,0:0:0:0:
329,192,4037,1,0,0:0:0:0:
402,192,4037,1,0,0:0:0:0:
475,192,4037,1,0,0:0:0:0:
256,192,4121,1,0,0:0:0:0:
182,192,4206,1,0,0:0:0:0:
109,192,4290,1,0,0:0:0:0:
36,192,4290,1,0,0:0:0:0:
182,192,4374,1,0,0:0:0:0:
256,192,4458,1,0,0:0:0:0:
109,192,4458,1,0,0:0:0:0:
402,192,4458,1,0,0:0:0:0:
329,192,4543,1,0,0:0:0:0:
256,192,4627,1,0,0:0:0:0:
182,192,4711,1,0,0:0:0:0:
109,192,4711,1,0,0:0:0:0:
36,192,4711,1,0,0:0:0:0:
329,192,4711,1,0,0:0:0:0:
475,192,4711,1,0,0:0:0:0:
256,192,4796,1,0,0:0:0:0:
329,192,4880,1,0,0:0:0:0:
109,192,4880,1,0,0:0:0:0:
36,192,4880,1,0,0:0:0:0:
475,192,4880,1,0,0:0:0:0:
256,192,4964,1,0,0:0:0:0:
182,192,4964,1,0,0:0:0:0:
329,192,5048,1,0,0:0:0:0:
256,192,5133,1,0,0:0:0:0:
402,192,5133,1,0,0:0:0:0:
329,192,5217,1,0,0:0:0:0:
182,192,5217,1,0,0:0:0:0:
109,192,5217,1,0,0:0:0:0:
36,192,5217,1,0,0:0:0:0:
475,192,5217,1,0,0:0:0:0:
256,192,5301,1,0,0:0:0:0:
402,192,5301,1,0,0:0:0:0:
329,192,5385,1,0,0:0:0:0:
256,192,5470,1,0,0:0:0:0:
475,192,5554,1,0,0:0:0:0:
182,192,5554,1,0,0:0:0:0:
109,192,5554,1,0,0:0:0:0:
36,192,5554,1,0,0:0:0:0:
329,192,5554,1,0,0:0:0:0:
256,192,5638,1,0,0:0:0:0:
329,192,5723,1,0,0:0:0:0:
182,192,5723,1,0,0:0:0:0:
109,192,5807,1,0,0:0:0:0:
402,192,5807,1,0,0:0:0:0:
36,192,5891,1,0,0:0:0:0:
329,192,5891,1,0,0:0:0:0:
256,192,5891,1,0,0:0:0:0:
402,192,5975,1,0,0:0:0:0:
109,192,5975,1,0,0:0:0:0:
475,192,6060,1,0,0:0:0:0:
329,192,6060,1,0,0:0:0:0:
182,192,6060,1,0,0:0:0:0:
256,192,6144,1,0,0:0:0:0:
475,192,6228,1,0,0:0:0:0:
329,192,6228,1,0,0:0:0:0:
402,192,6228,1,0,0:0:0:0:
109,192,6228,1,0,0:0:0:0:
36,192,6228,1,0,0:0:0:0:
182,192,6312,1,0,0:0:0:0:
256,192,6312,1,0,0:0:0:0:
329,192,6397,1,0,0:0:0:0:
109,192,6397,1,0,0:0:0:0:
182,192,6481,1,0,0:0:0:0:
402,192,6565,1,0,0:0:0:0:
256,192,6565,1,0,0:0:0:0:
329,192,6565,1,0,0:0:0:0:
475,192,6565,1,0,0:0:0:0:
182,192,6649,1,0,0:0:0:0:
109,192,6734,1,0,0:0:0:0:
256,192,6734,1,0,0:0:0:0:
36,192,6818,1,0,0:0:0:0:
329,192,6818,1,0,0:0:0:0:
109,192,6902,1,0,0:0:0:0:
182,192,6902,1,0,0:0:0:0:
256,192,6902,1,0,0:0:0:0:
402,192,6902,1,0,0:0:0:0:
329,192,6987,1,0,0:0:0:0:
402,192,7071,1,0,0:0:0:0:
182,192,7071,1,0,0:0:0:0:
475,192,7155,1,0,0:0:0:0:
109,192,7155,1,0,0:0:0:0:
402,192,7239,1,0,0:0:0:0:
329,192,7239,1,0,0:0:0:0:
256,192,7239,1,0,0:0:0:0:
182,192,7324,1,0,0:0:0:0:
109,192,7408,1,0,0:0:0:0:
36,192,7492,1,0,0:0:0:0:
182,192,7492,1,0,0:0:0:0:
256,192,7492,1,0,0:0:0:0:
475,192,7492,1,0,0:0:0:0:
402,192,7576,1,0,0:0:0:0:
329,192,7576,1,0,0:0:0:0:
36,192,7745,1,0,0:0:0:0:
182,192,7745,1,0,0:0:0:0:
329,192,7745,1,0,0:0:0:0:
475,192,7745,1,0,0:0:0:0:
402,192,7829,1,0,0:0:0:0:
256,192,7829,1,0,0:0:0:0:
109,192,7829,1,0,0:0:0:0:
475,192,7914,1,0,0:0:0:0:
36,192,7914,1,0,0:0:0:0:
256,192,7998,1,0,0:0:0:0:
109,192,8082,1,0,0:0:0:0:
402,192,8082,1,0,0:0:0:0:
36,192,8166,1,0,0:0:0:0:
475,192,8166,1,0,0:0:0:0:
256,192,8166,1,0,0:0:0:0:
402,192,8251,1,0,0:0:0:0:
109,192,8251,1,0,0:0:0:0:
256,192,8335,1,0,0:0:0:0:
36,192,8335,1,0,0:0:0:0:
475,192,8335,1,0,0:0:0:0:
329,192,8419,1,0,0:0:0:0:
182,192,8419,1,0,0:0:0:0:
109,192,8503,1,0,0:0:0:0:
256,192,8503,1,0,0:0:0:0:
475,192,8503,1,0,0:0:0:0:
329,192,8588,1,0,0:0:0:0:
182,192,8588,1,0,0:0:0:0:
36,192,8588,1,0,0:0:0:0:
475,192,8672,1,0,0:0:0:0:
402,192,8714,1,0,0:0:0:0:
329,192,8756,1,0,0:0:0:0:
36,192,8798,1,0,0:0:0:0:
109,192,8840,1,0,0:0:0:0:
182,192,8883,1,0,0:0:0:0:
475,192,8925,128,0,9262:0:0:0:0:
402,192,8925,1,0,0:0:0:0:
329,192,9009,1,0,0:0:0:0:
256,192,9009,1,0,0:0:0:0:
182,192,9093,1,0,0:0:0:0:
402,192,9093,1,0,0:0:0:0:
329,192,9178,1,0,0:0:0:0:
36,192,9262,128,0,9599:0:0:0:0:
182,192,9262,1,0,0:0:0:0:
109,192,9262,1,0,0:0:0:0:
256,192,9346,1,0,0:0:0:0:
402,192,9346,1,0,0:0:0:0:
329,192,9430,1,0,0:0:0:0:
475,192,9430,1,0,0:0:0:0:
402,192,9515,1,0,0:0:0:0:
182,192,9599,128,0,9936:0:0:0:0:
329,192,9599,1,0,0:0:0:0:
256,192,9599,1,0,0:0:0:0:
402,192,9683,1,0,0:0:0:0:
329,192,9767,1,0,0:0:0:0:
475,192,9767,1,0,0:0:0:0:
109,192,9767,1,0,0:0:0:0:
402,192,9852,1,0,0:0:0:0:
36,192,9852,1,0,0:0:0:0:
329,192,9936,128,0,10273:0:0:0:0:
256,192,9936,1,0,0:0:0:0:
109,192,9936,1,0,0:0:0:0:
402,192,10020,1,0,0:0:0:0:
182,192,10020,1,0,0:0:0:0:
256,192,10105,1,0,0:0:0:0:
109,192,10105,1,0,0:0:0:0:
182,192,10189,1,0,0:0:0:0:
475,192,10273,128,0,10610:0:0:0:0:
256,192,10273,1,0,0:0:0:0:
402,192,10273,1,0,0:0:0:0:
36,192,10273,1,0,0:0:0:0:
182,192,10357,1,0,0:0:0:0:
109,192,10442,1,0,0:0:0:0:
256,192,10442,1,0,0:0:0:0:
329,192,10526,1,0,0:0:0:0:
36,192,10526,1,0,0:0:0:0:
256,192,10610,128,0,10947:0:0:0:0:
402,192,10610,1,0,0:0:0:0:
329,192,10610,1,0,0:0:0:0:
182,192,10610,1,0,0:0:0:0:
109,192,10610,1,0,0:0:0:0:
36,192,10694,1,0,0:0:0:0:
182,192,10779,1,0,0:0:0:0:
109,192,10779,1,0,0:0:0:0:
329,192,10863,1,0,0:0:0:0:
36,192,10947,128,0,11284:0:0:0:0:
402,192,10947,1,0,0:0:0:0:
475,192,10947,1,0,0:0:0:0:
182,192,10947,1,0,0:0:0:0:
109,192,10947,1,0,0:0:0:0:
329,192,11031,1,0,0:0:0:0:
256,192,11116,1,0,0:0:0:0:
182,192,11200,1,0,0:0:0:0:
256,192,11284,128,0,11621:0:0:0:0:
109,192,11284,1,0,0:0:0:0:
182,192,11284,1,0,0:0:0:0:
329,192,11284,1,0,0:0:0:0:
475,192,11284,1,0,0:0:0:0:
402,192,11369,1,0,0:0:0:0:
329,192,11453,1,0,0:0:0:0:
475,192,11453,1,0,0:0:0:0:
109,192,11453,1,0,0:0:0:0:
329,192,11621,1,0,0:0:0:0:
475,192,11621,1,0,0:0:0:0:
109,192,11621,1,0,0:0:0:0:
402,192,11621,1,0,0:0:0:0:
36,192,11621,1,0,0:0:0:0:
182,192,11621,1,0,0:0:0:0:
36,192,11790,1,0,0:0:0:0:
109,192,11790,1,0,0:0:0:0:
182,192,11790,1,0,0:0:0:0:
329,192,11790,1,0,0:0:0:0:
402,192,11790,1,0,0:0:0:0:
475,192,11790,1,0,0:0:0:0:
256,192,11958,1,0,0:0:0:0:
329,192,12127,1,0,0:0:0:0:
182,192,12127,1,0,0:0:0:0:
109,192,12127,1,0,0:0:0:0:
36,192,12127,1,0,0:0:0:0:
182,192,12296,1,0,0:0:0:0:
329,192,12296,1,0,0:0:0:0:
402,192,12296,1,0,0:0:0:0:
475,192,12296,1,0,0:0:0:0:
256,192,12464,1,0,0:0:0:0:
402,192,12548,1,0,0:0:0:0:
109,192,12548,1,0,0:0:0:0:
402,192,12633,1,0,0:0:0:0:
109,192,12633,1,0,0:0:0:0:
109,192,12717,1,0,0:0:0:0:
402,192,12717,1,0,0:0:0:0:
329,192,12801,1,0,0:0:0:0:
256,192,12801,1,0,0:0:0:0:
182,192,12801,1,0,0:0:0:0:
36,192,12801,1,0,0:0:0:0:
475,192,12801,1,0,0:0:0:0:
36,192,13054,128,0,13475:0:0:0:0:
182,192,13054,128,0,13475:0:0:0:0:
329,192,13054,128,0,13475:0:0:0:0:
475,192,13054,128,0,13475:0:0:0:0:
256,192,13054,128,0,13644:0:0:0:0:
402,192,13054,128,0,13475:0:0:0:0:
475,192,13560,128,0,13981:0:0:0:0:
36,192,13560,128,0,13981:0:0:0:0:
402,192,13560,128,0,13812:0:0:0:0:
109,192,13560,128,0,13812:0:0:0:0:
182,192,13644,128,0,13981:0:0:0:0:
329,192,13644,128,0,13981:0:0:0:0:
402,192,13897,1,0,0:0:0:0:
109,192,13897,1,0,0:0:0:0:
256,192,13981,128,0,14065:0:0:0:0:
402,192,14065,1,0,0:0:0:0:
109,192,14065,1,0,0:0:0:0:
182,192,14149,128,0,14234:0:0:0:0:
329,192,14149,1,0,0:0:0:0:
109,192,14234,128,0,14318:0:0:0:0:
256,192,14234,1,0,0:0:0:0:
36,192,14318,1,0,0:0:0:0:
402,192,14318,1,0,0:0:0:0:
475,192,14318,1,0,0:0:0:0:
329,192,14318,1,0,0:0:0:0:
256,192,14487,1,0,0:0:0:0:
109,192,14655,1,0,0:0:0:0:
256,192,14824,1,0,0:0:0:0:
402,192,14824,1,0,0:0:0:0:
36,192,14992,1,0,0:0:0:0:
256,192,15076,1,0,0:0:0:0:
182,192,15245,1,0,0:0:0:0:
36,192,15329,1,0,0:0:0:0:
402,192,15329,1,0,0:0:0:0:
256,192,15498,1,0,0:0:0:0:
36,192,15666,1,0,0:0:0:0:
256,192,15666,1,0,0:0:0:0:
475,192,15666,1,0,0:0:0:0:
402,192,15835,1,0,0:0:0:0:
256,192,15919,1,0,0:0:0:0:
36,192,16003,1,0,0:0:0:0:
475,192,16003,1,0,0:0:0:0:
109,192,16088,1,0,0:0:0:0:
256,192,16172,1,0,0:0:0:0:
36,192,16340,1,0,0:0:0:0:
329,192,16340,1,0,0:0:0:0:
402,192,16340,1,0,0:0:0:0:
182,192,16509,1,0,0:0:0:0:
256,192,16593,1,0,0:0:0:0:
36,192,16678,1,0,0:0:0:0:
402,192,16678,1,0,0:0:0:0:
329,192,16846,1,0,0:0:0:0:
256,192,16846,1,0,0:0:0:0:
36,192,17015,1,0,0:0:0:0:
182,192,17015,1,0,0:0:0:0:
109,192,17015,1,0,0:0:0:0:
475,192,17015,1,0,0:0:0:0:
256,192,17099,1,0,0:0:0:0:
182,192,17183,1,0,0:0:0:0:
36,192,17352,1,0,0:0:0:0:
329,192,17352,1,0,0:0:0:0:
402,192,17352,1,0,0:0:0:0:
256,192,17520,1,0,0:0:0:0:
182,192,17520,1,0,0:0:0:0:
329,192,17605,1,0,0:0:0:0:
36,192,17689,1,0,0:0:0:0:
475,192,17689,1,0,0:0:0:0:
402,192,17689,1,0,0:0:0:0:
256,192,17857,1,0,0:0:0:0:
329,192,17942,1,0,0:0:0:0:
36,192,18026,1,0,0:0:0:0:
109,192,18026,128,0,18363:0:0:0:0:
182,192,18026,128,0,18363:0:0:0:0:
475,192,18026,1,0,0:0:0:0:
329,192,18194,1,0,0:0:0:0:
402,192,18279,1,0,0:0:0:0:
36,192,18363,1,0,0:0:0:0:
256,192,18363,128,0,18700:0:0:0:0:
329,192,18363,128,0,18700:0:0:0:0:
475,192,18363,1,0,0:0:0:0:
109,192,18531,1,0,0:0:0:0:
402,192,18700,128,0,19037:0:0:0:0:
475,192,18700,128,0,19037:0:0:0:0:
109,192,18700,128,0,19037:0:0:0:0:
182,192,18700,1,0,0:0:0:0:
36,192,18700,128,0,19037:0:0:0:0:
256,192,18869,1,0,0:0:0:0:
182,192,19037,128,0,19374:0:0:0:0:
256,192,19037,128,0,19374:0:0:0:0:
329,192,19037,1,0,0:0:0:0:
402,192,19206,1,0,0:0:0:0:
36,192,19374,1,0,0:0:0:0:
329,192,19374,128,0,19711:0:0:0:0:
402,192,19374,128,0,19711:0:0:0:0:
475,192,19374,1,0,0:0:0:0:
182,192,19543,1,0,0:0:0:0:
36,192,19711,1,0,0:0:0:0:
182,192,19711,128,0,20048:0:0:0:0:
256,192,19711,128,0,20048:0:0:0:0:
109,192,19711,1,0,0:0:0:0:
109,192,19880,1,0,0:0:0:0:
329,192,19880,1,0,0:0:0:0:
36,192,20048,1,0,0:0:0:0:
109,192,20048,128,0,20385:0:0:0:0:
402,192,20048,128,0,20385:0:0:0:0:
329,192,20048,1,0,0:0:0:0:
475,192,20048,1,0,0:0:0:0:
256,192,20217,1,0,0:0:0:0:
36,192,20385,1,0,0:0:0:0:
329,192,20385,128,0,20723:0:0:0:0:
475,192,20385,128,0,20723:0:0:0:0:
182,192,20385,128,0,20723:0:0:0:0:
402,192,20554,1,0,0:0:0:0:
109,192,20723,128,0,21060:0:0:0:0:
402,192,20723,128,0,21060:0:0:0:0:
256,192,20723,1,0,0:0:0:0:
36,192,20891,1,0,0:0:0:0:
256,192,20891,1,0,0:0:0:0:
256,192,21060,128,0,21397:0:0:0:0:
475,192,21060,128,0,21397:0:0:0:0:
329,192,21060,128,0,21397:0:0:0:0:
182,192,21060,1,0,0:0:0:0:
109,192,21228,1,0,0:0:0:0:
182,192,21397,128,0,21734:0:0:0:0:
109,192,21397,128,0,21734:0:0:0:0:
36,192,21397,128,0,21734:0:0:0:0:
402,192,21397,1,0,0:0:0:0:
402,192,21565,1,0,0:0:0:0:
256,192,21734,128,0,22071:0:0:0:0:
329,192,21734,128,0,22071:0:0:0:0:
402,192,21734,128,0,22071:0:0:0:0:
475,192,21734,1,0,0:0:0:0:
182,192,21902,1,0,0:0:0:0:
36,192,22071,1,0,0:0:0:0:
182,192,22071,1,0,0:0:0:0:
109,192,22071,128,0,22408:0:0:0:0:
475,192,22071,128,0,22408:0:0:0:0:
256,192,22239,1,0,0:0:0:0:
402,192,22408,1,0,0:0:0:0:
36,192,22408,1,0,0:0:0:0:
182,192,22576,1,0,0:0:0:0:
256,192,22576,1,0,0:0:0:0:
329,192,22576,1,0,0:0:0:0:
402,192,22745,1,0,0:0:0:0:
475,192,22745,1,0,0:0:0:0:
109,192,22745,1,0,0:0:0:0:
36,192,22745,1,0,0:0:0:0:
182,192,22914,1,0,0:0:0:0:
329,192,22914,1,0,0:0:0:0:
256,192,23082,1,0,0:0:0:0:
402,192,23251,1,0,0:0:0:0:
109,192,23251,1,0,0:0:0:0:
475,192,23251,1,0,0:0:0:0:
36,192,23251,1,0,0:0:0:0:
329,192,23419,1,0,0:0:0:0:
256,192,23419,1,0,0:0:0:0:
182,192,23419,1,0,0:0:0:0:
402,192,23503,1,0,0:0:0:0:
402,192,23672,1,0,0:0:0:0:
36,192,23714,128,0,23756:0:0:0:0:
109,192,23714,128,0,23756:0:0:0:0:
182,192,23714,128,0,23756:0:0:0:0:
475,192,23756,1,0,0:0:0:0:
402,192,23840,1,0,0:0:0:0:
182,192,23925,128,0,23967:0:0:0:0:
109,192,23925,128,0,23967:0:0:0:0:
36,192,23925,128,0,23967:0:0:0:0:
329,192,23925,1,0,0:0:0:0:
402,192,24009,1,0,0:0:0:0:
475,192,24093,1,0,0:0:0:0:
402,192,24178,1,0,0:0:0:0:
182,192,24178,1,0,0:0:0:0:
329,192,24262,1,0,0:0:0:0:
109,192,24262,1,0,0:0:0:0:
256,192,24346,1,0,0:0:0:0:
402,192,24346,1,0,0:0:0:0:
36,192,24346,1,0,0:0:0:0:
182,192,24430,1,0,0:0:0:0:
109,192,24515,1,0,0:0:0:0:
475,192,24515,1,0,0:0:0:0:
402,192,24599,1,0,0:0:0:0:
36,192,24599,1,0,0:0:0:0:
329,192,24683,1,0,0:0:0:0:
475,192,24683,1,0,0:0:0:0:
109,192,24683,1,0,0:0:0:0:
182,192,24767,1,0,0:0:0:0:
475,192,24852,1,0,0:0:0:0:
256,192,24852,1,0,0:0:0:0:
109,192,24852,1,0,0:0:0:0:
36,192,24936,1,0,0:0:0:0:
329,192,24936,1,0,0:0:0:0:
182,192,25020,1,0,0:0:0:0:
402,192,25020,1,0,0:0:0:0:
36,192,25105,128,0,26453:0:0:0:0:
109,192,25105,1,0,0:0:0:0:
256,192,25105,1,0,0:0:0:0:
475,192,25105,1,0,0:0:0:0:
329,192,25105,1,0,0:0:0:0:
109,192,25399,128,0,25442:0:0:0:0:
182,192,25399,128,0,25442:0:0:0:0:
329,192,25399,128,0,25442:0:0:0:0:
402,192,25399,128,0,25442:0:0:0:0:
256,192,25399,128,0,25442:0:0:0:0:
475,192,25568,128,0,25610:0:0:0:0:
329,192,25568,128,0,25610:0:0:0:0:
256,192,25568,128,0,25610:0:0:0:0:
182,192,25568,128,0,25610:0:0:0:0:
109,192,25568,128,0,25610:0:0:0:0:
109,192,25737,128,0,25779:0:0:0:0:
182,192,25737,128,0,25779:0:0:0:0:
256,192,25737,128,0,25779:0:0:0:0:
402,192,25737,128,0,25779:0:0:0:0:
475,192,25737,128,0,25779:0:0:0:0:
109,192,25905,128,0,25947:0:0:0:0:
182,192,25905,128,0,25947:0:0:0:0:
329,192,25905,128,0,25947:0:0:0:0:
402,192,25905,128,0,25947:0:0:0:0:
475,192,25905,128,0,25947:0:0:0:0:
256,192,26074,128,0,26116:0:0:0:0:
329,192,26074,128,0,26116:0:0:0:0:
402,192,26074,128,0,26116:0:0:0:0:
475,192,26074,128,0,26116:0:0:0:0:
182,192,26074,128,0,26116:0:0:0:0:
475,192,26242,128,0,26284:0:0:0:0:
402,192,26242,128,0,26284:0:0:0:0:
256,192,26242,128,0,26284:0:0:0:0:
182,192,26242,128,0,26284:0:0:0:0:
109,192,26242,128,0,26284:0:0:0:0:
109,192,26411,128,0,26453:0:0:0:0:
182,192,26411,128,0,26453:0:0:0:0:
256,192,26411,128,0,26453:0:0:0:0:
402,192,26411,128,0,26453:0:0:0:0:
475,192,26411,128,0,26453:0:0:0:0:
329,192,26411,128,0,27801:0:0:0:0:
109,192,26579,128,0,26621:0:0:0:0:
402,192,26579,128,0,26621:0:0:0:0:
256,192,26579,128,0,26621:0:0:0:0:
182,192,26579,128,0,26621:0:0:0:0:
475,192,26748,128,0,26790:0:0:0:0:
182,192,26748,128,0,26790:0:0:0:0:
109,192,26748,128,0,26790:0:0:0:0:
36,192,26748,128,0,26790:0:0:0:0:
182,192,26916,128,0,26958:0:0:0:0:
256,192,26916,128,0,26958:0:0:0:0:
402,192,26916,128,0,26958:0:0:0:0:
36,192,26916,128,0,26958:0:0:0:0:
109,192,27127,128,0,27801:0:0:0:0:
182,192,27127,128,0,27169:0:0:0:0:
256,192,27127,128,0,27169:0:0:0:0:
475,192,27127,128,0,27169:0:0:0:0:
36,192,27296,128,0,27338:0:0:0:0:
256,192,27296,128,0,27338:0:0:0:0:
402,192,27296,128,0,27338:0:0:0:0:
475,192,27422,128,0,27464:0:0:0:0:
36,192,27464,128,0,27506:0:0:0:0:
182,192,27464,128,0,27506:0:0:0:0:
402,192,27590,128,0,27633:0:0:0:0:
256,192,27590,128,0,27633:0:0:0:0:
256,192,27759,128,0,29149:0:0:0:0:
402,192,27759,128,0,27801:0:0:0:0:
36,192,27759,128,0,27801:0:0:0:0:
475,192,27759,128,0,27801:0:0:0:0:
182,192,27759,128,0,27801:0:0:0:0:
182,192,27928,128,0,27970:0:0:0:0:
109,192,27928,128,0,27970:0:0:0:0:
402,192,28096,128,0,28138:0:0:0:0:
329,192,28096,128,0,28138:0:0:0:0:
475,192,28096,128,0,28138:0:0:0:0:
109,192,28096,128,0,28138:0:0:0:0:
182,192,28096,128,0,28138:0:0:0:0:
182,192,28265,128,0,28307:0:0:0:0:
36,192,28265,128,0,28307:0:0:0:0:
402,192,28265,128,0,28307:0:0:0:0:
182,192,28433,128,0,28475:0:0:0:0:
109,192,28433,128,0,28475:0:0:0:0:
475,192,28433,128,0,28475:0:0:0:0:
475,192,28602,128,0,28644:0:0:0:0:
402,192,28602,128,0,28644:0:0:0:0:
182,192,28602,128,0,28644:0:0:0:0:
109,192,28770,128,0,28812:0:0:0:0:
182,192,28770,128,0,28812:0:0:0:0:
36,192,28770,128,0,28812:0:0:0:0:
402,192,28770,128,0,28812:0:0:0:0:
329,192,28770,128,0,28812:0:0:0:0:
475,192,28770,128,0,28812:0:0:0:0:
329,192,28939,128,0,28981:0:0:0:0:
402,192,28939,128,0,28981:0:0:0:0:
475,192,28939,128,0,28981:0:0:0:0:
109,192,28939,128,0,28981:0:0:0:0:
329,192,29107,128,0,29149:0:0:0:0:
402,192,29107,128,0,29149:0:0:0:0:
475,192,29107,128,0,29149:0:0:0:0:
182,192,29107,128,0,29149:0:0:0:0:
109,192,29107,128,0,29149:0:0:0:0:
36,192,29107,128,0,29149:0:0:0:0:
329,192,29276,128,0,29318:0:0:0:0:
402,192,29276,128,0,29318:0:0:0:0:
475,192,29276,128,0,29318:0:0:0:0:
182,192,29276,128,0,29318:0:0:0:0:
109,192,29276,128,0,29318:0:0:0:0:
36,192,29276,128,0,29318:0:0:0:0:
329,192,29444,128,0,29487:0:0:0:0:
256,192,29444,128,0,29487:0:0:0:0:
182,192,29444,128,0,29487:0:0:0:0:
109,192,29444,128,0,29487:0:0:0:0:
36,192,29444,128,0,29487:0:0:0:0:
475,192,29444,128,0,29487:0:0:0:0:
329,192,29613,128,0,29655:0:0:0:0:
256,192,29613,128,0,29655:0:0:0:0:
182,192,29613,128,0,29655:0:0:0:0:
109,192,29613,128,0,29655:0:0:0:0:
402,192,29613,128,0,29655:0:0:0:0:
475,192,29613,128,0,29655:0:0:0:0:
36,192,29781,128,0,29824:0:0:0:0:
109,192,29781,128,0,29824:0:0:0:0:
182,192,29781,128,0,29824:0:0:0:0:
256,192,29781,128,0,29824:0:0:0:0:
329,192,29781,128,0,29824:0:0:0:0:
402,192,29781,128,0,29824:0:0:0:0:
475,192,29781,128,0,29824:0:0:0:0:
475,192,29950,128,0,29992:0:0:0:0:
36,192,29950,128,0,29992:0:0:0:0:
109,192,29950,128,0,29992:0:0:0:0:
402,192,29950,128,0,29992:0:0:0:0:
256,192,29950,128,0,29992:0:0:0:0:
329,192,30119,128,0,30161:0:0:0:0:
256,192,30119,128,0,30161:0:0:0:0:
182,192,30119,128,0,30161:0:0:0:0:
109,192,30119,128,0,30161:0:0:0:0:
402,192,30119,128,0,30161:0:0:0:0:
329,192,30287,128,0,30329:0:0:0:0:
475,192,30287,128,0,30329:0:0:0:0:
36,192,30287,128,0,30329:0:0:0:0:
182,192,30287,128,0,30329:0:0:0:0:
256,192,30456,128,0,30498:0:0:0:0:
329,192,30456,128,0,30498:0:0:0:0:
182,192,30456,128,0,30498:0:0:0:0:
109,192,30624,128,0,30666:0:0:0:0:
402,192,30624,128,0,30666:0:0:0:0:
36,192,30793,128,0,30835:0:0:0:0:
256,192,30793,128,0,30835:0:0:0:0:
475,192,30961,128,0,31003:0:0:0:0:
402,192,30961,128,0,31003:0:0:0:0:
329,192,30961,128,0,31003:0:0:0:0:
36,192,30961,128,0,31003:0:0:0:0:
109,192,30961,128,0,31003:0:0:0:0:
329,192,31130,128,0,31172:0:0:0:0:
256,192,31130,128,0,31172:0:0:0:0:
182,192,31130,128,0,31172:0:0:0:0:
36,192,31298,128,0,31340:0:0:0:0:
109,192,31298,128,0,31340:0:0:0:0:
182,192,31298,128,0,31340:0:0:0:0:
329,192,31298,128,0,31340:0:0:0:0:
402,192,31298,128,0,31340:0:0:0:0:
475,192,31298,128,0,31340:0:0:0:0:
256,192,31467,128,0,31509:0:0:0:0:
36,192,31635,128,0,31678:0:0:0:0:
109,192,31635,128,0,31678:0:0:0:0:
475,192,31804,128,0,31846:0:0:0:0:
402,192,31804,128,0,31846:0:0:0:0:
256,192,31973,128,0,32015:0:0:0:0:
182,192,31973,128,0,32015:0:0:0:0:
402,192,32141,128,0,32183:0:0:0:0:
475,192,32141,128,0,32183:0:0:0:0:
36,192,32141,128,0,32183:0:0:0:0:
329,192,32310,128,0,32352:0:0:0:0:
109,192,32310,128,0,32352:0:0:0:0:
182,192,32310,128,0,32352:0:0:0:0:
329,192,32478,128,0,32520:0:0:0:0:
182,192,32478,128,0,32520:0:0:0:0:
475,192,32647,128,0,32689:0:0:0:0:
109,192,32647,128,0,32689:0:0:0:0:
36,192,32647,128,0,32689:0:0:0:0:
256,192,32647,128,0,32689:0:0:0:0:
182,192,32815,128,0,32857:0:0:0:0:
109,192,32815,128,0,32857:0:0:0:0:
256,192,32815,128,0,32857:0:0:0:0:
329,192,32815,128,0,32857:0:0:0:0:
256,192,32984,128,0,33026:0:0:0:0:
182,192,33152,128,0,33194:0:0:0:0:
109,192,33152,128,0,33194:0:0:0:0:
36,192,33152,128,0,33194:0:0:0:0:
402,192,33152,128,0,33194:0:0:0:0:
475,192,33152,128,0,33194:0:0:0:0:
329,192,33321,128,0,33363:0:0:0:0:
256,192,33321,128,0,33363:0:0:0:0:
182,192,33489,128,0,33531:0:0:0:0:
109,192,33489,128,0,33531:0:0:0:0:
402,192,33489,128,0,33531:0:0:0:0:
475,192,33658,128,0,33700:0:0:0:0:
36,192,33658,128,0,33700:0:0:0:0:
256,192,33658,128,0,33700:0:0:0:0:
109,192,33826,128,0,33869:0:0:0:0:
182,192,33826,128,0,33869:0:0:0:0:
329,192,33826,128,0,33869:0:0:0:0:
402,192,33826,128,0,33869:0:0:0:0:
36,192,33995,128,0,34037:0:0:0:0:
475,192,33995,128,0,34037:0:0:0:0:
329,192,34164,128,0,34206:0:0:0:0:
256,192,34164,128,0,34206:0:0:0:0:
182,192,34164,128,0,34206:0:0:0:0:
109,192,34164,128,0,34206:0:0:0:0:
402,192,34332,128,0,34374:0:0:0:0:
475,192,34332,128,0,34374:0:0:0:0:
36,192,34332,128,0,34374:0:0:0:0:
36,192,34543,1,0,0:0:0:0:
109,192,34543,1,0,0:0:0:0:
182,192,34543,1,0,0:0:0:0:
256,192,34543,1,0,0:0:0:0:
329,192,34543,1,0,0:0:0:0:
402,192,34543,1,0,0:0:0:0:
475,192,34543,1,0,0:0:0:0:
402,192,34880,1,0,0:0:0:0:
329,192,34880,1,0,0:0:0:0:
256,192,34880,1,0,0:0:0:0:
182,192,34880,1,0,0:0:0:0:
109,192,34880,1,0,0:0:0:0:
182,192,35217,1,0,0:0:0:0:
256,192,35217,1,0,0:0:0:0:
329,192,35217,1,0,0:0:0:0:
36,192,35385,1,0,0:0:0:0:
475,192,35385,1,0,0:0:0:0:
402,192,35470,1,0,0:0:0:0:
109,192,35470,1,0,0:0:0:0:
256,192,35554,1,0,0:0:0:0:
402,192,35723,1,0,0:0:0:0:
109,192,35723,1,0,0:0:0:0:
36,192,35723,1,0,0:0:0:0:
475,192,35723,1,0,0:0:0:0:
182,192,35891,5,0,0:0:0:0:
329,192,35891,1,0,0:0:0:0:
475,192,36060,1,0,0:0:0:0:
256,192,36060,1,0,0:0:0:0:
36,192,36060,1,0,0:0:0:0:
182,192,36228,1,0,0:0:0:0:
329,192,36228,1,0,0:0:0:0:
329,192,36565,1,0,0:0:0:0:
402,192,36565,1,0,0:0:0:0:
475,192,36565,1,0,0:0:0:0:
256,192,36565,1,0,0:0:0:0:
182,192,36734,1,0,0:0:0:0:
109,192,37239,1,0,0:0:0:0:
182,192,37239,1,0,0:0:0:0:
402,192,37239,1,0,0:0:0:0:
475,192,37239,1,0,0:0:0:0:
256,192,37576,1,0,0:0:0:0:
182,192,37576,1,0,0:0:0:0:
36,192,37576,1,0,0:0:0:0:
402,192,37914,1,0,0:0:0:0:
182,192,37914,1,0,0:0:0:0:
329,192,38082,1,0,0:0:0:0:
475,192,38251,1,0,0:0:0:0:
36,192,38251,1,0,0:0:0:0:
256,192,38588,1,0,0:0:0:0:
402,192,38588,1,0,0:0:0:0:
36,192,38925,1,0,0:0:0:0:
182,192,38925,1,0,0:0:0:0:
402,192,39262,1,0,0:0:0:0:
329,192,39262,1,0,0:0:0:0:
475,192,39262,1,0,0:0:0:0:
182,192,39430,1,0,0:0:0:0:
109,192,39515,1,0,0:0:0:0:
36,192,39599,1,0,0:0:0:0:
256,192,39599,1,0,0:0:0:0:
182,192,39683,1,0,0:0:0:0:
109,192,39767,1,0,0:0:0:0:
329,192,39767,1,0,0:0:0:0:
256,192,39852,1,0,0:0:0:0:
182,192,39936,1,0,0:0:0:0:
402,192,39936,1,0,0:0:0:0:
475,192,39936,1,0,0:0:0:0:
36,192,40105,1,0,0:0:0:0:
109,192,40105,1,0,0:0:0:0:
256,192,40273,1,0,0:0:0:0:
329,192,40357,1,0,0:0:0:0:
402,192,40442,1,0,0:0:0:0:
182,192,40442,1,0,0:0:0:0:
256,192,40526,1,0,0:0:0:0:
329,192,40610,1,0,0:0:0:0:
109,192,40694,1,0,0:0:0:0:
182,192,40779,1,0,0:0:0:0:
256,192,40863,1,0,0:0:0:0:
36,192,40863,1,0,0:0:0:0:
109,192,40947,1,0,0:0:0:0:
182,192,41031,1,0,0:0:0:0:
329,192,41116,1,0,0:0:0:0:
402,192,41200,1,0,0:0:0:0:
475,192,41284,1,0,0:0:0:0:
36,192,41284,128,0,41453:0:0:0:0:
109,192,41284,128,0,41453:0:0:0:0:
182,192,41284,128,0,41453:0:0:0:0:
256,192,41284,1,0,0:0:0:0:
256,192,41621,128,0,41706:0:0:0:0:
182,192,41621,128,0,41706:0:0:0:0:
36,192,41621,128,0,41706:0:0:0:0:
329,192,41621,128,0,41706:0:0:0:0:
402,192,41621,128,0,41706:0:0:0:0:
475,192,41621,128,0,41706:0:0:0:0:
109,192,41706,1,0,0:0:0:0:
182,192,41958,128,0,42043:0:0:0:0:
256,192,41958,128,0,42043:0:0:0:0:
329,192,41958,128,0,42043:0:0:0:0:
402,192,41958,128,0,42043:0:0:0:0:
36,192,41958,128,0,42043:0:0:0:0:
475,192,41958,1,0,0:0:0:0:
109,192,42296,128,0,42380:0:0:0:0:
182,192,42296,128,0,42380:0:0:0:0:
256,192,42296,128,0,42380:0:0:0:0:
329,192,42296,128,0,42380:0:0:0:0:
402,192,42296,128,0,42380:0:0:0:0:
475,192,42296,128,0,42380:0:0:0:0:
36,192,42296,1,0,0:0:0:0:
36,192,42548,128,0,42633:0:0:0:0:
109,192,42548,128,0,42633:0:0:0:0:
182,192,42548,128,0,42633:0:0:0:0:
256,192,42548,128,0,42633:0:0:0:0:
329,192,42548,128,0,42633:0:0:0:0:
402,192,42548,128,0,42633:0:0:0:0:
475,192,42548,128,0,42633:0:0:0:0:
329,192,43223,1,0,0:0:0:0:
256,192,43223,1,0,0:0:0:0:
109,192,43223,1,0,0:0:0:0:
182,192,43223,1,0,0:0:0:0:
475,192,43265,128,0,43307:0:0:0:0:
402,192,43307,128,0,43349:0:0:0:0:
329,192,43349,128,0,43391:0:0:0:0:
256,192,43391,128,0,43433:0:0:0:0:
109,192,43475,1,0,0:0:0:0:
182,192,43475,1,0,0:0:0:0:
329,192,43475,1,0,0:0:0:0:
402,192,43475,1,0,0:0:0:0:
36,192,43517,128,0,43560:0:0:0:0:
109,192,43560,128,0,43602:0:0:0:0:
182,192,43602,128,0,43644:0:0:0:0:
256,192,43644,128,0,43686:0:0:0:0:
475,192,43728,1,0,0:0:0:0:
109,192,43981,1,0,0:0:0:0:
182,192,43981,1,0,0:0:0:0:
329,192,43981,1,0,0:0:0:0:
402,192,43981,1,0,0:0:0:0:
182,192,44149,1,0,0:0:0:0:
329,192,44149,1,0,0:0:0:0:
109,192,44318,1,0,0:0:0:0:
182,192,44318,1,0,0:0:0:0:
329,192,44318,1,0,0:0:0:0:
402,192,44318,1,0,0:0:0:0:
36,192,44487,1,0,0:0:0:0:
475,192,44487,1,0,0:0:0:0:
402,192,44655,1,0,0:0:0:0:
109,192,44655,1,0,0:0:0:0:
256,192,44824,1,0,0:0:0:0:
402,192,44992,1,0,0:0:0:0:
109,192,44992,1,0,0:0:0:0:
329,192,45161,1,0,0:0:0:0:
182,192,45161,1,0,0:0:0:0:
329,192,45329,5,0,0:0:0:0:
475,192,45329,1,0,0:0:0:0:
36,192,45329,1,0,0:0:0:0:
182,192,45329,1,0,0:0:0:0:
329,192,45498,1,0,0:0:0:0:
475,192,45498,1,0,0:0:0:0:
36,192,45498,1,0,0:0:0:0:
182,192,45498,1,0,0:0:0:0:
329,192,45666,1,0,0:0:0:0:
475,192,45666,1,0,0:0:0:0:
36,192,45666,1,0,0:0:0:0:
182,192,45666,1,0,0:0:0:0:
402,192,45751,1,0,0:0:0:0:
109,192,45751,1,0,0:0:0:0:
402,192,45835,1,0,0:0:0:0:
109,192,45835,1,0,0:0:0:0:
329,192,45919,1,0,0:0:0:0:
182,192,45919,1,0,0:0:0:0:
256,192,46003,1,0,0:0:0:0:
329,192,46088,1,0,0:0:0:0:
182,192,46088,1,0,0:0:0:0:
402,192,46172,1,0,0:0:0:0:
109,192,46172,1,0,0:0:0:0:
475,192,46172,1,0,0:0:0:0:
36,192,46172,1,0,0:0:0:0:
256,192,46256,1,0,0:0:0:0:
182,192,46340,1,0,0:0:0:0:
329,192,46340,1,0,0:0:0:0:
402,192,46425,1,0,0:0:0:0:
109,192,46425,1,0,0:0:0:0:
36,192,46509,1,0,0:0:0:0:
475,192,46509,1,0,0:0:0:0:
475,192,46593,1,0,0:0:0:0:
36,192,46593,1,0,0:0:0:0:
256,192,46593,1,0,0:0:0:0:
329,192,46678,1,0,0:0:0:0:
402,192,46678,1,0,0:0:0:0:
182,192,46678,1,0,0:0:0:0:
109,192,46678,1,0,0:0:0:0:
475,192,47015,128,0,47689:0:0:0:0:
36,192,47015,128,0,47689:0:0:0:0:
402,192,47015,1,0,0:0:0:0:
109,192,47099,128,0,47520:0:0:0:0:
329,192,47099,1,0,0:0:0:0:
256,192,47183,1,0,0:0:0:0:
182,192,47267,128,0,47520:0:0:0:0:
329,192,47267,1,0,0:0:0:0:
402,192,47352,1,0,0:0:0:0:
329,192,47436,1,0,0:0:0:0:
256,192,47520,1,0,0:0:0:0:
329,192,47605,1,0,0:0:0:0:
402,192,47689,1,0,0:0:0:0:
182,192,47689,1,0,0:0:0:0:
109,192,47689,1,0,0:0:0:0:
256,192,47689,128,0,48363:0:0:0:0:
329,192,47857,128,0,47942:0:0:0:0:
36,192,47857,1,0,0:0:0:0:
182,192,47857,1,0,0:0:0:0:
402,192,47942,128,0,48026:0:0:0:0:
109,192,47942,1,0,0:0:0:0:
475,192,48026,128,0,48110:0:0:0:0:
36,192,48026,1,0,0:0:0:0:
182,192,48026,1,0,0:0:0:0:
402,192,48110,128,0,48194:0:0:0:0:
109,192,48110,1,0,0:0:0:0:
329,192,48194,128,0,48279:0:0:0:0:
36,192,48194,1,0,0:0:0:0:
402,192,48279,128,0,48363:0:0:0:0:
109,192,48279,1,0,0:0:0:0:
36,192,48363,128,0,49374:0:0:0:0:
109,192,48363,128,0,48447:0:0:0:0:
182,192,48447,128,0,48531:0:0:0:0:
329,192,48447,1,0,0:0:0:0:
256,192,48531,128,0,48616:0:0:0:0:
402,192,48531,1,0,0:0:0:0:
329,192,48616,128,0,48700:0:0:0:0:
402,192,48700,128,0,48784:0:0:0:0:
256,192,48700,128,0,48784:0:0:0:0:
109,192,48700,1,0,0:0:0:0:
475,192,48784,128,0,48869:0:0:0:0:
182,192,48784,128,0,48869:0:0:0:0:
109,192,48869,128,0,48953:0:0:0:0:
329,192,48953,128,0,49037:0:0:0:0:
256,192,48953,1,0,0:0:0:0:
402,192,49037,128,0,49121:0:0:0:0:
182,192,49037,1,0,0:0:0:0:
475,192,49121,128,0,49206:0:0:0:0:
256,192,49121,128,0,49206:0:0:0:0:
109,192,49206,128,0,49290:0:0:0:0:
329,192,49206,128,0,49290:0:0:0:0:
182,192,49290,128,0,49374:0:0:0:0:
402,192,49290,128,0,49374:0:0:0:0:
475,192,49374,128,0,50723:0:0:0:0:
256,192,49374,128,0,49458:0:0:0:0:
109,192,49374,128,0,49458:0:0:0:0:
182,192,49543,128,0,49627:0:0:0:0:
402,192,49543,1,0,0:0:0:0:
109,192,49627,128,0,49711:0:0:0:0:
329,192,49627,1,0,0:0:0:0:
36,192,49711,128,0,49796:0:0:0:0:
402,192,49711,1,0,0:0:0:0:
256,192,49796,128,0,49880:0:0:0:0:
329,192,49880,128,0,49964:0:0:0:0:
109,192,49880,1,0,0:0:0:0:
182,192,49880,1,0,0:0:0:0:
402,192,49964,128,0,50048:0:0:0:0:
36,192,49964,1,0,0:0:0:0:
182,192,50048,128,0,50723:0:0:0:0:
256,192,50048,128,0,50133:0:0:0:0:
109,192,50133,128,0,50217:0:0:0:0:
329,192,50133,1,0,0:0:0:0:
402,192,50133,1,0,0:0:0:0:
36,192,50217,128,0,50301:0:0:0:0:
256,192,50301,128,0,50385:0:0:0:0:
402,192,50301,1,0,0:0:0:0:
329,192,50385,128,0,50470:0:0:0:0:
109,192,50385,1,0,0:0:0:0:
402,192,50470,128,0,50554:0:0:0:0:
36,192,50470,128,0,50554:0:0:0:0:
329,192,50554,128,0,50638:0:0:0:0:
256,192,50638,128,0,50723:0:0:0:0:
109,192,50638,128,0,50723:0:0:0:0:
36,192,50723,1,0,0:0:0:0:
402,192,50723,1,0,0:0:0:0:
329,192,50723,128,0,51397:0:0:0:0:
256,192,50891,1,0,0:0:0:0:
402,192,50891,1,0,0:0:0:0:
182,192,50975,1,0,0:0:0:0:
475,192,50975,1,0,0:0:0:0:
36,192,51060,1,0,0:0:0:0:
402,192,51060,1,0,0:0:0:0:
256,192,51144,128,0,51649:0:0:0:0:
109,192,51144,1,0,0:0:0:0:
182,192,51228,1,0,0:0:0:0:
402,192,51228,1,0,0:0:0:0:
109,192,51312,1,0,0:0:0:0:
36,192,51397,1,0,0:0:0:0:
182,192,51481,128,0,52071:0:0:0:0:
109,192,51481,1,0,0:0:0:0:
402,192,51481,1,0,0:0:0:0:
475,192,51565,1,0,0:0:0:0:
36,192,51565,128,0,51649:0:0:0:0:
402,192,51649,1,0,0:0:0:0:
109,192,51734,128,0,51818:0:0:0:0:
329,192,51734,128,0,51818:0:0:0:0:
256,192,51818,1,0,0:0:0:0:
402,192,51818,128,0,51902:0:0:0:0:
475,192,51902,1,0,0:0:0:0:
36,192,51987,128,0,52071:0:0:0:0:
329,192,51987,128,0,52071:0:0:0:0:
256,192,52071,1,0,0:0:0:0:
402,192,52071,1,0,0:0:0:0:
109,192,52071,128,0,52745:0:0:0:0:
475,192,52071,128,0,52745:0:0:0:0:
402,192,52239,1,0,0:0:0:0:
329,192,52324,1,0,0:0:0:0:
402,192,52408,128,0,52745:0:0:0:0:
256,192,52408,1,0,0:0:0:0:
182,192,52408,1,0,0:0:0:0:
329,192,52492,128,0,52745:0:0:0:0:
36,192,52576,1,0,0:0:0:0:
182,192,52745,1,0,0:0:0:0:
36,192,52745,128,0,53419:0:0:0:0:
256,192,52829,128,0,52914:0:0:0:0:
329,192,52914,128,0,52998:0:0:0:0:
109,192,52998,1,0,0:0:0:0:
402,192,52998,128,0,53082:0:0:0:0:
182,192,53082,1,0,0:0:0:0:
475,192,53082,128,0,53166:0:0:0:0:
256,192,53166,1,0,0:0:0:0:
329,192,53251,128,0,53335:0:0:0:0:
182,192,53335,1,0,0:0:0:0:
256,192,53335,128,0,53419:0:0:0:0:
475,192,53419,128,0,54430:0:0:0:0:
182,192,53419,128,0,53503:0:0:0:0:
402,192,53419,128,0,53503:0:0:0:0:
256,192,53503,128,0,53588:0:0:0:0:
329,192,53588,128,0,53672:0:0:0:0:
109,192,53588,1,0,0:0:0:0:
182,192,53672,1,0,0:0:0:0:
402,192,53672,128,0,53756:0:0:0:0:
109,192,53756,1,0,0:0:0:0:
256,192,53756,1,0,0:0:0:0:
36,192,53840,1,0,0:0:0:0:
329,192,53840,1,0,0:0:0:0:
182,192,53925,128,0,54009:0:0:0:0:
109,192,53925,1,0,0:0:0:0:
256,192,53925,1,0,0:0:0:0:
402,192,53925,1,0,0:0:0:0:
329,192,54009,1,0,0:0:0:0:
109,192,54093,1,0,0:0:0:0:
36,192,54093,1,0,0:0:0:0:
256,192,54178,128,0,54262:0:0:0:0:
182,192,54178,1,0,0:0:0:0:
402,192,54178,1,0,0:0:0:0:
329,192,54262,1,0,0:0:0:0:
182,192,54346,1,0,0:0:0:0:
36,192,54346,1,0,0:0:0:0:
256,192,54430,1,0,0:0:0:0:
329,192,54430,1,0,0:0:0:0:
402,192,54515,1,0,0:0:0:0:
182,192,54515,1,0,0:0:0:0:
109,192,54515,1,0,0:0:0:0:
256,192,54599,1,0,0:0:0:0:
329,192,54683,1,0,0:0:0:0:
36,192,54683,1,0,0:0:0:0:
182,192,54767,1,0,0:0:0:0:
109,192,54767,1,0,0:0:0:0:
402,192,54767,1,0,0:0:0:0:
475,192,54767,1,0,0:0:0:0:
402,192,55105,1,0,0:0:0:0:
475,192,55105,1,0,0:0:0:0:
256,192,55273,1,0,0:0:0:0:
329,192,55442,1,0,0:0:0:0:
256,192,55442,1,0,0:0:0:0:
182,192,55442,1,0,0:0:0:0:
329,192,55610,1,0,0:0:0:0:
182,192,55610,1,0,0:0:0:0:
36,192,55779,1,0,0:0:0:0:
109,192,55779,1,0,0:0:0:0:
256,192,55779,1,0,0:0:0:0:
402,192,55779,1,0,0:0:0:0:
475,192,55779,1,0,0:0:0:0:
256,192,55947,1,0,0:0:0:0:
329,192,56116,1,0,0:0:0:0:
402,192,56116,1,0,0:0:0:0:
475,192,56116,1,0,0:0:0:0:
109,192,56116,1,0,0:0:0:0:
36,192,56116,1,0,0:0:0:0:
182,192,56116,1,0,0:0:0:0:
256,192,56284,1,0,0:0:0:0:
182,192,56453,1,0,0:0:0:0:
329,192,56453,1,0,0:0:0:0:
329,192,56621,1,0,0:0:0:0:
109,192,56790,1,0,0:0:0:0:
182,192,56790,1,0,0:0:0:0:
256,192,56958,1,0,0:0:0:0:
256,192,57127,1,0,0:0:0:0:
402,192,57127,1,0,0:0:0:0:
109,192,57127,1,0,0:0:0:0:
475,192,57127,1,0,0:0:0:0:
36,192,57127,1,0,0:0:0:0:
256,192,57296,1,0,0:0:0:0:
182,192,57296,1,0,0:0:0:0:
329,192,57296,1,0,0:0:0:0:
402,192,57296,1,0,0:0:0:0:
109,192,57296,1,0,0:0:0:0:
36,192,57464,128,0,58812:0:0:0:0:
329,192,57464,128,0,57717:0:0:0:0:
402,192,57464,1,0,0:0:0:0:
475,192,57464,1,0,0:0:0:0:
182,192,57464,1,0,0:0:0:0:
109,192,57464,1,0,0:0:0:0:
109,192,57675,128,0,57717:0:0:0:0:
256,192,57717,128,0,57970:0:0:0:0:
402,192,57717,1,0,0:0:0:0:
475,192,57801,1,0,0:0:0:0:
109,192,57843,128,0,57885:0:0:0:0:
402,192,57885,1,0,0:0:0:0:
182,192,57970,128,0,58307:0:0:0:0:
329,192,57970,1,0,0:0:0:0:
109,192,58054,128,0,58096:0:0:0:0:
402,192,58138,1,0,0:0:0:0:
329,192,58223,1,0,0:0:0:0:
475,192,58307,1,0,0:0:0:0:
256,192,58307,1,0,0:0:0:0:
109,192,58307,1,0,0:0:0:0:
402,192,58391,1,0,0:0:0:0:
329,192,58391,1,0,0:0:0:0:
256,192,58475,1,0,0:0:0:0:
475,192,58475,128,0,58812:0:0:0:0:
329,192,58560,1,0,0:0:0:0:
182,192,58560,1,0,0:0:0:0:
109,192,58644,1,0,0:0:0:0:
402,192,58644,1,0,0:0:0:0:
182,192,58728,1,0,0:0:0:0:
329,192,58728,1,0,0:0:0:0:
256,192,58812,1,0,0:0:0:0:
109,192,58812,128,0,60161:0:0:0:0:
402,192,58812,128,0,60161:0:0:0:0:
475,192,58939,128,0,58981:0:0:0:0:
256,192,58981,1,0,0:0:0:0:
329,192,59065,128,0,59107:0:0:0:0:
182,192,59107,1,0,0:0:0:0:
256,192,59192,128,0,59234:0:0:0:0:
475,192,59192,1,0,0:0:0:0:
36,192,59234,1,0,0:0:0:0:
182,192,59318,128,0,59360:0:0:0:0:
329,192,59360,1,0,0:0:0:0:
36,192,59444,128,0,59487:0:0:0:0:
256,192,59444,1,0,0:0:0:0:
182,192,59571,128,0,59613:0:0:0:0:
329,192,59571,1,0,0:0:0:0:
36,192,59613,1,0,0:0:0:0:
329,192,59697,128,0,59739:0:0:0:0:
182,192,59739,1,0,0:0:0:0:
475,192,59824,128,0,59866:0:0:0:0:
256,192,59824,1,0,0:0:0:0:
329,192,59950,128,0,59992:0:0:0:0:
475,192,59992,1,0,0:0:0:0:
256,192,60076,128,0,60119:0:0:0:0:
36,192,60119,128,0,60161:0:0:0:0:
182,192,60245,1,0,0:0:0:0:
329,192,60245,1,0,0:0:0:0:
402,192,60329,1,0,0:0:0:0:
329,192,60414,1,0,0:0:0:0:
109,192,60414,1,0,0:0:0:0:
256,192,60498,1,0,0:0:0:0:
182,192,60582,1,0,0:0:0:0:
475,192,60582,1,0,0:0:0:0:
329,192,60666,1,0,0:0:0:0:
36,192,60666,1,0,0:0:0:0:
109,192,60751,1,0,0:0:0:0:
256,192,60751,1,0,0:0:0:0:
182,192,60835,1,0,0:0:0:0:
402,192,60835,1,0,0:0:0:0:
475,192,60835,1,0,0:0:0:0:
329,192,60919,1,0,0:0:0:0:
109,192,60919,1,0,0:0:0:0:
256,192,61003,1,0,0:0:0:0:
36,192,61003,1,0,0:0:0:0:
475,192,61003,1,0,0:0:0:0:
402,192,61088,1,0,0:0:0:0:
109,192,61088,1,0,0:0:0:0:
256,192,61172,1,0,0:0:0:0:
36,192,61172,1,0,0:0:0:0:
329,192,61256,1,0,0:0:0:0:
182,192,61256,1,0,0:0:0:0:
109,192,61340,1,0,0:0:0:0:
402,192,61340,1,0,0:0:0:0:
329,192,61425,1,0,0:0:0:0:
475,192,61425,1,0,0:0:0:0:
109,192,61509,1,0,0:0:0:0:
256,192,61509,1,0,0:0:0:0:
36,192,61509,1,0,0:0:0:0:
182,192,61593,1,0,0:0:0:0:
402,192,61593,1,0,0:0:0:0:
329,192,61593,1,0,0:0:0:0:
475,192,61593,1,0,0:0:0:0:
256,192,61678,1,0,0:0:0:0:
182,192,61762,1,0,0:0:0:0:
109,192,61762,1,0,0:0:0:0:
36,192,61762,1,0,0:0:0:0:
402,192,61762,1,0,0:0:0:0:
256,192,61846,1,0,0:0:0:0:
329,192,61930,1,0,0:0:0:0:
475,192,61930,1,0,0:0:0:0:
109,192,61930,1,0,0:0:0:0:
256,192,62015,1,0,0:0:0:0:
109,192,62099,1,0,0:0:0:0:
402,192,62099,1,0,0:0:0:0:
329,192,62099,1,0,0:0:0:0:
182,192,62183,1,0,0:0:0:0:
475,192,62183,1,0,0:0:0:0:
36,192,62183,1,0,0:0:0:0:
402,192,62267,1,0,0:0:0:0:
329,192,62267,1,0,0:0:0:0:
256,192,62352,1,0,0:0:0:0:
109,192,62352,1,0,0:0:0:0:
402,192,62436,1,0,0:0:0:0:
329,192,62436,1,0,0:0:0:0:
182,192,62520,1,0,0:0:0:0:
109,192,62520,1,0,0:0:0:0:
36,192,62520,1,0,0:0:0:0:
475,192,62520,1,0,0:0:0:0:
329,192,62605,1,0,0:0:0:0:
256,192,62605,1,0,0:0:0:0:
402,192,62605,1,0,0:0:0:0:
36,192,62689,1,0,0:0:0:0:
475,192,62689,1,0,0:0:0:0:
256,192,62773,1,0,0:0:0:0:
182,192,62857,1,0,0:0:0:0:
109,192,62857,1,0,0:0:0:0:
36,192,62857,1,0,0:0:0:0:
329,192,62857,1,0,0:0:0:0:
475,192,62857,1,0,0:0:0:0:
402,192,62857,1,0,0:0:0:0:
36,192,63194,128,0,63237:0:0:0:0:
109,192,63194,128,0,63237:0:0:0:0:
256,192,63194,128,0,63237:0:0:0:0:
256,192,63531,128,0,63574:0:0:0:0:
402,192,63531,128,0,63574:0:0:0:0:
475,192,63531,128,0,63574:0:0:0:0:
182,192,63869,128,0,63911:0:0:0:0:
109,192,63869,128,0,63911:0:0:0:0:
36,192,63869,128,0,63911:0:0:0:0:
329,192,63869,128,0,63911:0:0:0:0:
329,192,64206,128,0,64248:0:0:0:0:
402,192,64206,128,0,64248:0:0:0:0:
475,192,64206,128,0,64248:0:0:0:0:
256,192,64206,128,0,64248:0:0:0:0:
182,192,64206,128,0,64543:0:0:0:0:
36,192,64206,128,0,64543:0:0:0:0:
109,192,64543,128,0,64880:0:0:0:0:
256,192,64543,128,0,64880:0:0:0:0:
329,192,64543,128,0,64880:0:0:0:0:
402,192,64880,128,0,65217:0:0:0:0:
182,192,64880,128,0,65217:0:0:0:0:
36,192,64880,128,0,65217:0:0:0:0:
475,192,65217,128,0,65554:0:0:0:0:
109,192,65217,128,0,65554:0:0:0:0:
256,192,65217,128,0,65554:0:0:0:0:
329,192,65217,128,0,65554:0:0:0:0:
182,192,65554,128,0,66902:0:0:0:0:
402,192,65554,1,0,0:0:0:0:
256,192,65891,1,0,0:0:0:0:
329,192,65891,1,0,0:0:0:0:
402,192,66228,1,0,0:0:0:0:
109,192,66228,1,0,0:0:0:0:
36,192,66228,1,0,0:0:0:0:
256,192,66565,1,0,0:0:0:0:
475,192,66565,1,0,0:0:0:0:
36,192,66902,1,0,0:0:0:0:
402,192,66902,1,0,0:0:0:0:
329,192,66902,1,0,0:0:0:0:
475,192,66902,1,0,0:0:0:0:
109,192,67071,1,0,0:0:0:0:
182,192,67071,1,0,0:0:0:0:
329,192,67239,1,0,0:0:0:0:
402,192,67239,1,0,0:0:0:0:
182,192,67408,1,0,0:0:0:0:
109,192,67408,1,0,0:0:0:0:
329,192,67576,1,0,0:0:0:0:
402,192,67576,1,0,0:0:0:0:
36,192,67745,1,0,0:0:0:0:
182,192,67745,1,0,0:0:0:0:
475,192,67914,1,0,0:0:0:0:
402,192,67998,1,0,0:0:0:0:
329,192,68082,1,0,0:0:0:0:
256,192,68166,1,0,0:0:0:0:
182,192,68251,1,0,0:0:0:0:
109,192,68251,1,0,0:0:0:0:
36,192,68251,1,0,0:0:0:0:
475,192,68251,128,0,69599:0:0:0:0:
329,192,68335,1,0,0:0:0:0:
402,192,68335,1,0,0:0:0:0:
256,192,68419,1,0,0:0:0:0:
109,192,68503,1,0,0:0:0:0:
36,192,68503,1,0,0:0:0:0:
329,192,68503,1,0,0:0:0:0:
182,192,68588,1,0,0:0:0:0:
256,192,68672,128,0,69093:0:0:0:0:
36,192,68672,1,0,0:0:0:0:
329,192,68672,1,0,0:0:0:0:
402,192,68672,1,0,0:0:0:0:
109,192,68756,1,0,0:0:0:0:
182,192,68756,1,0,0:0:0:0:
36,192,68840,1,0,0:0:0:0:
329,192,68840,1,0,0:0:0:0:
402,192,68925,1,0,0:0:0:0:
109,192,68925,1,0,0:0:0:0:
182,192,69009,1,0,0:0:0:0:
36,192,69093,128,0,69599:0:0:0:0:
329,192,69093,1,0,0:0:0:0:
402,192,69093,1,0,0:0:0:0:
109,192,69093,1,0,0:0:0:0:
182,192,69178,1,0,0:0:0:0:
256,192,69262,1,0,0:0:0:0:
109,192,69262,1,0,0:0:0:0:
182,192,69346,1,0,0:0:0:0:
402,192,69346,1,0,0:0:0:0:
329,192,69346,1,0,0:0:0:0:
256,192,69430,1,0,0:0:0:0:
109,192,69430,1,0,0:0:0:0:
402,192,69599,1,0,0:0:0:0:
182,192,69599,128,0,70947:0:0:0:0:
329,192,69599,128,0,69936:0:0:0:0:
256,192,69599,1,0,0:0:0:0:
109,192,69599,1,0,0:0:0:0:
402,192,69767,1,0,0:0:0:0:
475,192,69767,1,0,0:0:0:0:
256,192,69936,128,0,70273:0:0:0:0:
402,192,70105,1,0,0:0:0:0:
475,192,70105,1,0,0:0:0:0:
109,192,70273,128,0,70610:0:0:0:0:
329,192,70273,1,0,0:0:0:0:
402,192,70273,1,0,0:0:0:0:
36,192,70442,1,0,0:0:0:0:
475,192,70442,1,0,0:0:0:0:
256,192,70610,128,0,70947:0:0:0:0:
329,192,70610,1,0,0:0:0:0:
402,192,70610,1,0,0:0:0:0:
475,192,70610,1,0,0:0:0:0:
109,192,70779,1,0,0:0:0:0:
36,192,70779,1,0,0:0:0:0:
329,192,70947,1,0,0:0:0:0:
402,192,70947,1,0,0:0:0:0:
475,192,70947,1,0,0:0:0:0:
109,192,70947,128,0,71284:0:0:0:0:
36,192,70947,128,0,72296:0:0:0:0:
329,192,71116,1,0,0:0:0:0:
256,192,71116,1,0,0:0:0:0:
182,192,71284,128,0,71621:0:0:0:0:
475,192,71284,1,0,0:0:0:0:
256,192,71284,1,0,0:0:0:0:
256,192,71621,128,0,71958:0:0:0:0:
329,192,71621,1,0,0:0:0:0:
402,192,71621,1,0,0:0:0:0:
475,192,71621,1,0,0:0:0:0:
109,192,71621,1,0,0:0:0:0:
182,192,71790,1,0,0:0:0:0:
402,192,71790,1,0,0:0:0:0:
329,192,71958,128,0,72296:0:0:0:0:
182,192,71958,1,0,0:0:0:0:
109,192,71958,1,0,0:0:0:0:
475,192,71958,1,0,0:0:0:0:
256,192,72127,1,0,0:0:0:0:
109,192,72127,1,0,0:0:0:0:
402,192,72296,1,0,0:0:0:0:
475,192,72296,1,0,0:0:0:0:
109,192,72296,1,0,0:0:0:0:
256,192,72296,1,0,0:0:0:0:
182,192,72380,1,0,0:0:0:0:
329,192,72380,1,0,0:0:0:0:
256,192,72464,1,0,0:0:0:0:
402,192,72464,1,0,0:0:0:0:
36,192,72464,1,0,0:0:0:0:
329,192,72548,1,0,0:0:0:0:
475,192,72548,1,0,0:0:0:0:
109,192,72548,1,0,0:0:0:0:
36,192,72633,1,0,0:0:0:0:
182,192,72633,1,0,0:0:0:0:
109,192,72717,1,0,0:0:0:0:
256,192,72717,1,0,0:0:0:0:
182,192,72801,1,0,0:0:0:0:
329,192,72801,1,0,0:0:0:0:
256,192,72885,1,0,0:0:0:0:
402,192,72885,1,0,0:0:0:0:
329,192,72970,1,0,0:0:0:0:
475,192,72970,1,0,0:0:0:0:
182,192,73054,1,0,0:0:0:0:
36,192,73054,1,0,0:0:0:0:
256,192,73054,1,0,0:0:0:0:
109,192,73138,1,0,0:0:0:0:
329,192,73138,1,0,0:0:0:0:
402,192,73138,1,0,0:0:0:0:
256,192,73223,1,0,0:0:0:0:
182,192,73223,1,0,0:0:0:0:
36,192,73223,1,0,0:0:0:0:
475,192,73265,1,0,0:0:0:0:
402,192,73307,1,0,0:0:0:0:
329,192,73349,1,0,0:0:0:0:
256,192,73391,1,0,0:0:0:0:
182,192,73433,1,0,0:0:0:0:
109,192,73475,1,0,0:0:0:0:
36,192,73517,1,0,0:0:0:0:
109,192,73560,1,0,0:0:0:0:
402,192,73644,1,0,0:0:0:0:
475,192,73644,1,0,0:0:0:0:
329,192,73644,1,0,0:0:0:0:
182,192,73644,1,0,0:0:0:0:
329,192,73812,1,0,0:0:0:0:
256,192,73897,1,0,0:0:0:0:
36,192,73981,1,0,0:0:0:0:
109,192,73981,1,0,0:0:0:0:
182,192,73981,1,0,0:0:0:0:
329,192,74318,1,0,0:0:0:0:
475,192,74318,1,0,0:0:0:0:
402,192,74318,1,0,0:0:0:0:
182,192,74487,1,0,0:0:0:0:
329,192,74655,1,0,0:0:0:0:
36,192,74655,1,0,0:0:0:0:
109,192,74655,1,0,0:0:0:0:
402,192,74655,1,0,0:0:0:0:
256,192,74824,1,0,0:0:0:0:
182,192,74992,1,0,0:0:0:0:
36,192,74992,1,0,0:0:0:0:
402,192,74992,1,0,0:0:0:0:
475,192,74992,1,0,0:0:0:0:
182,192,75161,1,0,0:0:0:0:
329,192,75329,1,0,0:0:0:0:
256,192,75329,1,0,0:0:0:0:
109,192,75329,1,0,0:0:0:0:
256,192,75498,1,0,0:0:0:0:
329,192,75498,1,0,0:0:0:0:
182,192,75666,1,0,0:0:0:0:
402,192,75666,1,0,0:0:0:0:
475,192,75666,1,0,0:0:0:0:
329,192,75835,1,0,0:0:0:0:
182,192,75835,1,0,0:0:0:0:
256,192,76003,1,0,0:0:0:0:
109,192,76003,1,0,0:0:0:0:
36,192,76003,1,0,0:0:0:0:
109,192,76172,1,0,0:0:0:0:
402,192,76172,1,0,0:0:0:0:
475,192,76172,1,0,0:0:0:0:
329,192,76340,1,0,0:0:0:0:
256,192,76340,1,0,0:0:0:0:
182,192,76340,1,0,0:0:0:0:
109,192,76509,1,0,0:0:0:0:
402,192,76509,1,0,0:0:0:0:
402,192,76678,1,0,0:0:0:0:
109,192,76678,1,0,0:0:0:0:
256,192,76846,1,0,0:0:0:0:
402,192,76930,1,0,0:0:0:0:
109,192,76930,1,0,0:0:0:0:
109,192,77099,1,0,0:0:0:0:
402,192,77099,1,0,0:0:0:0:
36,192,77183,1,0,0:0:0:0:
475,192,77183,1,0,0:0:0:0:
109,192,77267,1,0,0:0:0:0:
402,192,77267,1,0,0:0:0:0:
182,192,77352,1,0,0:0:0:0:
329,192,77352,1,0,0:0:0:0:
256,192,77436,1,0,0:0:0:0:
475,192,77436,1,0,0:0:0:0:
36,192,77436,1,0,0:0:0:0:
36,192,77605,128,0,77689:0:0:0:0:
109,192,77605,128,0,77689:0:0:0:0:
182,192,77605,128,0,77689:0:0:0:0:
329,192,77605,128,0,77689:0:0:0:0:
402,192,77605,128,0,77689:0:0:0:0:
475,192,77605,128,0,77689:0:0:0:0:
109,192,77857,1,0,0:0:0:0:
36,192,77857,1,0,0:0:0:0:
402,192,77857,1,0,0:0:0:0:
475,192,77857,1,0,0:0:0:0:
475,192,78194,1,0,0:0:0:0:
402,192,78194,1,0,0:0:0:0:
256,192,78194,1,0,0:0:0:0:
109,192,78194,1,0,0:0:0:0:
36,192,78194,1,0,0:0:0:0:
329,192,78531,1,0,0:0:0:0:
182,192,78616,1,0,0:0:0:0:
329,192,78700,1,0,0:0:0:0:
182,192,78784,1,0,0:0:0:0:
329,192,78869,1,0,0:0:0:0:
182,192,78953,1,0,0:0:0:0:
256,192,79037,1,0,0:0:0:0:
109,192,79037,128,0,80385:0:0:0:0:
402,192,79037,128,0,80385:0:0:0:0:
256,192,79543,128,0,80385:0:0:0:0:
475,192,79543,128,0,80385:0:0:0:0:
329,192,79796,128,0,80385:0:0:0:0:
182,192,79880,128,0,80385:0:0:0:0:
36,192,80385,1,0,0:0:0:0:
182,192,80723,1,0,0:0:0:0:
329,192,80723,1,0,0:0:0:0:
36,192,81060,1,0,0:0:0:0:
402,192,81228,1,0,0:0:0:0:
256,192,81397,1,0,0:0:0:0:
36,192,81565,1,0,0:0:0:0:
182,192,81565,1,0,0:0:0:0:
329,192,81734,1,0,0:0:0:0:
475,192,81734,1,0,0:0:0:0:
109,192,82071,1,0,0:0:0:0:
182,192,82071,1,0,0:0:0:0:
36,192,82071,1,0,0:0:0:0:
256,192,82408,1,0,0:0:0:0:
182,192,82576,1,0,0:0:0:0:
402,192,82745,1,0,0:0:0:0:
475,192,82745,1,0,0:0:0:0:
256,192,82914,1,0,0:0:0:0:
182,192,83082,1,0,0:0:0:0:
36,192,83082,1,0,0:0:0:0:
256,192,83419,1,0,0:0:0:0:
402,192,83419,1,0,0:0:0:0:
329,192,83419,1,0,0:0:0:0:
36,192,83756,1,0,0:0:0:0:
109,192,83756,1,0,0:0:0:0:
182,192,83756,1,0,0:0:0:0:
329,192,83925,1,0,0:0:0:0:
402,192,83925,1,0,0:0:0:0:
475,192,83925,1,0,0:0:0:0:
36,192,84093,1,0,0:0:0:0:
182,192,84093,1,0,0:0:0:0:
109,192,84262,128,0,84430:0:0:0:0:
329,192,84430,1,0,0:0:0:0:
475,192,84430,1,0,0:0:0:0:
256,192,84599,1,0,0:0:0:0:
109,192,84599,1,0,0:0:0:0:
402,192,84599,1,0,0:0:0:0:
182,192,84767,1,0,0:0:0:0:
36,192,84767,1,0,0:0:0:0:
329,192,84767,1,0,0:0:0:0:
475,192,84767,1,0,0:0:0:0:
256,192,84936,1,0,0:0:0:0:
182,192,85105,1,0,0:0:0:0:
109,192,85105,1,0,0:0:0:0:
329,192,85105,1,0,0:0:0:0:
402,192,85105,1,0,0:0:0:0:
475,192,85273,1,0,0:0:0:0:
36,192,85273,1,0,0:0:0:0:
182,192,85442,1,0,0:0:0:0:
256,192,85442,1,0,0:0:0:0:
329,192,85442,1,0,0:0:0:0:
109,192,85610,1,0,0:0:0:0:
402,192,85652,1,0,0:0:0:0:
109,192,85694,1,0,0:0:0:0:
402,192,85737,1,0,0:0:0:0:
256,192,85779,1,0,0:0:0:0:
329,192,85779,1,0,0:0:0:0:
36,192,85779,1,0,0:0:0:0:
182,192,85779,1,0,0:0:0:0:
475,192,85779,1,0,0:0:0:0:
109,192,86116,128,0,86453:0:0:0:0:
182,192,86116,1,0,0:0:0:0:
256,192,86116,1,0,0:0:0:0:
402,192,86116,1,0,0:0:0:0:
256,192,86453,128,0,86790:0:0:0:0:
329,192,86453,1,0,0:0:0:0:
182,192,86621,1,0,0:0:0:0:
36,192,86621,1,0,0:0:0:0:
475,192,86621,1,0,0:0:0:0:
402,192,86790,128,0,87127:0:0:0:0:
329,192,86790,1,0,0:0:0:0:
109,192,86790,1,0,0:0:0:0:
182,192,86958,1,0,0:0:0:0:
36,192,86958,1,0,0:0:0:0:
109,192,87127,1,0,0:0:0:0:
256,192,87127,1,0,0:0:0:0:
329,192,87127,1,0,0:0:0:0:
475,192,87127,1,0,0:0:0:0:
36,192,87464,128,0,87801:0:0:0:0:
329,192,87464,1,0,0:0:0:0:
475,192,87464,1,0,0:0:0:0:
109,192,87801,128,0,88138:0:0:0:0:
182,192,87801,1,0,0:0:0:0:
256,192,87801,1,0,0:0:0:0:
329,192,87970,1,0,0:0:0:0:
182,192,88138,128,0,88475:0:0:0:0:
475,192,88138,1,0,0:0:0:0:
402,192,88138,1,0,0:0:0:0:
256,192,88138,1,0,0:0:0:0:
36,192,88138,1,0,0:0:0:0:
329,192,88307,1,0,0:0:0:0:
109,192,88475,1,0,0:0:0:0:
36,192,88475,1,0,0:0:0:0:
402,192,88475,1,0,0:0:0:0:
256,192,88475,128,0,88812:0:0:0:0:
109,192,88644,1,0,0:0:0:0:
329,192,88644,1,0,0:0:0:0:
475,192,88644,1,0,0:0:0:0:
329,192,88812,128,0,89149:0:0:0:0:
36,192,88812,1,0,0:0:0:0:
402,192,89149,128,0,89487:0:0:0:0:
256,192,89149,1,0,0:0:0:0:
36,192,89149,1,0,0:0:0:0:
475,192,89149,1,0,0:0:0:0:
109,192,89318,1,0,0:0:0:0:
182,192,89318,1,0,0:0:0:0:
475,192,89487,128,0,89824:0:0:0:0:
329,192,89487,1,0,0:0:0:0:
256,192,89487,1,0,0:0:0:0:
36,192,89487,1,0,0:0:0:0:
329,192,89824,1,0,0:0:0:0:
402,192,89824,1,0,0:0:0:0:
182,192,90161,128,0,91172:0:0:0:0:
36,192,90161,128,0,91172:0:0:0:0:
329,192,90329,1,0,0:0:0:0:
402,192,90329,1,0,0:0:0:0:
475,192,90329,1,0,0:0:0:0:
109,192,90498,128,0,90835:0:0:0:0:
256,192,90498,128,0,90835:0:0:0:0:
402,192,90666,1,0,0:0:0:0:
329,192,90835,128,0,91172:0:0:0:0:
475,192,90835,128,0,91172:0:0:0:0:
402,192,90835,1,0,0:0:0:0:
256,192,91003,128,0,91172:0:0:0:0:
109,192,91172,1,0,0:0:0:0:
402,192,91509,1,0,0:0:0:0:
109,192,91846,1,0,0:0:0:0:
256,192,92015,1,0,0:0:0:0:
402,192,92183,1,0,0:0:0:0:
256,192,92352,1,0,0:0:0:0:
109,192,92520,1,0,0:0:0:0:
256,192,92689,1,0,0:0:0:0:
402,192,92857,1,0,0:0:0:0:
256,192,93026,1,0,0:0:0:0:
109,192,93194,1,0,0:0:0:0:
256,192,93363,1,0,0:0:0:0:
402,192,93531,1,0,0:0:0:0:
182,192,93700,1,0,0:0:0:0:
329,192,93869,1,0,0:0:0:0:
402,192,93869,1,0,0:0:0:0:
475,192,93869,1,0,0:0:0:0:
182,192,94037,1,0,0:0:0:0:
109,192,94206,1,0,0:0:0:0:
182,192,94374,1,0,0:0:0:0:
36,192,94374,1,0,0:0:0:0:
256,192,94374,1,0,0:0:0:0:
329,192,94543,1,0,0:0:0:0:
402,192,94711,1,0,0:0:0:0:
475,192,94880,1,0,0:0:0:0:
256,192,94880,1,0,0:0:0:0:
182,192,94880,1,0,0:0:0:0:
109,192,95048,1,0,0:0:0:0:
36,192,95217,1,0,0:0:0:0:
256,192,95385,1,0,0:0:0:0:
329,192,95385,1,0,0:0:0:0:
475,192,95385,1,0,0:0:0:0:
402,192,95470,1,0,0:0:0:0:
475,192,95554,1,0,0:0:0:0:
402,192,95638,1,0,0:0:0:0:
329,192,95723,1,0,0:0:0:0:
256,192,95807,1,0,0:0:0:0:
182,192,95891,1,0,0:0:0:0:
109,192,95975,1,0,0:0:0:0:
36,192,96060,1,0,0:0:0:0:
109,192,96144,1,0,0:0:0:0:
182,192,96228,1,0,0:0:0:0:
256,192,96312,1,0,0:0:0:0:
329,192,96397,1,0,0:0:0:0:
402,192,96481,1,0,0:0:0:0:
475,192,96565,1,0,0:0:0:0:
182,192,96565,1,0,0:0:0:0:
109,192,96565,1,0,0:0:0:0:
36,192,96565,1,0,0:0:0:0:
329,192,96902,1,0,0:0:0:0:
402,192,96902,1,0,0:0:0:0:
475,192,96902,1,0,0:0:0:0:
182,192,97239,1,0,0:0:0:0:
109,192,97239,1,0,0:0:0:0:
36,192,97239,1,0,0:0:0:0:
329,192,97576,1,0,0:0:0:0:
402,192,97576,1,0,0:0:0:0:
475,192,97576,1,0,0:0:0:0:
182,192,97914,1,0,0:0:0:0:
109,192,97914,1,0,0:0:0:0:
256,192,97914,1,0,0:0:0:0:
329,192,98082,1,0,0:0:0:0:
402,192,98166,1,0,0:0:0:0:
475,192,98251,1,0,0:0:0:0:
36,192,98503,1,0,0:0:0:0:
182,192,98503,1,0,0:0:0:0:
329,192,98925,1,0,0:0:0:0:
402,192,98925,1,0,0:0:0:0:
475,192,98925,1,0,0:0:0:0:
182,192,99262,1,0,0:0:0:0:
109,192,99262,1,0,0:0:0:0:
36,192,99262,1,0,0:0:0:0:
329,192,99430,1,0,0:0:0:0:
36,192,99599,1,0,0:0:0:0:
109,192,99599,1,0,0:0:0:0:
182,192,99599,1,0,0:0:0:0:
329,192,99767,1,0,0:0:0:0:
36,192,99936,1,0,0:0:0:0:
109,192,99936,1,0,0:0:0:0:
182,192,99936,1,0,0:0:0:0:
329,192,100105,1,0,0:0:0:0:
36,192,100273,1,0,0:0:0:0:
109,192,100273,1,0,0:0:0:0:
182,192,100273,1,0,0:0:0:0:
329,192,100442,1,0,0:0:0:0:
36,192,100610,1,0,0:0:0:0:
329,192,100610,1,0,0:0:0:0:
475,192,100610,1,0,0:0:0:0:
182,192,100610,1,0,0:0:0:0:
329,192,100779,1,0,0:0:0:0:
36,192,100779,1,0,0:0:0:0:
182,192,100779,1,0,0:0:0:0:
475,192,100779,1,0,0:0:0:0:
402,192,100863,1,0,0:0:0:0:
109,192,100863,1,0,0:0:0:0:
402,192,100947,1,0,0:0:0:0:
109,192,100947,1,0,0:0:0:0:
329,192,101031,1,0,0:0:0:0:
182,192,101031,1,0,0:0:0:0:
256,192,101116,1,0,0:0:0:0:
182,192,101200,1,0,0:0:0:0:
329,192,101200,1,0,0:0:0:0:
402,192,101284,1,0,0:0:0:0:
475,192,101284,1,0,0:0:0:0:
36,192,101284,1,0,0:0:0:0:
109,192,101284,1,0,0:0:0:0:
256,192,101369,1,0,0:0:0:0:
182,192,101453,1,0,0:0:0:0:
329,192,101453,1,0,0:0:0:0:
109,192,101537,1,0,0:0:0:0:
402,192,101537,1,0,0:0:0:0:
475,192,101621,1,0,0:0:0:0:
36,192,101621,1,0,0:0:0:0:
475,192,101706,1,0,0:0:0:0:
36,192,101706,1,0,0:0:0:0:
256,192,101706,1,0,0:0:0:0:
182,192,101790,1,0,0:0:0:0:
329,192,101790,1,0,0:0:0:0:
109,192,101790,1,0,0:0:0:0:
402,192,101790,1,0,0:0:0:0:
36,192,101958,128,0,103307:0:0:0:0:
109,192,101958,128,0,102001:0:0:0:0:
256,192,101958,128,0,102001:0:0:0:0:
182,192,102085,128,0,102127:0:0:0:0:
329,192,102085,128,0,102127:0:0:0:0:
256,192,102211,128,0,102253:0:0:0:0:
402,192,102211,128,0,102253:0:0:0:0:
329,192,102338,128,0,102380:0:0:0:0:
475,192,102338,128,0,102380:0:0:0:0:
109,192,102464,128,0,102506:0:0:0:0:
256,192,102464,128,0,102506:0:0:0:0:
329,192,102590,128,0,102633:0:0:0:0:
402,192,102590,128,0,102633:0:0:0:0:
475,192,102590,128,0,102633:0:0:0:0:
182,192,102717,128,0,102759:0:0:0:0:
256,192,102843,128,0,102885:0:0:0:0:
109,192,102843,128,0,102885:0:0:0:0:
402,192,102843,128,0,102885:0:0:0:0:
329,192,102970,128,0,103012:0:0:0:0:
182,192,102970,128,0,103012:0:0:0:0:
109,192,103096,128,0,103138:0:0:0:0:
402,192,103096,128,0,103138:0:0:0:0:
475,192,103096,128,0,103138:0:0:0:0:
329,192,103223,128,0,103265:0:0:0:0:
182,192,103223,128,0,103265:0:0:0:0:
256,192,103223,128,0,103265:0:0:0:0:
402,192,103307,128,0,104655:0:0:0:0:
329,192,103475,128,0,103517:0:0:0:0:
256,192,103475,128,0,103517:0:0:0:0:
182,192,103475,128,0,103517:0:0:0:0:
109,192,103602,128,0,103644:0:0:0:0:
475,192,103602,128,0,103644:0:0:0:0:
329,192,103728,128,0,103770:0:0:0:0:
36,192,103728,128,0,103770:0:0:0:0:
256,192,103855,128,0,103897:0:0:0:0:
182,192,103855,128,0,103897:0:0:0:0:
109,192,103855,128,0,103897:0:0:0:0:
329,192,103981,128,0,104023:0:0:0:0:
475,192,103981,128,0,104023:0:0:0:0:
182,192,104107,128,0,104149:0:0:0:0:
36,192,104107,128,0,104149:0:0:0:0:
256,192,104234,128,0,104276:0:0:0:0:
109,192,104234,128,0,104276:0:0:0:0:
475,192,104234,128,0,104276:0:0:0:0:
329,192,104360,128,0,104402:0:0:0:0:
182,192,104360,128,0,104402:0:0:0:0:
36,192,104487,128,0,104529:0:0:0:0:
475,192,104487,128,0,104529:0:0:0:0:
109,192,104487,128,0,104529:0:0:0:0:
256,192,104655,128,0,106003:0:0:0:0:
475,192,104739,1,0,0:0:0:0:
36,192,104739,1,0,0:0:0:0:
402,192,104824,1,0,0:0:0:0:
329,192,104908,1,0,0:0:0:0:
36,192,104908,1,0,0:0:0:0:
182,192,104908,1,0,0:0:0:0:
402,192,104992,1,0,0:0:0:0:
109,192,104992,1,0,0:0:0:0:
475,192,105076,1,0,0:0:0:0:
402,192,105161,1,0,0:0:0:0:
36,192,105161,1,0,0:0:0:0:
182,192,105161,1,0,0:0:0:0:
329,192,105245,1,0,0:0:0:0:
109,192,105245,1,0,0:0:0:0:
402,192,105329,1,0,0:0:0:0:
475,192,105414,1,0,0:0:0:0:
36,192,105414,1,0,0:0:0:0:
182,192,105414,1,0,0:0:0:0:
402,192,105498,1,0,0:0:0:0:
329,192,105582,1,0,0:0:0:0:
109,192,105582,1,0,0:0:0:0:
402,192,105666,1,0,0:0:0:0:
475,192,105751,1,0,0:0:0:0:
36,192,105751,1,0,0:0:0:0:
182,192,105751,1,0,0:0:0:0:
402,192,105835,1,0,0:0:0:0:
109,192,105835,1,0,0:0:0:0:
329,192,105919,1,0,0:0:0:0:
109,192,106003,128,0,107352:0:0:0:0:
182,192,106003,1,0,0:0:0:0:
36,192,106003,1,0,0:0:0:0:
329,192,106088,1,0,0:0:0:0:
402,192,106088,1,0,0:0:0:0:
256,192,106172,1,0,0:0:0:0:
182,192,106256,1,0,0:0:0:0:
329,192,106256,1,0,0:0:0:0:
475,192,106256,1,0,0:0:0:0:
256,192,106340,1,0,0:0:0:0:
36,192,106340,1,0,0:0:0:0:
329,192,106425,1,0,0:0:0:0:
402,192,106425,1,0,0:0:0:0:
256,192,106509,1,0,0:0:0:0:
182,192,106509,1,0,0:0:0:0:
329,192,106593,1,0,0:0:0:0:
475,192,106593,1,0,0:0:0:0:
36,192,106593,1,0,0:0:0:0:
182,192,106678,1,0,0:0:0:0:
256,192,106678,1,0,0:0:0:0:
329,192,106762,1,0,0:0:0:0:
182,192,106846,1,0,0:0:0:0:
36,192,106846,1,0,0:0:0:0:
402,192,106846,1,0,0:0:0:0:
256,192,106930,1,0,0:0:0:0:
329,192,107015,1,0,0:0:0:0:
475,192,107015,1,0,0:0:0:0:
36,192,107015,1,0,0:0:0:0:
182,192,107099,1,0,0:0:0:0:
256,192,107183,1,0,0:0:0:0:
402,192,107183,1,0,0:0:0:0:
329,192,107267,1,0,0:0:0:0:
36,192,107267,1,0,0:0:0:0:
182,192,107352,1,0,0:0:0:0:
402,192,107352,1,0,0:0:0:0:
475,192,107352,1,0,0:0:0:0:
256,192,107352,128,0,108026:0:0:0:0:
329,192,107436,1,0,0:0:0:0:
402,192,107520,1,0,0:0:0:0:
182,192,107689,1,0,0:0:0:0:
329,192,107689,128,0,108026:0:0:0:0:
475,192,107689,1,0,0:0:0:0:
402,192,107773,128,0,108026:0:0:0:0:
109,192,107857,1,0,0:0:0:0:
475,192,107942,128,0,108026:0:0:0:0:
182,192,108026,128,0,108700:0:0:0:0:
36,192,108026,1,0,0:0:0:0:
329,192,108194,1,0,0:0:0:0:
402,192,108194,1,0,0:0:0:0:
109,192,108279,128,0,108700:0:0:0:0:
36,192,108363,128,0,108700:0:0:0:0:
256,192,108447,1,0,0:0:0:0:
402,192,108616,1,0,0:0:0:0:
256,192,108700,1,0,0:0:0:0:
475,192,108700,1,0,0:0:0:0:
329,192,108700,128,0,110048:0:0:0:0:
402,192,108784,1,0,0:0:0:0:
256,192,108869,1,0,0:0:0:0:
109,192,108869,1,0,0:0:0:0:
182,192,108953,1,0,0:0:0:0:
36,192,109037,1,0,0:0:0:0:
256,192,109037,1,0,0:0:0:0:
109,192,109121,1,0,0:0:0:0:
402,192,109121,1,0,0:0:0:0:
256,192,109206,1,0,0:0:0:0:
182,192,109206,1,0,0:0:0:0:
109,192,109290,1,0,0:0:0:0:
475,192,109290,1,0,0:0:0:0:
402,192,109374,128,0,110048:0:0:0:0:
36,192,109374,1,0,0:0:0:0:
182,192,109374,1,0,0:0:0:0:
256,192,109458,1,0,0:0:0:0:
182,192,109543,1,0,0:0:0:0:
36,192,109627,1,0,0:0:0:0:
109,192,109627,1,0,0:0:0:0:
475,192,109711,128,0,110048:0:0:0:0:
182,192,109711,1,0,0:0:0:0:
256,192,109796,1,0,0:0:0:0:
109,192,109796,1,0,0:0:0:0:
182,192,109880,1,0,0:0:0:0:
256,192,109964,1,0,0:0:0:0:
182,192,110048,1,0,0:0:0:0:
109,192,110048,1,0,0:0:0:0:
36,192,110048,128,0,111397:0:0:0:0:
109,192,110385,128,0,110723:0:0:0:0:
182,192,110385,128,0,111397:0:0:0:0:
256,192,110385,128,0,110723:0:0:0:0:
329,192,110385,128,0,111397:0:0:0:0:
402,192,110385,128,0,110723:0:0:0:0:
475,192,110723,128,0,111060:0:0:0:0:
109,192,110891,1,0,0:0:0:0:
256,192,110891,1,0,0:0:0:0:
402,192,110891,1,0,0:0:0:0:
109,192,111060,128,0,111397:0:0:0:0:
256,192,111060,128,0,111397:0:0:0:0:
402,192,111060,128,0,111397:0:0:0:0:
475,192,111228,1,0,0:0:0:0:
475,192,111397,128,0,111734:0:0:0:0:
36,192,111565,1,0,0:0:0:0:
109,192,111565,1,0,0:0:0:0:
182,192,111565,1,0,0:0:0:0:
256,192,111565,1,0,0:0:0:0:
329,192,111565,1,0,0:0:0:0:
402,192,111565,1,0,0:0:0:0:
402,192,111734,1,0,0:0:0:0:
329,192,111734,1,0,0:0:0:0:
256,192,111734,1,0,0:0:0:0:
36,192,111902,1,0,0:0:0:0:
109,192,111902,1,0,0:0:0:0:
182,192,111902,1,0,0:0:0:0:
256,192,112071,1,0,0:0:0:0:
475,192,112071,1,0,0:0:0:0:
402,192,112239,1,0,0:0:0:0:
329,192,112239,1,0,0:0:0:0:
182,192,112408,1,0,0:0:0:0:
475,192,112408,1,0,0:0:0:0:
256,192,112576,1,0,0:0:0:0:
329,192,112576,1,0,0:0:0:0:
402,192,112661,1,0,0:0:0:0:
182,192,112661,1,0,0:0:0:0:
256,192,112745,1,0,0:0:0:0:
329,192,112745,1,0,0:0:0:0:
36,192,112745,1,0,0:0:0:0:
109,192,112829,1,0,0:0:0:0:
475,192,112829,1,0,0:0:0:0:
402,192,112829,1,0,0:0:0:0:
329,192,112914,1,0,0:0:0:0:
256,192,112998,1,0,0:0:0:0:
182,192,113082,1,0,0:0:0:0:
109,192,113082,1,0,0:0:0:0:
256,192,113166,1,0,0:0:0:0:
402,192,113166,1,0,0:0:0:0:
329,192,113251,1,0,0:0:0:0:
256,192,113335,1,0,0:0:0:0:
109,192,113335,1,0,0:0:0:0:
182,192,113419,1,0,0:0:0:0:
256,192,113503,1,0,0:0:0:0:
329,192,113588,1,0,0:0:0:0:
475,192,113588,1,0,0:0:0:0:
402,192,113672,1,0,0:0:0:0:
329,192,113756,1,0,0:0:0:0:
182,192,113840,1,0,0:0:0:0:
36,192,113840,1,0,0:0:0:0:
256,192,113925,1,0,0:0:0:0:
329,192,114009,1,0,0:0:0:0:
475,192,114009,1,0,0:0:0:0:
402,192,114093,1,0,0:0:0:0:
36,192,114093,1,0,0:0:0:0:
182,192,114178,1,0,0:0:0:0:
109,192,114178,1,0,0:0:0:0:
256,192,114262,1,0,0:0:0:0:
329,192,114262,1,0,0:0:0:0:
109,192,114346,1,0,0:0:0:0:
402,192,114346,1,0,0:0:0:0:
256,192,114515,1,0,0:0:0:0:
109,192,114599,1,0,0:0:0:0:
256,192,114683,1,0,0:0:0:0:
475,192,114767,1,0,0:0:0:0:
329,192,114852,1,0,0:0:0:0:
182,192,114936,1,0,0:0:0:0:
36,192,114936,1,0,0:0:0:0:
256,192,115020,1,0,0:0:0:0:
329,192,115105,1,0,0:0:0:0:
109,192,115105,1,0,0:0:0:0:
256,192,115189,1,0,0:0:0:0:
402,192,115273,1,0,0:0:0:0:
475,192,115273,1,0,0:0:0:0:
329,192,115357,1,0,0:0:0:0:
36,192,115442,1,0,0:0:0:0:
109,192,115442,1,0,0:0:0:0:
256,192,115526,1,0,0:0:0:0:
182,192,115610,1,0,0:0:0:0:
109,192,115694,1,0,0:0:0:0:
329,192,115779,1,0,0:0:0:0:
475,192,115779,1,0,0:0:0:0:
182,192,115863,1,0,0:0:0:0:
256,192,115947,1,0,0:0:0:0:
36,192,116031,1,0,0:0:0:0:
475,192,116031,1,0,0:0:0:0:
256,192,116116,1,0,0:0:0:0:
182,192,116200,1,0,0:0:0:0:
329,192,116284,1,0,0:0:0:0:
109,192,116284,1,0,0:0:0:0:
256,192,116369,1,0,0:0:0:0:
36,192,116453,1,0,0:0:0:0:
329,192,116453,1,0,0:0:0:0:
182,192,116537,1,0,0:0:0:0:
402,192,116621,1,0,0:0:0:0:
329,192,116621,1,0,0:0:0:0:
256,192,116706,1,0,0:0:0:0:
36,192,116790,1,0,0:0:0:0:
109,192,116790,1,0,0:0:0:0:
402,192,116790,1,0,0:0:0:0:
256,192,116874,1,0,0:0:0:0:
109,192,116958,1,0,0:0:0:0:
329,192,117043,1,0,0:0:0:0:
402,192,117043,1,0,0:0:0:0:
256,192,117127,1,0,0:0:0:0:
182,192,117211,1,0,0:0:0:0:
36,192,117296,1,0,0:0:0:0:
475,192,117296,1,0,0:0:0:0:
402,192,117380,1,0,0:0:0:0:
329,192,117464,1,0,0:0:0:0:
109,192,117548,1,0,0:0:0:0:
182,192,117548,1,0,0:0:0:0:
256,192,117633,1,0,0:0:0:0:
329,192,117717,1,0,0:0:0:0:
109,192,117801,1,0,0:0:0:0:
36,192,117801,1,0,0:0:0:0:
182,192,117885,1,0,0:0:0:0:
256,192,117970,1,0,0:0:0:0:
329,192,118054,1,0,0:0:0:0:
182,192,118138,1,0,0:0:0:0:
256,192,118138,1,0,0:0:0:0:
109,192,118475,1,0,0:0:0:0:
36,192,118475,128,0,118812:0:0:0:0:
256,192,118812,1,0,0:0:0:0:
182,192,118812,128,0,119149:0:0:0:0:
329,192,119149,1,0,0:0:0:0:
402,192,119149,128,0,119487:0:0:0:0:
329,192,119487,1,0,0:0:0:0:
182,192,119487,128,0,119824:0:0:0:0:
256,192,119824,1,0,0:0:0:0:
36,192,119824,128,0,120161:0:0:0:0:
109,192,120161,1,0,0:0:0:0:
182,192,120161,128,0,120498:0:0:0:0:
329,192,120498,1,0,0:0:0:0:
256,192,120498,128,0,120835:0:0:0:0:
36,192,120835,1,0,0:0:0:0:
182,192,121172,1,0,0:0:0:0:
36,192,121172,1,0,0:0:0:0:
329,192,121509,1,0,0:0:0:0:
475,192,121509,1,0,0:0:0:0:
402,192,121846,1,0,0:0:0:0:
256,192,121846,1,0,0:0:0:0:
36,192,122183,1,0,0:0:0:0:
109,192,122183,1,0,0:0:0:0:
256,192,122183,1,0,0:0:0:0:
256,192,122352,1,0,0:0:0:0:
402,192,122352,1,0,0:0:0:0:
475,192,122352,1,0,0:0:0:0:
182,192,122520,1,0,0:0:0:0:
109,192,122520,1,0,0:0:0:0:
256,192,122562,1,0,0:0:0:0:
329,192,122605,1,0,0:0:0:0:
402,192,122605,1,0,0:0:0:0:
182,192,122731,1,0,0:0:0:0:
109,192,122731,1,0,0:0:0:0:
329,192,122815,1,0,0:0:0:0:
402,192,122815,1,0,0:0:0:0:
182,192,122899,1,0,0:0:0:0:
109,192,122899,1,0,0:0:0:0:
329,192,122984,1,0,0:0:0:0:
402,192,122984,1,0,0:0:0:0:
182,192,123068,1,0,0:0:0:0:
109,192,123068,1,0,0:0:0:0:
329,192,123152,1,0,0:0:0:0:
402,192,123152,1,0,0:0:0:0:
182,192,123237,1,0,0:0:0:0:
109,192,123237,1,0,0:0:0:0:
329,192,123321,1,0,0:0:0:0:
402,192,123321,1,0,0:0:0:0:
182,192,123405,1,0,0:0:0:0:
329,192,123489,1,0,0:0:0:0:
109,192,123531,1,0,0:0:0:0:
36,192,123531,1,0,0:0:0:0:
402,192,123531,1,0,0:0:0:0:
475,192,123531,1,0,0:0:0:0:
256,192,123869,1,0,0:0:0:0:
182,192,123869,1,0,0:0:0:0:
329,192,123869,1,0,0:0:0:0:
109,192,124206,1,0,0:0:0:0:
182,192,124206,1,0,0:0:0:0:
329,192,124543,1,0,0:0:0:0:
402,192,124543,1,0,0:0:0:0:
182,192,124880,1,0,0:0:0:0:
109,192,124880,1,0,0:0:0:0:
329,192,125217,1,0,0:0:0:0:
402,192,125217,1,0,0:0:0:0:
182,192,125554,1,0,0:0:0:0:
109,192,125554,1,0,0:0:0:0:
329,192,125891,1,0,0:0:0:0:
402,192,125891,1,0,0:0:0:0:
109,192,126228,1,0,0:0:0:0:
182,192,126228,1,0,0:0:0:0:
402,192,126565,1,0,0:0:0:0:
329,192,126565,1,0,0:0:0:0:
109,192,126902,1,0,0:0:0:0:
256,192,126902,1,0,0:0:0:0:
182,192,127239,1,0,0:0:0:0:
329,192,127239,1,0,0:0:0:0:
475,192,127576,1,0,0:0:0:0:
36,192,127576,1,0,0:0:0:0:
256,192,127576,128,0,127914:0:0:0:0:
182,192,127914,1,0,0:0:0:0:
109,192,127914,1,0,0:0:0:0:
402,192,127914,1,0,0:0:0:0:
329,192,127914,1,0,0:0:0:0:
109,192,128082,1,0,0:0:0:0:
402,192,128082,1,0,0:0:0:0:
329,192,128166,1,0,0:0:0:0:
182,192,128166,1,0,0:0:0:0:
256,192,128251,1,0,0:0:0:0:
475,192,128293,1,0,0:0:0:0:
402,192,128335,1,0,0:0:0:0:
329,192,128377,1,0,0:0:0:0:
256,192,128419,1,0,0:0:0:0:
182,192,128461,1,0,0:0:0:0:
109,192,128503,1,0,0:0:0:0:
402,192,128588,1,0,0:0:0:0:
329,192,128588,1,0,0:0:0:0:
36,192,128925,1,0,0:0:0:0:
109,192,128925,1,0,0:0:0:0:
475,192,129262,1,0,0:0:0:0:
402,192,129262,1,0,0:0:0:0:
329,192,129262,1,0,0:0:0:0:
109,192,129599,1,0,0:0:0:0:
256,192,129599,1,0,0:0:0:0:
402,192,129936,1,0,0:0:0:0:
329,192,129936,1,0,0:0:0:0:
36,192,130273,1,0,0:0:0:0:
182,192,130273,1,0,0:0:0:0:
475,192,130610,1,0,0:0:0:0:
402,192,130610,1,0,0:0:0:0:
329,192,130610,1,0,0:0:0:0:
36,192,130779,1,0,0:0:0:0:
256,192,130947,1,0,0:0:0:0:
182,192,130947,1,0,0:0:0:0:
329,192,131116,1,0,0:0:0:0:
402,192,131284,1,0,0:0:0:0:
109,192,131284,1,0,0:0:0:0:
36,192,131453,1,0,0:0:0:0:
475,192,131453,1,0,0:0:0:0:
256,192,131621,1,0,0:0:0:0:
402,192,131958,1,0,0:0:0:0:
109,192,131958,1,0,0:0:0:0:
256,192,132127,1,0,0:0:0:0:
182,192,132296,1,0,0:0:0:0:
329,192,132296,1,0,0:0:0:0:
109,192,132464,1,0,0:0:0:0:
329,192,132633,1,0,0:0:0:0:
475,192,132633,1,0,0:0:0:0:
402,192,132801,1,0,0:0:0:0:
36,192,132970,1,0,0:0:0:0:
182,192,132970,1,0,0:0:0:0:
109,192,133138,1,0,0:0:0:0:
402,192,133307,1,0,0:0:0:0:
256,192,133307,1,0,0:0:0:0:
329,192,133475,1,0,0:0:0:0:
109,192,133475,1,0,0:0:0:0:
182,192,133560,1,0,0:0:0:0:
256,192,133644,1,0,0:0:0:0:
475,192,133644,1,0,0:0:0:0:
109,192,133812,1,0,0:0:0:0:
182,192,133981,1,0,0:0:0:0:
402,192,134023,1,0,0:0:0:0:
475,192,134023,1,0,0:0:0:0:
402,192,134107,1,0,0:0:0:0:
475,192,134107,1,0,0:0:0:0:
36,192,134149,1,0,0:0:0:0:
402,192,134192,1,0,0:0:0:0:
475,192,134192,1,0,0:0:0:0:
402,192,134276,1,0,0:0:0:0:
475,192,134276,1,0,0:0:0:0:
109,192,134318,1,0,0:0:0:0:
182,192,134318,1,0,0:0:0:0:
109,192,135666,1,0,0:0:0:0:
256,192,135666,1,0,0:0:0:0:
402,192,135666,1,0,0:0:0:0:
109,192,137015,1,0,0:0:0:0:
402,192,137015,1,0,0:0:0:0:
329,192,137689,1,0,0:0:0:0:
182,192,137689,1,0,0:0:0:0:
36,192,138363,1,0,0:0:0:0:
475,192,138363,1,0,0:0:0:0:
475,192,139711,1,0,0:0:0:0:
402,192,139711,1,0,0:0:0:0:
329,192,139711,1,0,0:0:0:0:
256,192,139711,1,0,0:0:0:0:
182,192,139711,1,0,0:0:0:0:
109,192,139711,1,0,0:0:0:0:
36,192,139711,1,0,0:0:0:0:
109,192,140385,1,0,0:0:0:0:
402,192,140470,1,0,0:0:0:0:
36,192,142408,128,0,143756:0:0:0:0:
256,192,142408,128,0,142576:0:0:0:0:
329,192,142408,128,0,142576:0:0:0:0:
475,192,142408,128,0,142829:0:0:0:0:
182,192,142408,128,0,142914:0:0:0:0:
402,192,142492,128,0,142829:0:0:0:0:
109,192,142576,128,0,142914:0:0:0:0:
256,192,142661,128,0,142998:0:0:0:0:
329,192,142661,128,0,143166:0:0:0:0:
475,192,142914,128,0,143335:0:0:0:0:
402,192,142914,128,0,143251:0:0:0:0:
182,192,142998,128,0,143335:0:0:0:0:
109,192,142998,128,0,143335:0:0:0:0:
256,192,143082,128,0,143251:0:0:0:0:
329,192,143251,128,0,143419:0:0:0:0:
402,192,143335,128,0,143672:0:0:0:0:
256,192,143335,128,0,143503:0:0:0:0:
475,192,143419,128,0,143756:0:0:0:0:
182,192,143419,128,0,143672:0:0:0:0:
109,192,143419,128,0,143503:0:0:0:0:
329,192,143503,128,0,143756:0:0:0:0:
109,192,143588,128,0,143756:0:0:0:0:
256,192,143588,128,0,143756:0:0:0:0:
182,192,143756,128,0,143925:0:0:0:0:
402,192,143756,128,0,143925:0:0:0:0:
256,192,143840,128,0,144009:0:0:0:0:
109,192,143840,128,0,144009:0:0:0:0:
36,192,143840,128,0,143925:0:0:0:0:
475,192,143840,128,0,144009:0:0:0:0:
329,192,143840,128,0,144093:0:0:0:0:
182,192,144009,128,0,144178:0:0:0:0:
402,192,144009,128,0,144178:0:0:0:0:
36,192,144009,128,0,144178:0:0:0:0:
256,192,144093,128,0,144262:0:0:0:0:
475,192,144093,128,0,144178:0:0:0:0:
109,192,144093,128,0,144262:0:0:0:0:
329,192,144178,128,0,144346:0:0:0:0:
402,192,144262,128,0,144430:0:0:0:0:
182,192,144262,128,0,144430:0:0:0:0:
36,192,144262,128,0,144430:0:0:0:0:
475,192,144346,128,0,144515:0:0:0:0:
256,192,144346,128,0,144515:0:0:0:0:
109,192,144346,128,0,144515:0:0:0:0:
329,192,144430,128,0,144599:0:0:0:0:
182,192,144515,128,0,144683:0:0:0:0:
402,192,144515,128,0,144683:0:0:0:0:
36,192,144515,128,0,144683:0:0:0:0:
256,192,144599,128,0,144767:0:0:0:0:
475,192,144599,128,0,144767:0:0:0:0:
109,192,144599,128,0,144767:0:0:0:0:
329,192,144683,128,0,144852:0:0:0:0:
36,192,144767,128,0,144936:0:0:0:0:
182,192,144767,128,0,144936:0:0:0:0:
402,192,144767,128,0,144852:0:0:0:0:
109,192,144852,128,0,145020:0:0:0:0:
256,192,144852,128,0,145020:0:0:0:0:
475,192,144852,128,0,145020:0:0:0:0:
329,192,144936,128,0,145105:0:0:0:0:
402,192,144936,128,0,145105:0:0:0:0:
36,192,145020,128,0,145189:0:0:0:0:
182,192,145020,128,0,145189:0:0:0:0:
109,192,145105,128,0,145273:0:0:0:0:
256,192,145105,128,0,145273:0:0:0:0:
475,192,145105,128,0,145357:0:0:0:0:
329,192,145189,128,0,145357:0:0:0:0:
402,192,145189,128,0,145273:0:0:0:0:
182,192,145273,128,0,145442:0:0:0:0:
36,192,145273,128,0,145442:0:0:0:0:
402,192,145357,128,0,145442:0:0:0:0:
109,192,145357,128,0,145526:0:0:0:0:
256,192,145357,128,0,145526:0:0:0:0:
475,192,145442,128,0,145610:0:0:0:0:
329,192,145442,128,0,145694:0:0:0:0:
402,192,145526,128,0,145694:0:0:0:0:
182,192,145526,128,0,145694:0:0:0:0:
36,192,145526,128,0,145779:0:0:0:0:
256,192,145610,128,0,145779:0:0:0:0:
109,192,145610,128,0,145779:0:0:0:0:
475,192,145694,128,0,145947:0:0:0:0:
182,192,145779,128,0,145947:0:0:0:0:
329,192,145779,128,0,145947:0:0:0:0:
402,192,145779,128,0,145947:0:0:0:0:
109,192,145863,128,0,146031:0:0:0:0:
36,192,145863,128,0,146116:0:0:0:0:
256,192,145863,128,0,145947:0:0:0:0:
182,192,146031,128,0,146200:0:0:0:0:
256,192,146031,128,0,146453:0:0:0:0:
329,192,146031,128,0,146200:0:0:0:0:
402,192,146031,128,0,146200:0:0:0:0:
475,192,146031,128,0,146369:0:0:0:0:
109,192,146116,128,0,146284:0:0:0:0:
36,192,146200,128,0,146621:0:0:0:0:
329,192,146284,128,0,146453:0:0:0:0:
402,192,146284,128,0,146453:0:0:0:0:
182,192,146284,128,0,146453:0:0:0:0:
109,192,146369,128,0,146453:0:0:0:0:
475,192,146453,128,0,146621:0:0:0:0:
109,192,146537,128,0,146706:0:0:0:0:
402,192,146537,128,0,146706:0:0:0:0:
182,192,146621,128,0,146790:0:0:0:0:
329,192,146621,128,0,146790:0:0:0:0:
256,192,146706,128,0,146874:0:0:0:0:
475,192,146706,128,0,146874:0:0:0:0:
36,192,146706,128,0,146874:0:0:0:0:
402,192,146790,128,0,146958:0:0:0:0:
109,192,146790,128,0,146958:0:0:0:0:
329,192,146874,128,0,147043:0:0:0:0:
182,192,146874,128,0,147043:0:0:0:0:
256,192,146958,128,0,147127:0:0:0:0:
475,192,146958,128,0,147211:0:0:0:0:
36,192,146958,128,0,147211:0:0:0:0:
402,192,147043,128,0,147296:0:0:0:0:
109,192,147043,128,0,147296:0:0:0:0:
329,192,147127,128,0,147380:0:0:0:0:
182,192,147127,128,0,147380:0:0:0:0:
256,192,147211,128,0,147548:0:0:0:0:
475,192,147296,128,0,147464:0:0:0:0:
36,192,147296,128,0,147464:0:0:0:0:
402,192,147380,128,0,147548:0:0:0:0:
109,192,147380,128,0,147548:0:0:0:0:
329,192,147464,128,0,147633:0:0:0:0:
182,192,147464,128,0,147633:0:0:0:0:
36,192,147548,128,0,147717:0:0:0:0:
475,192,147548,128,0,147801:0:0:0:0:
109,192,147633,128,0,147801:0:0:0:0:
256,192,147633,128,0,147801:0:0:0:0:
402,192,147633,128,0,147801:0:0:0:0:
329,192,147717,128,0,147885:0:0:0:0:
182,192,147717,128,0,147885:0:0:0:0:
36,192,147801,128,0,148138:0:0:0:0:
109,192,147885,128,0,148138:0:0:0:0:
256,192,147885,128,0,148138:0:0:0:0:
402,192,147885,128,0,148138:0:0:0:0:
475,192,147885,128,0,148138:0:0:0:0:
329,192,148138,128,0,148223:0:0:0:0:
182,192,148138,128,0,148223:0:0:0:0:
256,192,148223,128,0,148307:0:0:0:0:
109,192,148223,128,0,148307:0:0:0:0:
182,192,148307,128,0,148391:0:0:0:0:
402,192,148307,128,0,148391:0:0:0:0:
256,192,148391,128,0,148475:0:0:0:0:
329,192,148475,128,0,148560:0:0:0:0:
36,192,148475,128,0,148560:0:0:0:0:
402,192,148560,128,0,148644:0:0:0:0:
109,192,148560,128,0,148644:0:0:0:0:
182,192,148644,128,0,148728:0:0:0:0:
256,192,148728,128,0,148812:0:0:0:0:
329,192,148812,128,0,148897:0:0:0:0:
182,192,148812,128,0,148897:0:0:0:0:
475,192,148812,128,0,148897:0:0:0:0:
402,192,148897,128,0,148981:0:0:0:0:
256,192,148981,128,0,149065:0:0:0:0:
109,192,148981,128,0,149065:0:0:0:0:
36,192,148981,128,0,149065:0:0:0:0:
329,192,149065,128,0,149149:0:0:0:0:
182,192,149149,128,0,149234:0:0:0:0:
256,192,149234,128,0,149318:0:0:0:0:
109,192,149234,128,0,149318:0:0:0:0:
182,192,149318,128,0,149402:0:0:0:0:
329,192,149318,128,0,149402:0:0:0:0:
402,192,149318,128,0,149402:0:0:0:0:
256,192,149402,128,0,149487:0:0:0:0:
36,192,149402,128,0,149487:0:0:0:0:
475,192,149402,128,0,149487:0:0:0:0:
109,192,149487,128,0,149571:0:0:0:0:
182,192,149571,128,0,149655:0:0:0:0:
329,192,149571,128,0,149655:0:0:0:0:
402,192,149571,128,0,149655:0:0:0:0:
36,192,149571,128,0,149655:0:0:0:0:
256,192,149655,128,0,149739:0:0:0:0:
475,192,149655,128,0,149739:0:0:0:0:
109,192,149655,128,0,149739:0:0:0:0:
402,192,149739,128,0,149824:0:0:0:0:
329,192,149824,128,0,149908:0:0:0:0:
182,192,149824,128,0,149908:0:0:0:0:
36,192,149824,128,0,149908:0:0:0:0:
256,192,149908,128,0,149992:0:0:0:0:
109,192,149908,128,0,149992:0:0:0:0:
182,192,149992,128,0,150076:0:0:0:0:
329,192,149992,128,0,150076:0:0:0:0:
402,192,149992,128,0,150076:0:0:0:0:
475,192,149992,128,0,150076:0:0:0:0:
256,192,150076,128,0,150161:0:0:0:0:
109,192,150161,128,0,150245:0:0:0:0:
182,192,150161,128,0,150245:0:0:0:0:
256,192,150245,128,0,150329:0:0:0:0:
329,192,150245,128,0,150329:0:0:0:0:
402,192,150329,128,0,150414:0:0:0:0:
475,192,150329,128,0,150414:0:0:0:0:
182,192,150414,128,0,150498:0:0:0:0:
109,192,150414,128,0,150498:0:0:0:0:
36,192,150414,128,0,150498:0:0:0:0:
256,192,150498,128,0,150582:0:0:0:0:
329,192,150498,128,0,150582:0:0:0:0:
402,192,150582,128,0,150666:0:0:0:0:
182,192,150666,128,0,150751:0:0:0:0:
109,192,150751,128,0,150835:0:0:0:0:
36,192,150835,128,0,150919:0:0:0:0:
256,192,150835,128,0,150919:0:0:0:0:
329,192,150919,128,0,151003:0:0:0:0:
109,192,150919,128,0,151003:0:0:0:0:
402,192,151003,128,0,151088:0:0:0:0:
182,192,151003,128,0,151088:0:0:0:0:
475,192,151088,128,0,151172:0:0:0:0:
109,192,151088,128,0,151172:0:0:0:0:
402,192,151172,128,0,151256:0:0:0:0:
182,192,151172,128,0,151256:0:0:0:0:
329,192,151256,128,0,151340:0:0:0:0:
256,192,151256,128,0,151340:0:0:0:0:
182,192,151340,128,0,151425:0:0:0:0:
256,192,151425,128,0,151509:0:0:0:0:
109,192,151425,128,0,151509:0:0:0:0:
402,192,151509,128,0,151593:0:0:0:0:
475,192,151509,128,0,151593:0:0:0:0:
329,192,151509,128,0,151593:0:0:0:0:
182,192,151593,128,0,151678:0:0:0:0:
256,192,151593,128,0,151678:0:0:0:0:
109,192,151678,128,0,151762:0:0:0:0:
329,192,151678,128,0,151762:0:0:0:0:
36,192,151762,128,0,151846:0:0:0:0:
402,192,151762,128,0,151846:0:0:0:0:
475,192,151846,1,0,0:0:0:0:
182,192,151846,1,0,0:0:0:0:
256,192,151846,1,0,0:0:0:0:
329,192,152015,1,0,0:0:0:0:
256,192,152015,1,0,0:0:0:0:
182,192,152015,1,0,0:0:0:0:
475,192,152183,1,0,0:0:0:0:
402,192,152183,1,0,0:0:0:0:
36,192,152183,1,0,0:0:0:0:
109,192,152183,1,0,0:0:0:0:
329,192,152352,1,0,0:0:0:0:
182,192,152352,1,0,0:0:0:0:
402,192,152520,1,0,0:0:0:0:
109,192,152520,1,0,0:0:0:0:
402,192,152689,1,0,0:0:0:0:
109,192,152689,1,0,0:0:0:0:
475,192,152857,1,0,0:0:0:0:
402,192,152857,1,0,0:0:0:0:
329,192,152857,1,0,0:0:0:0:
256,192,152857,1,0,0:0:0:0:
182,192,152857,1,0,0:0:0:0:
109,192,152857,1,0,0:0:0:0:
36,192,152857,1,0,0:0:0:0:
109,192,153026,1,0,0:0:0:0:
402,192,153026,1,0,0:0:0:0:
256,192,153194,1,0,0:0:0:0:
182,192,153194,1,0,0:0:0:0:
329,192,153194,1,0,0:0:0:0:
109,192,153194,128,0,153531:0:0:0:0:
36,192,153531,1,0,0:0:0:0:
182,192,153531,128,0,153869:0:0:0:0:
256,192,153700,1,0,0:0:0:0:
329,192,153869,1,0,0:0:0:0:
402,192,153869,128,0,154206:0:0:0:0:
36,192,154037,1,0,0:0:0:0:
256,192,154206,128,0,154543:0:0:0:0:
182,192,154206,1,0,0:0:0:0:
329,192,154206,1,0,0:0:0:0:
109,192,154374,1,0,0:0:0:0:
36,192,154543,1,0,0:0:0:0:
182,192,154543,1,0,0:0:0:0:
329,192,154543,1,0,0:0:0:0:
402,192,154543,1,0,0:0:0:0:
109,192,154880,1,0,0:0:0:0:
182,192,154880,1,0,0:0:0:0:
256,192,154880,1,0,0:0:0:0:
402,192,155048,1,0,0:0:0:0:
182,192,155217,1,0,0:0:0:0:
256,192,155217,1,0,0:0:0:0:
36,192,155217,1,0,0:0:0:0:
475,192,155385,1,0,0:0:0:0:
402,192,155385,1,0,0:0:0:0:
109,192,155554,1,0,0:0:0:0:
182,192,155554,1,0,0:0:0:0:
256,192,155554,1,0,0:0:0:0:
402,192,155723,1,0,0:0:0:0:
256,192,155891,1,0,0:0:0:0:
109,192,155891,1,0,0:0:0:0:
36,192,155891,1,0,0:0:0:0:
182,192,156060,1,0,0:0:0:0:
402,192,156228,1,0,0:0:0:0:
329,192,156228,1,0,0:0:0:0:
256,192,156397,1,0,0:0:0:0:
36,192,156565,1,0,0:0:0:0:
109,192,156565,1,0,0:0:0:0:
182,192,156565,1,0,0:0:0:0:
475,192,156734,1,0,0:0:0:0:
402,192,156734,1,0,0:0:0:0:
329,192,156734,1,0,0:0:0:0:
36,192,156902,1,0,0:0:0:0:
256,192,156902,1,0,0:0:0:0:
182,192,157071,1,0,0:0:0:0:
36,192,157239,1,0,0:0:0:0:
329,192,157239,1,0,0:0:0:0:
475,192,157239,1,0,0:0:0:0:
36,192,157408,1,0,0:0:0:0:
182,192,157408,1,0,0:0:0:0:
475,192,157408,1,0,0:0:0:0:
256,192,157576,1,0,0:0:0:0:
109,192,157576,1,0,0:0:0:0:
402,192,157576,1,0,0:0:0:0:
182,192,157745,1,0,0:0:0:0:
329,192,157745,1,0,0:0:0:0:
36,192,157914,1,0,0:0:0:0:
109,192,157914,1,0,0:0:0:0:
402,192,157914,1,0,0:0:0:0:
475,192,157914,1,0,0:0:0:0:
256,192,158082,1,0,0:0:0:0:
329,192,158251,1,0,0:0:0:0:
182,192,158251,1,0,0:0:0:0:
329,192,158419,1,0,0:0:0:0:
182,192,158419,1,0,0:0:0:0:
109,192,158588,1,0,0:0:0:0:
36,192,158588,1,0,0:0:0:0:
402,192,158588,1,0,0:0:0:0:
475,192,158588,1,0,0:0:0:0:
182,192,158588,128,0,158925:0:0:0:0:
109,192,158756,1,0,0:0:0:0:
256,192,158925,128,0,159262:0:0:0:0:
329,192,158925,1,0,0:0:0:0:
402,192,158925,1,0,0:0:0:0:
475,192,158925,1,0,0:0:0:0:
109,192,158925,1,0,0:0:0:0:
36,192,158925,1,0,0:0:0:0:
329,192,159093,1,0,0:0:0:0:
329,192,159262,128,0,159599:0:0:0:0:
182,192,159262,1,0,0:0:0:0:
109,192,159262,1,0,0:0:0:0:
36,192,159262,1,0,0:0:0:0:
402,192,159262,1,0,0:0:0:0:
475,192,159262,1,0,0:0:0:0:
402,192,159430,1,0,0:0:0:0:
402,192,159599,128,0,159936:0:0:0:0:
256,192,159599,1,0,0:0:0:0:
182,192,159599,1,0,0:0:0:0:
36,192,159599,1,0,0:0:0:0:
475,192,159599,1,0,0:0:0:0:
109,192,159599,1,0,0:0:0:0:
329,192,159767,1,0,0:0:0:0:
256,192,159936,1,0,0:0:0:0:
182,192,159936,1,0,0:0:0:0:
109,192,159936,1,0,0:0:0:0:
36,192,159936,1,0,0:0:0:0:
475,192,159936,1,0,0:0:0:0:
329,192,159936,128,0,160273:0:0:0:0:
402,192,160105,1,0,0:0:0:0:
256,192,160273,128,0,160610:0:0:0:0:
402,192,160273,1,0,0:0:0:0:
475,192,160273,1,0,0:0:0:0:
182,192,160273,1,0,0:0:0:0:
109,192,160273,1,0,0:0:0:0:
36,192,160273,1,0,0:0:0:0:
329,192,160442,1,0,0:0:0:0:
182,192,160610,128,0,160947:0:0:0:0:
329,192,160610,1,0,0:0:0:0:
402,192,160610,1,0,0:0:0:0:
475,192,160610,1,0,0:0:0:0:
109,192,160610,1,0,0:0:0:0:
36,192,160610,1,0,0:0:0:0:
109,192,160779,1,0,0:0:0:0:
109,192,160947,128,0,161284:0:0:0:0:
256,192,160947,1,0,0:0:0:0:
402,192,160947,1,0,0:0:0:0:
329,192,160947,1,0,0:0:0:0:
475,192,160947,1,0,0:0:0:0:
36,192,160947,1,0,0:0:0:0:
256,192,161116,1,0,0:0:0:0:
36,192,161284,128,0,161621:0:0:0:0:
182,192,161284,1,0,0:0:0:0:
256,192,161284,1,0,0:0:0:0:
329,192,161284,1,0,0:0:0:0:
402,192,161284,1,0,0:0:0:0:
475,192,161284,1,0,0:0:0:0:
402,192,161453,1,0,0:0:0:0:
109,192,161621,128,0,161958:0:0:0:0:
329,192,161621,1,0,0:0:0:0:
256,192,161621,1,0,0:0:0:0:
182,192,161621,1,0,0:0:0:0:
475,192,161621,1,0,0:0:0:0:
402,192,161621,1,0,0:0:0:0:
36,192,161790,1,0,0:0:0:0:
182,192,161958,128,0,162296:0:0:0:0:
256,192,161958,1,0,0:0:0:0:
402,192,161958,1,0,0:0:0:0:
475,192,161958,1,0,0:0:0:0:
329,192,161958,1,0,0:0:0:0:
36,192,161958,1,0,0:0:0:0:
256,192,162127,1,0,0:0:0:0:
256,192,162296,128,0,162633:0:0:0:0:
109,192,162296,1,0,0:0:0:0:
36,192,162296,1,0,0:0:0:0:
329,192,162296,1,0,0:0:0:0:
475,192,162296,1,0,0:0:0:0:
402,192,162296,1,0,0:0:0:0:
402,192,162633,1,0,0:0:0:0:
329,192,162633,1,0,0:0:0:0:
475,192,162633,1,0,0:0:0:0:
182,192,162633,1,0,0:0:0:0:
109,192,162633,1,0,0:0:0:0:
36,192,162633,1,0,0:0:0:0:
109,192,162801,1,0,0:0:0:0:
182,192,162801,1,0,0:0:0:0:
329,192,162801,1,0,0:0:0:0:
402,192,162801,1,0,0:0:0:0:
256,192,162970,1,0,0:0:0:0:
182,192,163138,1,0,0:0:0:0:
329,192,163138,1,0,0:0:0:0:
402,192,163138,1,0,0:0:0:0:
109,192,163138,1,0,0:0:0:0:
36,192,163223,1,0,0:0:0:0:
475,192,163223,1,0,0:0:0:0:
402,192,163307,1,0,0:0:0:0:
109,192,163307,1,0,0:0:0:0:
182,192,163391,1,0,0:0:0:0:
329,192,163391,1,0,0:0:0:0:
402,192,163475,1,0,0:0:0:0:
109,192,163475,1,0,0:0:0:0:
475,192,163560,1,0,0:0:0:0:
36,192,163560,1,0,0:0:0:0:
402,192,163644,1,0,0:0:0:0:
109,192,163644,1,0,0:0:0:0:
329,192,163728,1,0,0:0:0:0:
182,192,163728,1,0,0:0:0:0:
402,192,163812,1,0,0:0:0:0:
109,192,163812,1,0,0:0:0:0:
256,192,163897,1,0,0:0:0:0:
182,192,163981,5,0,0:0:0:0:
36,192,163981,1,0,0:0:0:0:
329,192,163981,1,0,0:0:0:0:
475,192,163981,1,0,0:0:0:0:
109,192,164065,1,0,0:0:0:0:
182,192,164149,1,0,0:0:0:0:
402,192,164149,1,0,0:0:0:0:
256,192,164234,1,0,0:0:0:0:
109,192,164318,1,0,0:0:0:0:
329,192,164318,1,0,0:0:0:0:
475,192,164318,1,0,0:0:0:0:
256,192,164402,1,0,0:0:0:0:
182,192,164487,1,0,0:0:0:0:
109,192,164487,1,0,0:0:0:0:
36,192,164487,1,0,0:0:0:0:
402,192,164487,1,0,0:0:0:0:
256,192,164571,1,0,0:0:0:0:
402,192,164655,1,0,0:0:0:0:
329,192,164739,1,0,0:0:0:0:
182,192,164739,1,0,0:0:0:0:
36,192,164739,1,0,0:0:0:0:
109,192,164824,1,0,0:0:0:0:
256,192,164908,1,0,0:0:0:0:
402,192,164992,1,0,0:0:0:0:
475,192,164992,1,0,0:0:0:0:
109,192,164992,1,0,0:0:0:0:
182,192,165076,1,0,0:0:0:0:
329,192,165076,1,0,0:0:0:0:
109,192,165161,1,0,0:0:0:0:
475,192,165161,1,0,0:0:0:0:
256,192,165245,1,0,0:0:0:0:
182,192,165329,1,0,0:0:0:0:
109,192,165329,1,0,0:0:0:0:
402,192,165329,1,0,0:0:0:0:
329,192,165414,1,0,0:0:0:0:
475,192,165498,1,0,0:0:0:0:
256,192,165498,1,0,0:0:0:0:
109,192,165498,1,0,0:0:0:0:
402,192,165582,1,0,0:0:0:0:
182,192,165666,1,0,0:0:0:0:
36,192,165666,1,0,0:0:0:0:
329,192,165666,1,0,0:0:0:0:
256,192,165751,1,0,0:0:0:0:
182,192,165835,1,0,0:0:0:0:
109,192,165835,1,0,0:0:0:0:
36,192,165835,1,0,0:0:0:0:
402,192,165835,1,0,0:0:0:0:
475,192,165919,1,0,0:0:0:0:
329,192,166003,1,0,0:0:0:0:
256,192,166003,1,0,0:0:0:0:
109,192,166088,1,0,0:0:0:0:
182,192,166172,1,0,0:0:0:0:
475,192,166172,1,0,0:0:0:0:
402,192,166172,1,0,0:0:0:0:
256,192,166256,1,0,0:0:0:0:
36,192,166256,1,0,0:0:0:0:
109,192,166340,1,0,0:0:0:0:
256,192,166425,1,0,0:0:0:0:
402,192,166425,1,0,0:0:0:0:
182,192,166509,1,0,0:0:0:0:
36,192,166593,1,0,0:0:0:0:
256,192,166593,1,0,0:0:0:0:
475,192,166593,1,0,0:0:0:0:
402,192,166678,1,0,0:0:0:0:
109,192,166678,1,0,0:0:0:0:
256,192,166762,1,0,0:0:0:0:
182,192,166762,1,0,0:0:0:0:
329,192,166762,1,0,0:0:0:0:
475,192,166846,1,0,0:0:0:0:
36,192,166846,1,0,0:0:0:0:
182,192,166930,1,0,0:0:0:0:
329,192,167015,1,0,0:0:0:0:
475,192,167099,1,0,0:0:0:0:
256,192,167183,1,0,0:0:0:0:
109,192,167267,1,0,0:0:0:0:
329,192,167352,1,0,0:0:0:0:
402,192,167352,1,0,0:0:0:0:
256,192,167436,1,0,0:0:0:0:
36,192,167436,1,0,0:0:0:0:
182,192,167520,1,0,0:0:0:0:
402,192,167520,1,0,0:0:0:0:
256,192,167605,1,0,0:0:0:0:
36,192,167605,1,0,0:0:0:0:
109,192,167689,1,0,0:0:0:0:
475,192,167689,1,0,0:0:0:0:
329,192,167773,1,0,0:0:0:0:
182,192,167773,1,0,0:0:0:0:
402,192,167857,1,0,0:0:0:0:
109,192,167857,1,0,0:0:0:0:
329,192,167942,1,0,0:0:0:0:
36,192,167942,1,0,0:0:0:0:
109,192,168026,1,0,0:0:0:0:
402,192,168026,1,0,0:0:0:0:
256,192,168110,1,0,0:0:0:0:
182,192,168194,1,0,0:0:0:0:
329,192,168194,1,0,0:0:0:0:
109,192,168279,1,0,0:0:0:0:
402,192,168279,1,0,0:0:0:0:
36,192,168363,1,0,0:0:0:0:
475,192,168363,1,0,0:0:0:0:
109,192,168447,1,0,0:0:0:0:
402,192,168447,1,0,0:0:0:0:
182,192,168531,1,0,0:0:0:0:
329,192,168531,1,0,0:0:0:0:
256,192,168616,1,0,0:0:0:0:
109,192,168700,1,0,0:0:0:0:
402,192,168700,1,0,0:0:0:0:
256,192,168784,1,0,0:0:0:0:
402,192,168869,1,0,0:0:0:0:
109,192,168869,1,0,0:0:0:0:
256,192,168953,1,0,0:0:0:0:
109,192,169037,1,0,0:0:0:0:
36,192,169037,128,0,169374:0:0:0:0:
182,192,169037,128,0,169374:0:0:0:0:
329,192,169037,128,0,169374:0:0:0:0:
256,192,169121,1,0,0:0:0:0:
402,192,169206,1,0,0:0:0:0:
475,192,169374,1,0,0:0:0:0:
109,192,169374,1,0,0:0:0:0:
402,192,169458,1,0,0:0:0:0:
256,192,169458,1,0,0:0:0:0:
182,192,169543,1,0,0:0:0:0:
109,192,169543,1,0,0:0:0:0:
329,192,169627,1,0,0:0:0:0:
402,192,169627,1,0,0:0:0:0:
109,192,169711,1,0,0:0:0:0:
36,192,169711,1,0,0:0:0:0:
402,192,169796,1,0,0:0:0:0:
475,192,169796,1,0,0:0:0:0:
329,192,169880,1,0,0:0:0:0:
256,192,169880,1,0,0:0:0:0:
182,192,169964,1,0,0:0:0:0:
109,192,169964,1,0,0:0:0:0:
256,192,170048,1,0,0:0:0:0:
329,192,170048,1,0,0:0:0:0:
109,192,170133,1,0,0:0:0:0:
36,192,170133,1,0,0:0:0:0:
329,192,170217,1,0,0:0:0:0:
402,192,170217,1,0,0:0:0:0:
182,192,170301,1,0,0:0:0:0:
109,192,170301,1,0,0:0:0:0:
329,192,170385,1,0,0:0:0:0:
402,192,170385,1,0,0:0:0:0:
36,192,170470,1,0,0:0:0:0:
109,192,170470,1,0,0:0:0:0:
256,192,170554,1,0,0:0:0:0:
182,192,170554,1,0,0:0:0:0:
329,192,170638,1,0,0:0:0:0:
402,192,170638,1,0,0:0:0:0:
109,192,170723,1,0,0:0:0:0:
36,192,170723,1,0,0:0:0:0:
256,192,170891,1,0,0:0:0:0:
329,192,171060,1,0,0:0:0:0:
402,192,171060,1,0,0:0:0:0:
256,192,171228,1,0,0:0:0:0:
182,192,171397,1,0,0:0:0:0:
109,192,171397,1,0,0:0:0:0:
256,192,171565,1,0,0:0:0:0:
109,192,171734,1,0,0:0:0:0:
36,192,171734,1,0,0:0:0:0:
402,192,171734,1,0,0:0:0:0:
475,192,171734,1,0,0:0:0:0:
329,192,171902,1,0,0:0:0:0:
182,192,171902,1,0,0:0:0:0:
36,192,172071,5,0,0:0:0:0:
109,192,172071,1,0,0:0:0:0:
109,192,172239,1,0,0:0:0:0:
36,192,172239,1,0,0:0:0:0:
182,192,172408,1,0,0:0:0:0:
329,192,172408,1,0,0:0:0:0:
402,192,172408,1,0,0:0:0:0:
475,192,172408,1,0,0:0:0:0:
256,192,172576,1,0,0:0:0:0:
109,192,172745,1,0,0:0:0:0:
329,192,172745,1,0,0:0:0:0:
182,192,172914,1,0,0:0:0:0:
475,192,172914,1,0,0:0:0:0:
402,192,172998,1,0,0:0:0:0:
329,192,173082,1,0,0:0:0:0:
256,192,173166,1,0,0:0:0:0:
109,192,173251,5,0,0:0:0:0:
182,192,173251,1,0,0:0:0:0:
329,192,173588,1,0,0:0:0:0:
402,192,173588,1,0,0:0:0:0:
109,192,173925,1,0,0:0:0:0:
182,192,173925,1,0,0:0:0:0:
109,192,174262,1,0,0:0:0:0:
182,192,174430,1,0,0:0:0:0:
256,192,174515,1,0,0:0:0:0:
329,192,174599,1,0,0:0:0:0:
402,192,174683,1,0,0:0:0:0:
475,192,174767,1,0,0:0:0:0:
36,192,174767,128,0,175105:0:0:0:0:
