osu file format v14

[General]
AudioFilename: audio.mp3
AudioLeadIn: 0
PreviewTime: 54198
Countdown: 0
SampleSet: Soft
StackLeniency: 0.3
Mode: 0
LetterboxInBreaks: 0
WidescreenStoryboard: 0

[Editor]
DistanceSpacing: 1.45
BeatDivisor: 4
GridSize: 8
TimelineZoom: 1

[Metadata]
Title:Ciki Ciki Bam Bam (TV Size)
TitleUnicode:チキチキバンバン (TV Size)
Artist:QUEENDOM
ArtistUnicode:QUEENDOM
Creator:P_O
Version:Our Boy Kongming!
Source:パリピ孔明
Tags:Party People Koumei Ya Boy Kongming! Opening Jolly Bulikiraly chiki chitty bang Anime Japanese pop Jolly-Bulikirály
BeatmapID:3551703
BeatmapSetID:1737733

[Difficulty]
HPDrainRate:6
CircleSize:4.5
OverallDifficulty:8
ApproachRate:8.5
SliderMultiplier:2.1
SliderTickRate:1

[Events]
//Background and Video events
0,0,"paripi koumei bg.jpg",0,0
Video,-395,"paripi video.mp4"
//Break Periods
//Storyboard Layer 0 (Background)
//Storyboard Layer 1 (Fail)
//Storyboard Layer 2 (Pass)
//Storyboard Layer 3 (Foreground)
//Storyboard Layer 4 (Overlay)
//Storyboard Sound Samples

[TimingPoints]
1700,468.75,4,2,0,50,1,0
7325,-100,4,3,0,60,0,1
9200,-100,4,3,0,80,0,0
24200,-133.333333333333,4,3,0,60,0,0
52325,-133.333333333333,4,3,0,80,0,1
54200,-100,4,3,0,80,0,0
84200,-100,4,3,0,80,0,1
86075,-100,4,3,0,80,0,0

[Colours]
Combo1 : 55,200,192
Combo2 : 242,85,255

[HitObjects]
256,160,1700,5,2,0:0:0:0:
256,170,1817,1,0,0:0:0:0:
256,180,1934,1,2,0:0:0:0:
256,190,2051,1,0,0:0:0:0:
180,179,2168,6,0,P|164:155|141:136,3,52.5,6|2|2|2,0:0|0:0|0:0|0:0,0:0:0:0:
230,99,2637,2,0,P|255:92|280:99,3,52.5,2|2|2|2,0:0|0:0|0:0|0:0,0:0:0:0:
365,139,3106,2,0,P|346:157|332:179,3,52.5,2|2|2|2,0:0|0:0|0:0|0:0,0:0:0:0:
366,65,3575,5,10,0:0:0:0:
342,33,3692,1,8,0:0:0:0:
170,33,3926,1,8,0:0:0:0:
146,65,4043,1,10,0:0:0:0:
256,199,4278,1,2,0:0:0:0:
390,231,4512,5,10,0:0:0:0:
365,199,4629,1,8,0:0:0:0:
146,199,4864,1,10,0:0:0:0:
122,231,4980,1,8,0:0:0:0:
256,199,5215,1,2,0:0:0:0:
335,311,5450,5,2,0:0:0:0:
292,328,5567,1,2,0:0:0:0:
256,364,5684,1,8,0:0:0:0:
220,327,5801,1,8,0:0:0:0:
177,311,5918,1,12,0:0:0:0:
256,199,6153,1,0,0:0:0:0:
256,51,6387,2,0,L|256:-2,4,52.5,2|2|2|2|2,0:0|0:0|0:0|0:0|0:0,0:0:0:0:
256,199,7090,1,0,0:0:0:0:
256,51,7325,5,4,3:0:0:0:
211,116,7442,1,8,3:0:0:0:
97,198,7676,5,4,3:0:0:0:
166,197,7793,1,8,3:0:0:0:
256,347,8028,5,4,3:0:0:0:
301,282,8145,1,8,3:0:0:0:
415,198,8379,5,4,3:0:0:0:
346,199,8496,1,8,3:0:0:0:
121,116,8731,5,8,3:0:0:0:
211,116,8848,1,8,3:0:0:0:
256,199,8965,1,8,3:0:0:0:
301,116,9082,1,8,3:0:0:0:
391,116,9200,6,0,B|405:86|430:84|430:84|421:59|437:30,1,105,8|0,0:0|0:0,0:0:0:0:
346,199,9551,2,0,B|331:169|307:167|307:167|315:142|299:113,1,105,8|0,0:0|0:0,0:0:0:0:
478,199,9903,1,8,0:0:0:0:
478,374,10137,2,0,B|420:374|420:374|382:328,1,105,8|0,0:0|0:0,0:0:0:0:
121,337,10606,2,0,B|91:374|91:374|33:374,1,105,8|0,0:0|0:0,0:0:0:0:
121,116,11075,6,0,B|106:86|82:84|82:84|90:59|74:30,1,105,8|0,0:0|0:0,0:0:0:0:
166,199,11426,2,0,B|180:169|205:167|205:167|196:142|212:113,1,105,8|0,0:0|0:0,0:0:0:0:
33,185,11778,1,8,0:0:0:0:
256,232,12012,2,0,L|256:344,1,105,8|0,0:0|0:0,0:0:0:0:
215,144,12481,1,8,0:0:0:0:
235,108,12598,1,8,0:0:0:0:
256,72,12715,1,8,0:0:0:0:
277,108,12832,1,8,0:0:0:0:
297,144,12950,6,0,B|366:115|366:115|387:158,1,105,8|0,0:0|0:0,0:0:0:0:
215,144,13301,2,0,B|146:115|146:115|125:158,1,105,8|0,0:0|0:0,0:0:0:0:
256,232,13653,1,8,0:0:0:0:
480,64,13887,2,0,P|448:25|388:5,1,105,8|0,0:0|0:0,0:0:0:0:
113,5,14356,2,0,P|65:24|32:64,1,105,8|0,0:0|0:0,0:0:0:0:
315,35,14825,5,8,0:0:0:0:
382,102,14942,1,4,0:0:0:0:
197,35,15176,1,4,0:0:0:0:
130,102,15293,1,8,0:0:0:0:
256,297,15528,1,8,0:0:0:0:
256,86,15762,5,8,0:0:0:0:
239,112,15879,1,0,0:0:0:0:
255,138,15996,1,8,0:0:0:0:
271,164,16113,1,0,0:0:0:0:
256,192,16231,2,0,L|256:315,1,105,8|0,0:0|0:0,0:0:0:0:
0,319,16700,6,0,B|32:319|32:319|64:297|64:297|97:297,1,105,4|0,2:0|0:0,0:0:0:0:
256,380,17051,2,0,B|223:380|223:380|191:358|191:358|158:358,1,105,8|0,0:0|0:0,0:0:0:0:
256,297,17403,1,8,0:0:0:0:
86,157,17637,2,0,B|86:209|86:209|138:209,1,105,8|0,0:0|0:0,0:0:0:0:
373,209,18106,2,0,B|426:209|426:209|426:157,1,105,8|0,0:0|0:0,0:0:0:0:
256,380,18575,6,0,B|288:380|288:380|320:358|320:358|353:358,1,105,8|0,0:0|0:0,0:0:0:0:
512,319,18926,2,0,B|479:319|479:319|447:297|447:297|414:297,1,105,8|0,0:0|0:0,0:0:0:0:
256,297,19278,1,8,0:0:0:0:
256,106,19512,2,0,L|256:1,1,105,8|0,0:0|0:0,0:0:0:0:
191,247,19981,5,8,0:0:0:0:
230,264,20098,1,8,0:0:0:0:
256,297,20215,1,8,0:0:0:0:
282,264,20332,1,8,0:0:0:0:
321,247,20450,6,0,P|330:185|377:156,1,105,8|0,0:0|0:0,0:0:0:0:
191,247,20801,2,0,P|182:185|135:156,1,105,8|0,0:0|0:0,0:0:0:0:
256,106,21153,1,8,0:0:0:0:
207,358,21387,2,0,P|255:374|304:358,1,105,8|0,0:0|0:0,0:0:0:0:
256,192,21856,1,8,0:0:0:0:
256,149,21973,1,0,0:0:0:0:
256,106,22090,1,8,0:0:0:0:
92,88,22325,5,10,0:0:0:0:
137,26,22442,1,8,0:0:0:0:
209,47,22559,1,10,0:0:0:0:
256,106,22676,1,8,0:0:0:0:
303,47,22793,1,10,0:0:0:0:
375,26,22910,1,10,0:0:0:0:
420,88,23028,1,10,0:0:0:0:
340,289,23262,5,8,0:0:0:0:
301,262,23379,1,10,0:0:0:0:
256,278,23496,1,8,0:0:0:0:
211,262,23614,1,10,0:0:0:0:
172,289,23730,1,8,0:0:0:0:
256,106,23965,1,8,0:0:0:0:
256,278,24200,5,4,2:0:0:0:
139,192,24434,1,8,0:3:0:0:
147,161,24551,1,0,0:3:0:0:
155,131,24668,1,4,2:3:0:0:
373,192,24903,1,8,0:3:0:0:
365,161,25020,1,0,0:3:0:0:
357,131,25137,1,8,0:3:0:0:
256,6,25371,5,0,0:0:0:0:
101,6,25606,2,0,B|155:6|155:6|155:49,1,78.7500030040742,8|0,0:0|0:0,0:0:0:0:
54,131,26075,2,0,B|0:131|0:131|0:88,1,78.7500030040742,8|0,0:0|0:0,0:0:0:0:
0,239,26543,1,8,0:0:0:0:
167,131,26778,1,0,0:0:0:0:
103,239,27012,5,8,0:0:0:0:
199,347,27246,1,8,0:0:0:0:
167,347,27364,1,0,0:0:0:0:
167,378,27481,1,4,0:0:0:0:
135,378,27598,1,0,0:0:0:0:
103,378,27715,1,8,0:0:0:0:
103,239,27950,6,0,L|186:239,1,78.7500030040742,8|0,0:0|0:0,0:0:0:0:
313,347,28418,1,8,0:0:0:0:
345,347,28536,1,4,0:0:0:0:
256,192,28770,6,0,B|290:192|290:192|324:157|324:157|324:123,1,118.125004506111,8|0,0:0|0:0,0:0:0:0:
483,122,29356,2,0,L|400:122,1,78.7500030040742,8|0,0:0|0:0,0:0:0:0:
245,121,29825,2,0,B|226:83|226:83|207:102|207:102|188:102|188:102|169:83|169:83|150:121,1,157.500006008148,8|8,0:0|0:0,0:0:0:0:
256,192,30528,1,0,0:0:0:0:
139,191,30762,1,8,0:0:0:0:
198,317,30996,5,8,0:0:0:0:
167,327,31114,1,8,0:0:0:0:
150,297,31231,1,8,0:0:0:0:
124,274,31348,1,8,0:0:0:0:
120,236,31465,1,8,0:0:0:0:
109,204,31582,1,8,0:0:0:0:
139,191,31700,1,12,0:0:0:0:
155,56,31934,5,8,0:3:0:0:
185,47,32051,1,0,0:3:0:0:
215,39,32168,1,12,2:3:0:0:
357,56,32403,1,8,0:3:0:0:
327,47,32520,1,0,0:3:0:0:
297,39,32637,1,8,0:3:0:0:
373,191,32871,1,0,0:0:0:0:
476,56,33106,6,0,B|476:2|476:2|519:2,1,78.7500030040742,8|0,0:0|0:0,0:0:0:0:
397,137,33575,2,0,B|397:191|397:191|354:191,1,78.7500030040742,8|0,0:0|0:0,0:0:0:0:
256,192,34043,1,8,0:0:0:0:
397,268,34278,1,0,0:0:0:0:
256,344,34512,5,8,0:0:0:0:
256,192,34746,1,8,0:0:0:0:
256,160,34864,1,0,0:0:0:0:
233,137,34981,1,4,0:0:0:0:
200,137,35098,1,0,0:0:0:0:
168,137,35215,1,8,0:0:0:0:
118,265,35450,6,0,L|118:358,1,78.7500030040742,8|0,0:0|0:0,0:0:0:0:
62,136,35918,2,0,L|127:201,1,78.7500030040742,8|0,0:0|0:0,0:0:0:0:
116,0,36387,2,0,L|50:65,1,78.7500030040742,8|0,0:0|0:0,0:0:0:0:
195,0,36856,2,0,L|284:0,1,78.7500030040742,8|0,0:0|0:0,0:0:0:0:
455,0,37325,5,8,0:0:0:0:
502,0,37442,1,8,0:0:0:0:
502,47,37559,1,8,0:0:0:0:
502,94,37676,1,8,0:0:0:0:
455,94,37793,1,8,0:0:0:0:
500,289,38028,5,8,0:0:0:0:
453,289,38145,1,8,0:0:0:0:
453,336,38262,1,8,0:0:0:0:
453,384,38379,1,8,0:0:0:0:
500,383,38496,1,8,0:0:0:0:
335,192,38731,5,8,0:0:0:0:
295,166,38848,1,8,0:0:0:0:
255,192,38965,1,8,0:0:0:0:
215,218,39082,1,8,0:0:0:0:
175,192,39199,1,8,0:0:0:0:
216,331,39434,5,8,0:0:0:0:
207,361,39551,1,0,0:0:0:0:
179,376,39668,1,8,0:0:0:0:
296,331,39903,1,8,0:0:0:0:
305,361,40020,1,0,0:0:0:0:
333,376,40137,1,8,0:0:0:0:
256,192,40371,1,0,0:0:0:0:
222,74,40606,2,0,P|256:57|289:74,1,78.7500030040742,8|0,0:0|0:0,0:0:0:0:
144,112,41075,5,8,0:0:0:0:
256,192,41309,1,0,0:0:0:0:
368,112,41543,1,8,0:0:0:0:
310,259,41778,2,0,P|256:302|191:259,1,157.500006008148
256,379,42481,1,8,0:0:0:0:
256,192,42715,1,8,0:0:0:0:
256,160,42832,1,0,0:0:0:0:
256,128,42950,6,0,L|256:38,1,78.7500030040742,8|0,0:0|0:0,0:0:0:0:
159,192,43418,1,8,0:0:0:0:
127,192,43535,1,4,0:0:0:0:
29,259,43770,2,0,B|29:318|29:318|111:318,1,118.125004506111,8|0,0:0|0:0,0:0:0:0:
216,379,44356,6,0,L|306:379,1,78.7500030040742,8|0,0:0|0:0,0:0:0:0:
429,379,44825,1,8,0:0:0:0:
460,379,44942,1,8,0:0:0:0:
491,379,45059,1,8,0:0:0:0:
491,347,45176,1,8,0:0:0:0:
490,314,45293,1,8,0:0:0:0:
492,192,45528,5,0,0:0:0:0:
368,192,45762,1,8,0:0:0:0:
337,192,45879,1,8,0:0:0:0:
306,192,45996,1,8,0:0:0:0:
306,160,46113,1,8,0:0:0:0:
306,128,46230,1,8,0:0:0:0:
206,128,46465,5,8,0:0:0:0:
206,159,46582,1,0,0:0:0:0:
206,192,46700,2,0,L|206:284,1,78.7500030040742,8|0,0:0|0:0,0:0:0:0:
87,192,47168,5,8,0:0:0:0:
206,192,47403,1,0,0:0:0:0:
87,74,47637,1,8,0:0:0:0:
87,192,47871,1,8,0:0:0:0:
87,223,47988,1,0,0:0:0:0:
87,254,48106,2,0,L|88:347,1,78.7500030040742,8|0,0:0|0:0,0:0:0:0:
206,270,48575,5,8,0:0:0:0:
325,332,48809,1,0,0:0:0:0:
444,270,49043,1,8,0:0:0:0:
444,135,49278,2,0,B|420:88|375:88|375:88|375:43|329:20,1,157.500006008148
168,29,49981,1,8,0:0:0:0:
256,130,50215,1,8,0:0:0:0:
256,161,50332,1,0,0:0:0:0:
256,192,50450,1,8,0:0:0:0:
325,332,50684,5,0,0:0:0:0:
200,270,50918,1,8,0:0:0:0:
168,270,51035,1,4,0:0:0:0:
55,208,51270,2,0,B|55:145|55:145|0:145,1,118.125004506111,8|0,0:0|0:0,0:0:0:0:
89,29,51856,2,0,L|167:29,1,78.7500030040742,8|0,0:0|0:0,0:0:0:0:
168,270,52325,5,8,0:0:0:0:
185,188,52442,1,8,0:0:0:0:
256,143,52559,1,8,0:0:0:0:
327,188,52676,1,8,0:0:0:0:
344,270,52793,1,4,2:0:0:0:
55,208,53262,5,4,2:0:0:0:
457,208,53731,5,4,2:0:0:0:
188,174,54200,6,0,B|175:132|175:132|211:112|212:65,1,105,4|0,2:0|0:0,0:0:0:0:
324,174,54551,2,0,B|337:132|337:132|301:112|300:65,1,105,8|0,0:0|0:0,0:0:0:0:
256,192,54903,1,8,0:0:0:0:
79,80,55137,2,0,P|100:30|153:0,1,105,8|0,0:0|0:0,0:0:0:0:
370,2,55606,2,0,P|413:31|433:80,1,105,8|0,0:0|0:0,0:0:0:0:
431,269,56075,6,0,B|450:317|450:317|502:317,1,105,8|0,0:0|0:0,0:0:0:0:
349,317,56426,2,0,B|329:268|329:268|277:268,1,105,8|0,0:0|0:0,0:0:0:0:
431,188,56778,2,0,L|431:78,1,105,8|0,0:0|0:0,0:0:0:0:
277,269,57246,5,8,0:0:0:0:
256,231,57364,1,0,0:0:0:0:
235,269,57481,1,8,0:0:0:0:
277,83,57715,1,8,0:0:0:0:
256,121,57833,1,0,0:0:0:0:
235,83,57950,1,8,0:0:0:0:
81,192,58184,5,0,0:0:0:0:
256,339,58418,1,8,0:0:0:0:
431,192,58653,1,0,0:0:0:0:
345,60,58887,2,0,P|377:15|425:9,1,105,8|0,0:0|0:0,0:0:0:0:
167,60,59356,2,0,P|135:15|87:9,1,105,8|0,0:0|0:0,0:0:0:0:
256,153,59825,5,8,0:0:0:0:
256,339,60059,1,0,0:0:0:0:
88,291,60293,1,8,0:0:0:0:
256,240,60528,1,0,0:0:0:0:
424,291,60762,5,8,0:0:0:0:
424,332,60879,1,4,0:0:0:0:
336,116,61114,1,4,0:0:0:0:
296,127,61231,1,8,0:0:0:0:
278,165,61348,1,8,0:0:0:0:
234,165,61466,1,8,0:0:0:0:
216,127,61582,1,8,0:0:0:0:
176,116,61700,6,0,B|111:116|111:116|111:172,1,105,4|0,2:0|0:0,0:0:0:0:
44,65,62051,2,0,B|44:0|44:0|-1:0,1,105,8|0,0:0|0:0,0:0:0:0:
44,176,62403,1,8,0:0:0:0:
182,289,62637,2,0,B|182:232|182:232|146:216|119:245,1,105,8|0,0:0|0:0,0:0:0:0:
330,289,63106,2,0,B|330:232|330:232|366:216|393:245,1,105,8|0,0:0|0:0,0:0:0:0:
298,362,63575,6,0,B|331:362|331:362|363:384|363:384|396:384,1,105,8|0,0:0|0:0,0:0:0:0:
214,362,63926,2,0,B|180:362|180:362|148:384|148:384|116:384,1,105,8|0,0:0|0:0,0:0:0:0:
256,213,64278,2,0,L|256:103,1,105,8|0,0:0|0:0,0:0:0:0:
116,213,64746,5,0,0:0:0:0:
150,48,64981,1,8,0:0:0:0:
256,213,65215,1,0,0:0:0:0:
362,48,65450,1,8,0:0:0:0:
396,213,65684,1,0,0:0:0:0:
200,130,65918,6,0,P|190:79|136:44,1,105,8|0,0:0|0:0,0:0:0:0:
312,130,66387,2,0,P|322:79|376:44,1,105,8|0,0:0|0:0,0:0:0:0:
248,264,66856,2,0,L|248:374,1,105,8|0,0:0|0:0,0:0:0:0:
200,130,67325,5,8,0:0:0:0:
177,214,67442,1,8,0:0:0:0:
248,264,67559,1,8,0:0:0:0:
335,214,67676,1,8,0:0:0:0:
312,130,67793,1,8,0:0:0:0:
335,326,68028,5,8,0:0:0:0:
419,349,68145,1,8,0:0:0:0:
469,277,68262,1,8,0:0:0:0:
419,191,68379,1,8,0:0:0:0:
335,214,68496,1,8,0:0:0:0:
177,326,68731,5,8,0:0:0:0:
93,349,68848,1,8,0:0:0:0:
43,277,68965,1,8,0:0:0:0:
93,191,69082,1,8,0:0:0:0:
177,214,69200,6,0,B|215:180|215:180|195:152|201:114,1,105,4|0,2:0|0:0,0:0:0:0:
335,214,69551,2,0,B|297:180|297:180|317:152|311:114,1,105,8|0,0:0|0:0,0:0:0:0:
256,37,69903,1,8,0:0:0:0:
109,37,70137,2,0,B|67:37|67:37|67:16|67:16|25:16,1,105,8|0,0:0|0:0,0:0:0:0:
20,175,70606,2,0,B|20:132|20:132|0:132|0:132|0:90,1,105,8|0,0:0|0:0,0:0:0:0:
20,296,71075,6,0,B|55:331|38:349|73:384,1,105,8|0,0:0|0:0,0:0:0:0:
256,359,71426,2,0,B|205:359|205:383|156:383,1,105,8|0,0:0|0:0,0:0:0:0:
256,280,71778,2,0,L|256:170,1,105,8|0,0:0|0:0,0:0:0:0:
356,359,72246,1,0,0:0:0:0:
172,280,72481,1,8,0:0:0:0:
356,280,72715,1,8,0:0:0:0:
398,280,72832,1,0,0:0:0:0:
441,280,72950,6,0,B|499:265|499:265|513:206,1,105,8|0,0:0|0:0,0:0:0:0:
509,42,73418,2,0,L|509:156,1,105,8|0,0:0|0:0,0:0:0:0:
324,42,73887,2,0,B|266:57|266:57|252:116,1,105,8|0,0:0|0:0,0:0:0:0:
256,280,74355,2,0,L|256:166,1,105,8|0,0:0|0:0,0:0:0:0:
78,362,74825,5,8,0:0:0:0:
78,321,74942,1,8,0:0:0:0:
120,321,75059,1,8,0:0:0:0:
162,321,75176,1,8,0:0:0:0:
162,280,75293,1,8,0:0:0:0:
0,192,75528,1,0,0:0:0:0:
162,104,75762,5,8,0:0:0:0:
162,63,75879,1,8,0:0:0:0:
120,63,75996,1,8,0:0:0:0:
78,63,76113,1,8,0:0:0:0:
78,22,76230,1,8,0:0:0:0:
256,22,76465,5,8,0:0:0:0:
256,63,76582,1,0,0:0:0:0:
256,104,76700,2,0,B|256:167|256:167|314:167,1,105,4|0,2:0|0:0,0:0:0:0:
416,230,77051,2,0,B|416:167|416:167|358:167,1,105,8|0,0:0|0:0,0:0:0:0:
493,230,77403,1,8,0:0:0:0:
416,381,77637,2,0,B|416:332|389:313|389:313|339:313,1,105,8|0,0:0|0:0,0:0:0:0:
151,313,78106,2,0,B|123:313|123:313|96:332|96:381,1,105,8|0,0:0|0:0,0:0:0:0:
300,381,78575,6,0,B|256:381|256:381|256:295,1,105,8|0,0:0|0:0,0:0:0:0:
211,192,78926,2,0,B|256:192|256:192|256:252,1,105,8|0,0:0|0:0,0:0:0:0:
256,108,79278,2,0,L|256:2,1,105,8|0,0:0|0:0,0:0:0:0:
256,252,79746,1,0,0:0:0:0:
338,108,79981,1,8,0:0:0:0:
174,108,80215,1,8,0:0:0:0:
132,108,80332,1,0,0:0:0:0:
132,150,80450,1,8,0:0:0:0:
132,384,80684,5,0,0:0:0:0:
256,252,80918,1,8,0:0:0:0:
380,384,81153,1,0,0:0:0:0:
398,245,81387,2,0,P|371:179|393:132,1,105,8|0,0:0|0:0,0:0:0:0:
114,245,81856,2,0,P|140:179|118:132,1,105,8|0,0:0|0:0,0:0:0:0:
211,344,82325,5,8,0:0:0:0:
197,273,82442,1,8,0:0:0:0:
256,230,82559,1,8,0:0:0:0:
315,273,82676,1,8,0:0:0:0:
301,344,82793,1,8,0:0:0:0:
301,28,83028,5,8,0:0:0:0:
380,66,83145,1,4,0:0:0:0:
211,28,83379,1,4,0:0:0:0:
132,66,83496,1,8,0:0:0:0:
335,192,83731,5,8,0:0:0:0:
256,154,83848,1,8,0:0:0:0:
177,192,83965,1,8,0:0:0:0:
108,357,84200,5,8,0:0:0:0:
108,262,84317,1,4,0:0:0:0:
404,262,84551,1,4,0:0:0:0:
404,357,84668,1,8,0:0:0:0:
177,192,84903,5,8,0:0:0:0:
108,144,85020,1,4,0:0:0:0:
335,192,85254,1,4,0:0:0:0:
404,144,85371,1,8,0:0:0:0:
108,144,85606,5,8,0:0:0:0:
177,192,85723,1,8,0:0:0:0:
256,154,85840,1,8,0:0:0:0:
335,192,85957,1,8,0:0:0:0:
404,144,86075,1,4,2:0:0:0:
