osu file format v14

[General]
AudioFilename: audio.mp3
AudioLeadIn: 0
PreviewTime: 54198
Countdown: 0
SampleSet: Soft
StackLeniency: 0.3
Mode: 0
LetterboxInBreaks: 0
WidescreenStoryboard: 1

[Editor]
DistanceSpacing: 1.21
BeatDivisor: 4
GridSize: 16
TimelineZoom: 1

[Metadata]
Title:Ciki Ciki Bam Bam (TV Size)
TitleUnicode:チキチキバンバン (TV Size)
Artist:QUEENDOM
ArtistUnicode:QUEENDOM
Creator:P_O
Version:Normal
Source:パリピ孔明
Tags:Party People Koumei Ya Boy Kongming! Opening Jolly Bulikiraly chiki chitty bang Anime Japanese pop Jolly-Bulikirály
BeatmapID:3559841
BeatmapSetID:1737733

[Difficulty]
HPDrainRate:3
CircleSize:4
OverallDifficulty:4
ApproachRate:5
SliderMultiplier:1.15
SliderTickRate:1

[Events]
//Background and Video events
0,0,"paripi koumei bg.jpg",0,0
Video,-395,"paripi video.mp4"
//Break Periods
//Storyboard Layer 0 (Background)
//Storyboard Layer 1 (Fail)
//Storyboard Layer 2 (Pass)
//Storyboard Layer 3 (Foreground)
//Storyboard Layer 4 (Overlay)
//Storyboard Sound Samples

[TimingPoints]
1700,468.75,4,2,0,50,1,0
7325,-100,4,3,0,60,0,1
9200,-100,4,3,0,80,0,0
24200,-100,4,3,0,60,0,0
52325,-100,4,3,0,80,0,1
54200,-100,4,3,0,80,0,0
84200,-100,4,3,0,80,0,1
86075,-100,4,3,0,80,0,0

[Colours]
Combo1 : 55,200,192
Combo2 : 242,85,255

[HitObjects]
256,192,1700,5,2,0:0:0:0:
256,54,2168,2,0,B|281:8|281:8|353:8,1,115,6|2,0:0|0:0,0:0:0:0:
482,8,3106,1,2,0:0:0:0:
482,146,3575,1,10,0:0:0:0:
482,284,4043,2,0,B|482:346|482:346|436:371,1,115,10|10,0:0|0:0,0:0:0:0:
297,371,4981,1,10,0:0:0:0:
158,371,5450,5,2,0:0:0:0:
116,316,5684,1,8,0:0:0:0:
47,316,5918,1,12,0:0:0:0:
0,185,6387,2,0,B|0:122|0:122|46:97,1,115,2|2,0:0|0:0,0:0:0:0:
184,97,7325,6,0,P|215:125|259:141,1,86.25,4|4,3:0|3:0,0:0:0:0:
359,140,8028,2,0,P|399:154|431:183,1,86.25,4|4,3:0|3:0,0:0:0:0:
431,287,8731,1,8,3:0:0:0:
431,355,8965,1,8,3:0:0:0:
361,355,9200,6,0,B|320:355|320:355|286:322,1,86.25,4|8,2:0|0:0,0:0:0:0:
183,323,9903,1,8,0:0:0:0:
114,323,10137,2,0,L|62:271,1,57.5,8|0,0:0|0:0,0:0:0:0:
36,223,10606,2,0,L|36:153,1,57.5,8|0,0:0|0:0,0:0:0:0:
36,96,11075,2,0,B|36:55|36:55|69:21,1,86.25,4|8,3:0|0:0,0:0:0:0:
171,22,11778,5,8,0:0:0:0:
240,22,12012,2,0,L|288:70,1,57.5,8|0,0:0|0:0,0:0:0:0:
318,122,12481,2,0,L|318:192,1,57.5,8|8,0:0|0:0,0:0:0:0:
318,248,12950,2,0,B|318:289|318:289|351:323,1,86.25,8|8,0:0|0:0,0:0:0:0:
453,323,13653,5,8,0:0:0:0:
503,275,13887,2,0,L|503:200,1,57.5,8|0,0:0|0:0,0:0:0:0:
453,167,14356,2,0,L|453:93,1,57.5,8|0,0:0|0:0,0:0:0:0:
453,40,14825,2,0,B|420:8|420:8|379:8,1,86.25,8|4,0:0|0:0,0:0:0:0:
275,8,15528,5,8,0:0:0:0:
205,7,15762,1,0,0:0:0:0:
145,42,15996,1,0,0:0:0:0:
145,113,16231,5,0,0:0:0:0:
205,149,16465,1,0,0:0:0:0:
206,220,16700,2,0,B|206:261|206:261|174:293,1,86.25,4|8,2:0|0:0,0:0:0:0:
70,293,17403,5,8,0:0:0:0:
1,293,17637,2,0,L|1:223,1,57.5,8|0,0:0|0:0,0:0:0:0:
1,166,18106,2,0,L|1:96,1,57.5,8|0,0:0|0:0,0:0:0:0:
48,58,18575,2,0,B|89:58|89:58|121:26,1,86.25,8|8,0:0|0:0,0:0:0:0:
224,26,19278,5,8,0:0:0:0:
295,26,19512,2,0,L|335:66,1,57.5,8|0,0:0|0:0,0:0:0:0:
374,124,19981,2,0,L|374:181,1,57.5,8|8,0:0|0:0,0:0:0:0:
374,253,20450,2,0,B|374:294|374:294|342:326,1,86.25,8|8,0:0|0:0,0:0:0:0:
235,326,21153,5,8,0:0:0:0:
164,326,21387,2,0,L|164:268,1,57.5,8|0,0:0|0:0,0:0:0:0:
164,199,21856,2,0,L|164:141,1,57.5,8|8,0:0|0:0,0:0:0:0:
164,72,22325,2,0,B|164:31|164:31|132:-1,1,86.25,8|10,0:0|0:0,0:0:0:0:
26,0,23028,2,0,L|26:62,1,57.5,8|8,0:0|0:0,0:0:0:0:
26,199,23731,1,8,0:0:0:0:
25,337,24200,6,0,P|75:361|125:337,1,115,4|4,2:0|2:3,0:0:0:0:
256,297,25137,1,8,0:3:0:0:
387,336,25606,2,0,P|437:360|488:337,1,115,8|8,0:0|0:0,0:0:0:0:
488,199,26543,5,8,0:0:0:0:
488,130,26777,1,0,0:0:0:0:
426,97,27012,1,8,0:0:0:0:
287,97,27481,1,0,0:0:0:0:
218,97,27715,1,8,0:0:0:0:
185,35,27950,6,0,B|185:0|185:0|101:0,1,115,8|8,0:0|0:0,0:0:0:0:
0,92,28887,1,0,0:0:0:0:
0,230,29356,1,8,0:0:0:0:
0,299,29590,1,0,0:0:0:0:
62,332,29825,2,0,B|142:332|142:332|142:367,1,115,8|8,0:0|0:0,0:0:0:0:
256,289,30762,5,8,0:0:0:0:
256,150,31231,1,8,0:0:0:0:
256,81,31465,1,8,0:0:0:0:
318,48,31700,6,0,B|398:48|398:48|398:13,1,115,12|12,0:0|2:3,0:0:0:0:
398,149,32637,1,8,0:3:0:0:
492,245,33106,1,8,0:0:0:0:
492,314,33340,1,0,0:0:0:0:
430,346,33575,2,0,B|350:346|350:346|350:381,1,115,8|8,0:0|0:0,0:0:0:0:
211,381,34512,5,8,0:0:0:0:
72,381,34981,1,0,0:0:0:0:
10,348,35215,1,8,0:0:0:0:
10,278,35450,6,0,B|26:223|26:223|81:192,1,115,8|8,0:0|0:0,0:0:0:0:
200,132,36387,2,0,B|250:102|250:102|266:48,1,115,8|8,0:0|0:0,0:0:0:0:
397,48,37325,1,8,0:0:0:0:
465,48,37559,1,2,0:0:0:0:
466,187,38028,1,2,0:0:0:0:
466,256,38262,1,8,0:0:0:0:
377,362,38731,1,8,0:0:0:0:
307,362,38965,1,2,0:0:0:0:
256,314,39200,6,0,B|176:314|176:314|176:279,1,115,8|8,0:0|0:0,0:0:0:0:
176,209,39903,1,8,0:0:0:0:
176,71,40371,1,0,0:0:0:0:
106,71,40606,2,0,B|26:71|26:71|26:36,1,115,8|8,0:0|0:0,0:0:0:0:
26,174,41543,1,8,0:0:0:0:
26,243,41778,2,0,B|26:323|26:323|61:323,1,115
268,323,42950,6,0,B|348:323|348:323|348:358,1,115,8|8,0:0|0:0,0:0:0:0:
486,358,43887,1,0,0:0:0:0:
486,219,44356,2,0,B|486:139|486:139|451:139,1,115,8|8,0:0|0:0,0:0:0:0:
312,139,45293,1,8,0:0:0:0:
312,71,45528,1,0,0:0:0:0:
256,32,45762,1,8,0:0:0:0:
117,32,46231,5,8,0:0:0:0:
61,71,46465,1,8,0:0:0:0:
61,139,46700,1,8,0:0:0:0:
61,279,47168,6,0,B|61:359|61:359|96:359,1,115,8|8,0:0|0:0,0:0:0:0:
165,359,47871,1,8,0:0:0:0:
234,359,48106,2,0,B|269:359|269:359|269:279,1,115,8|8,0:0|0:0,0:0:0:0:
269,147,49043,1,8,0:0:0:0:
269,80,49278,2,0,B|269:0|269:0|304:0,1,115
512,0,50450,6,0,B|512:80|512:80|477:80,1,115,8|8,0:0|0:0,0:0:0:0:
477,218,51387,2,0,B|512:218|512:218|512:298,1,115,0|8,0:0|0:0,0:0:0:0:
400,379,52325,1,8,0:0:0:0:
340,343,52559,1,8,0:0:0:0:
326,275,52793,1,4,2:0:0:0:
186,275,53262,5,4,2:0:0:0:
172,343,53496,1,0,0:0:0:0:
112,379,53730,1,4,2:0:0:0:
0,296,54200,6,0,B|19:257|19:257|0:219,1,86.25,4|8,2:0|0:0,0:0:0:0:
0,115,54903,1,8,0:0:0:0:
0,46,55137,2,0,L|40:6,1,57.5,8|0,0:0|0:0,0:0:0:0:
109,5,55606,2,0,L|165:5,1,57.5,8|0,0:0|0:0,0:0:0:0:
235,5,56075,2,0,B|276:5|276:5|276:71,1,86.25,8|8,0:0|0:0,0:0:0:0:
512,5,57246,5,8,0:0:0:0:
463,53,57481,1,8,0:0:0:0:
463,121,57715,1,8,0:0:0:0:
414,169,57950,2,0,B|343:169|343:169|343:226,1,115,8|8,0:0|0:0,0:0:0:0:
272,331,58887,2,0,B|272:375|272:375|201:375,1,115,8|8,0:0|0:0,0:0:0:0:
90,291,59825,2,0,B|90:247|90:247|19:247,1,115,8|8,0:0|0:0,0:0:0:0:
19,108,60762,5,8,0:0:0:0:
75,68,60996,1,0,0:0:0:0:
131,108,61231,1,8,0:0:0:0:
269,108,61700,6,0,B|282:148|282:148|322:161,1,86.25,4|8,2:0|0:0,0:0:0:0:
426,162,62403,1,8,0:0:0:0:
495,162,62637,2,0,L|495:92,1,57.5,8|0,0:0|0:0,0:0:0:0:
446,54,63106,2,0,L|381:54,1,57.5,8|0,0:0|0:0,0:0:0:0:
319,54,63575,2,0,B|278:40|278:40|265:0,1,86.25,8|8,0:0|0:0,0:0:0:0:
23,0,64746,5,0,0:0:0:0:
72,48,64981,1,8,0:0:0:0:
72,116,65215,1,0,0:0:0:0:
72,185,65450,2,0,B|72:256|72:256|14:256,1,115,8|8,0:0|0:0,0:0:0:0:
143,333,66387,2,0,B|214:333|214:333|214:390,1,115,8|8,0:0|0:0,0:0:0:0:
352,377,67325,5,8,0:0:0:0:
392,321,67559,1,8,0:0:0:0:
352,264,67793,1,8,0:0:0:0:
256,163,68262,5,8,0:0:0:0:
216,106,68496,1,8,0:0:0:0:
256,50,68730,1,8,0:0:0:0:
394,50,69200,6,0,B|431:30|431:30|468:50,1,86.25,4|8,2:0|0:0,0:0:0:0:
471,154,69903,1,8,0:0:0:0:
471,222,70137,2,0,L|471:292,1,57.5,8|0,0:0|0:0,0:0:0:0:
413,319,70606,2,0,L|413:389,1,57.5,8|0,0:0|0:0,0:0:0:0:
343,376,71075,2,0,B|300:362|300:362|287:322,1,86.25,8|8,0:0|0:0,0:0:0:0:
45,323,72246,5,0,0:0:0:0:
5,265,72481,1,8,0:0:0:0:
45,209,72715,1,8,0:0:0:0:
85,152,72950,2,0,B|85:81|85:81|142:81,1,115,8|8,0:0|0:0,0:0:0:0:
267,81,73887,2,0,B|311:81|311:81|311:10,1,115,8|8,0:0|0:0,0:0:0:0:
432,75,74825,2,0,B|476:75|476:75|476:146,1,115,8|8,0:0|0:0,0:0:0:0:
476,284,75762,5,8,0:0:0:0:
476,352,75996,1,8,0:0:0:0:
406,352,76231,1,8,0:0:0:0:
267,352,76700,6,0,B|224:338|224:338|211:298,1,86.25,4|8,2:0|0:0,0:0:0:0:
211,195,77403,1,8,0:0:0:0:
211,126,77637,2,0,L|211:56,1,57.5,8|0,0:0|0:0,0:0:0:0:
159,22,78106,2,0,L|89:22,1,57.5,8|0,0:0|0:0,0:0:0:0:
32,22,78575,2,0,B|12:62|12:62|31:99,1,86.25,8|8,0:0|0:0,0:0:0:0:
32,340,79746,6,0,B|32:384|32:384|103:384,1,115,0|8,0:0|0:0,0:0:0:0:
172,384,80450,1,8,0:0:0:0:
241,384,80684,1,0,0:0:0:0:
241,315,80918,1,8,0:0:0:0:
241,176,81387,5,8,0:0:0:0:
241,107,81621,1,0,0:0:0:0:
310,107,81855,1,8,0:0:0:0:
448,107,82325,2,0,L|508:107,2,57.5,8|8|8,0:0|0:0|0:0,0:0:0:0:
448,245,83262,2,0,L|448:305,2,57.5,0|8|8,0:0|0:0|0:0,0:0:0:0:
309,245,84200,5,8,0:0:0:0:
256,333,84551,1,4,0:0:0:0:
203,245,84903,1,8,0:0:0:0:
149,333,85254,1,4,0:0:0:0:
94,245,85606,2,0,L|24:245,2,57.5,8|8|4,0:0|0:0|2:0,0:0:0:0:
