osu file format v14

[General]
AudioFilename: audio.mp3
AudioLeadIn: 0
PreviewTime: 54198
Countdown: 0
SampleSet: Soft
StackLeniency: 0.3
Mode: 0
LetterboxInBreaks: 0
WidescreenStoryboard: 1

[Editor]
DistanceSpacing: 0.8
BeatDivisor: 4
GridSize: 16
TimelineZoom: 1

[Metadata]
Title:Ciki Ciki Bam Bam (TV Size)
TitleUnicode:チキチキバンバン (TV Size)
Artist:QUEENDOM
ArtistUnicode:QUEENDOM
Creator:P_O
Version:Insane
Source:パリピ孔明
Tags:Party People Koumei Ya Boy Kongming! Opening Jolly Bulikiraly chiki chitty bang Anime Japanese pop Jolly-Bulikirály
BeatmapID:3573099
BeatmapSetID:1737733

[Difficulty]
HPDrainRate:5
CircleSize:4
OverallDifficulty:7
ApproachRate:8
SliderMultiplier:1.8
SliderTickRate:1

[Events]
//Background and Video events
0,0,"paripi koumei bg.jpg",0,0
Video,-395,"paripi video.mp4"
//Break Periods
//Storyboard Layer 0 (Background)
//Storyboard Layer 1 (Fail)
//Storyboard Layer 2 (Pass)
//Storyboard Layer 3 (Foreground)
//Storyboard Layer 4 (Overlay)
//Storyboard Sound Samples

[TimingPoints]
1700,468.75,4,2,0,50,1,0
7325,-100,4,3,0,60,0,1
9200,-100,4,3,0,80,0,0
24200,-133.333333333333,4,3,0,60,0,0
52325,-133.333333333333,4,3,0,80,0,1
54200,-100,4,3,0,80,0,0
84200,-100,4,3,0,80,0,1
86075,-100,4,3,0,80,0,0

[Colours]
Combo1 : 55,200,192
Combo2 : 242,85,255

[HitObjects]
256,192,1700,5,2,0:0:0:0:
250,175,1817,1,0,0:0:0:0:
244,157,1934,1,2,0:0:0:0:
238,139,2051,1,0,0:0:0:0:
232,121,2168,2,0,B|218:78|218:78|149:78,1,90,6|2,0:0|0:0,0:0:0:0:
173,239,2637,5,2,0:0:0:0:
167,256,2754,1,2,0:0:0:0:
161,274,2871,1,2,0:0:0:0:
155,292,2988,1,2,0:0:0:0:
149,310,3105,2,0,B|135:353|135:353|66:353,1,90,2|2,0:0|0:0,0:0:0:0:
330,353,3575,5,10,0:0:0:0:
347,347,3692,1,8,0:0:0:0:
365,341,3809,1,0,0:0:0:0:
383,335,3926,1,8,0:0:0:0:
401,329,4043,2,0,B|444:315|444:315|444:246,1,90,10|2,0:0|0:0,0:0:0:0:
444,117,4512,5,10,0:0:0:0:
438,100,4629,1,8,0:0:0:0:
432,82,4746,1,0,0:0:0:0:
426,64,4863,1,8,0:0:0:0:
420,46,4980,2,0,B|406:3|406:3|337:3,1,90,10|2,0:0|0:0,0:0:0:0:
197,88,5450,5,2,0:0:0:0:
217,39,5567,1,2,0:0:0:0:
256,3,5684,1,8,0:0:0:0:
295,39,5801,1,8,0:0:0:0:
315,88,5918,1,12,0:0:0:0:
256,192,6153,1,0,0:0:0:0:
116,192,6387,5,2,0:0:0:0:
99,186,6504,1,2,0:0:0:0:
81,180,6621,1,2,0:0:0:0:
63,174,6738,1,2,0:0:0:0:
45,168,6855,2,0,B|2:154|2:154|2:85,1,90,2|0,0:0|0:0,0:0:0:0:
197,88,7325,5,4,3:0:0:0:
217,39,7442,1,8,3:0:0:0:
288,126,7676,1,4,3:0:0:0:
308,175,7793,1,8,3:0:0:0:
197,262,8028,1,4,3:0:0:0:
217,213,8145,1,8,3:0:0:0:
288,300,8379,1,4,3:0:0:0:
308,349,8496,1,8,3:0:0:0:
177,179,8731,5,8,3:0:0:0:
217,213,8848,1,8,3:0:0:0:
256,192,8965,1,8,3:0:0:0:
295,213,9082,1,8,3:0:0:0:
335,179,9200,6,0,B|335:138|335:138|298:97,1,90,4|0,2:0|0:0,0:0:0:0:
209,101,9551,2,0,B|177:138|177:138|177:179,1,90,8|0,0:0|0:0,0:0:0:0:
256,192,9903,1,8,0:0:0:0:
177,353,10137,2,0,L|78:353,1,90,8|0,0:0|0:0,0:0:0:0:
0,255,10606,2,0,L|0:156,1,90,8|0,0:0|0:0,0:0:0:0:
121,277,11075,6,0,L|274:277,1,135,4|8,3:0|0:0,0:0:0:0:
489,277,11778,1,8,0:0:0:0:
489,124,12012,2,0,L|489:25,1,90,8|0,0:0|0:0,0:0:0:0:
489,201,12481,1,8,0:0:0:0:
469,239,12598,1,8,0:0:0:0:
489,277,12715,1,8,0:0:0:0:
509,315,12833,1,8,0:0:0:0:
489,353,12950,6,0,B|418:353|418:353|418:323,1,90,8|0,0:0|0:0,0:0:0:0:
327,334,13301,2,0,B|327:353|327:353|256:353,1,90,8|0,0:0|0:0,0:0:0:0:
256,277,13653,1,8,0:0:0:0:
256,124,13887,2,0,L|256:25,1,90,8|0,0:0|0:0,0:0:0:0:
89,34,14356,2,0,L|179:34,1,90,8|0,0:0|0:0,0:0:0:0:
333,34,14825,5,8,0:0:0:0:
360,34,14942,1,4,0:0:0:0:
256,124,15176,1,4,0:0:0:0:
256,151,15293,1,8,0:0:0:0:
179,34,15528,1,8,0:0:0:0:
13,103,15762,5,8,0:0:0:0:
57,103,15879,1,0,0:0:0:0:
57,147,15996,1,8,0:0:0:0:
57,192,16114,1,0,0:0:0:0:
13,192,16231,2,0,L|13:282,1,90,8|0,0:0|0:0,0:0:0:0:
132,377,16700,6,0,B|190:359|206:320,1,90,4|0,2:0|0:0,0:0:0:0:
308,325,17051,2,0,B|322:359|380:377,1,90,8|0,0:0|0:0,0:0:0:0:
256,377,17403,1,8,0:0:0:0:
256,192,17637,2,0,L|256:102,1,90,8|0,0:0|0:0,0:0:0:0:
391,192,18106,2,0,L|481:192,1,90,8|0,0:0|0:0,0:0:0:0:
391,293,18575,6,0,L|252:293,1,135,8|8,0:0|0:0,0:0:0:0:
20,293,19278,1,8,0:0:0:0:
20,141,19512,2,0,L|20:51,1,90,8|0,0:0|0:0,0:0:0:0:
20,217,19981,1,8,0:0:0:0:
40,255,20098,1,8,0:0:0:0:
20,293,20215,1,8,0:0:0:0:
0,331,20333,1,8,0:0:0:0:
20,369,20450,6,0,B|91:369|91:369|91:339,1,90,8|0,0:0|0:0,0:0:0:0:
185,350,20801,2,0,B|256:350|256:350|256:380,1,90,8|0,0:0|0:0,0:0:0:0:
256,276,21153,1,8,0:0:0:0:
193,127,21387,2,0,P|163:83|157:37,1,90,8|0,0:0|0:0,0:0:0:0:
319,127,21856,2,0,P|349:83|355:37,1,90,8|8,0:0|0:0,0:0:0:0:
444,223,22325,5,8,0:0:0:0:
430,272,22442,1,10,0:0:0:0:
382,288,22559,1,8,0:0:0:0:
334,272,22676,1,10,0:0:0:0:
319,223,22793,1,8,0:0:0:0:
256,368,23028,1,8,0:0:0:0:
193,223,23262,5,8,0:0:0:0:
178,272,23379,1,10,0:0:0:0:
130,288,23496,1,8,0:0:0:0:
82,272,23613,1,10,0:0:0:0:
68,223,23730,1,8,0:0:0:0:
193,127,23965,1,8,0:0:0:0:
319,127,24200,5,4,2:0:0:0:
193,223,24434,1,8,0:3:0:0:
208,257,24551,1,0,0:3:0:0:
202,294,24668,1,4,2:3:0:0:
319,223,24903,1,8,0:3:0:0:
304,257,25020,1,0,0:3:0:0:
310,294,25137,1,8,0:3:0:0:
256,384,25371,5,0,0:0:0:0:
148,384,25606,2,0,L|65:384,1,67.5000025749208,8|0,0:0|0:0,0:0:0:0:
26,294,26075,2,0,P|1:233|26:172,1,135.000005149842,8|8,0:0|0:0,0:0:0:0:
26,41,26778,1,0,0:0:0:0:
141,1,27012,1,8,0:0:0:0:
256,41,27246,5,8,0:0:0:0:
256,1,27364,1,0,0:0:0:0:
296,1,27481,1,4,0:0:0:0:
336,1,27598,1,0,0:0:0:0:
336,41,27716,1,8,0:0:0:0:
486,41,27950,6,0,L|486:122,1,67.5000025749208,8|0,0:0|0:0,0:0:0:0:
486,230,28418,1,8,0:0:0:0:
506,230,28536,1,4,0:0:0:0:
371,230,28770,2,0,B|316:230|316:230|316:282,1,101.250003862381,8|0,0:0|0:0,0:0:0:0:
196,343,29356,2,0,L|196:262,1,67.5000025749208,8|0,0:0|0:0,0:0:0:0:
117,192,29825,2,0,L|36:192,1,67.5000025749208,8|0,0:0|0:0,0:0:0:0:
196,192,30293,2,0,B|256:162|256:162|316:192,1,135.000005149842,8|8,0:0|0:0,0:0:0:0:
363,64,30996,5,8,0:0:0:0:
336,29,31114,1,8,0:0:0:0:
292,33,31231,1,8,0:0:0:0:
256,7,31348,1,8,0:0:0:0:
220,33,31465,1,8,0:0:0:0:
176,29,31582,1,8,0:0:0:0:
149,64,31700,1,12,0:0:0:0:
256,103,31934,1,8,0:3:0:0:
256,289,32168,5,12,2:3:0:0:
363,176,32403,1,8,0:3:0:0:
348,210,32520,1,0,0:3:0:0:
313,222,32637,1,8,0:3:0:0:
199,222,32871,1,0,0:0:0:0:
164,210,32988,1,0,0:0:0:0:
149,176,33105,1,8,0:0:0:0:
256,103,33340,5,0,0:0:0:0:
256,289,33575,2,0,L|256:379,1,67.5000025749208,8|0,0:0|0:0,0:0:0:0:
374,356,34043,2,0,L|464:356,1,67.5000025749208,8|0,0:0|0:0,0:0:0:0:
256,356,34512,1,8,0:0:0:0:
138,356,34746,5,8,0:0:0:0:
100,356,34864,1,0,0:0:0:0:
67,337,34981,1,4,0:0:0:0:
47,304,35098,1,0,0:0:0:0:
46,265,35215,1,8,0:0:0:0:
46,112,35450,6,0,L|46:22,1,67.5000025749208,8|0,0:0|0:0,0:0:0:0:
151,112,35918,2,0,L|212:72,1,67.5000025749208,8|0,0:0|0:0,0:0:0:0:
304,74,36387,2,0,L|361:112,1,67.5000025749208,8|0,0:0|0:0,0:0:0:0:
466,44,36855,2,0,L|466:112,1,67.5000025749208,8|0,0:0|0:0,0:0:0:0:
339,192,37325,5,8,0:0:0:0:
364,226,37442,1,8,0:0:0:0:
364,268,37559,1,8,0:0:0:0:
339,304,37676,1,8,0:0:0:0:
304,276,37793,1,8,0:0:0:0:
207,276,38028,5,8,0:0:0:0:
172,304,38145,1,8,0:0:0:0:
148,268,38262,1,8,0:0:0:0:
148,226,38379,1,8,0:0:0:0:
172,192,38496,1,8,0:0:0:0:
304,276,38731,5,8,0:0:0:0:
283,232,38848,1,8,0:0:0:0:
256,192,38965,1,8,0:0:0:0:
228,232,39082,1,8,0:0:0:0:
207,276,39200,1,8,0:0:0:0:
308,121,39434,5,8,0:0:0:0:
298,85,39551,1,0,0:0:0:0:
308,49,39668,1,8,0:0:0:0:
204,121,39903,1,8,0:0:0:0:
214,85,40020,1,0,0:0:0:0:
204,49,40137,1,8,0:0:0:0:
256,192,40371,5,0,0:0:0:0:
377,192,40606,2,0,L|458:192,1,67.5000025749208,8|0,0:0|0:0,0:0:0:0:
512,291,41075,2,0,L|431:291,1,67.5000025749208,8|0,0:0|0:0,0:0:0:0:
377,192,41543,1,8,0:0:0:0:
377,82,41778,2,0,B|377:12|377:12|297:12,1,135.000005149842
200,12,42481,1,8,0:0:0:0:
256,117,42715,1,8,0:0:0:0:
256,154,42832,1,0,0:0:0:0:
256,192,42950,6,0,L|256:270,1,67.5000025749208,8|0,0:0|0:0,0:0:0:0:
158,192,43418,1,8,0:0:0:0:
137,192,43535,1,4,0:0:0:0:
137,314,43770,2,0,B|111:314|111:314|111:263|111:263|86:263,1,101.250003862381,8|0,0:0|0:0,0:0:0:0:
0,192,44356,2,0,L|0:109,1,67.5000025749208,8|0,0:0|0:0,0:0:0:0:
76,45,44825,5,8,0:0:0:0:
103,70,44942,1,8,0:0:0:0:
136,84,45059,1,8,0:0:0:0:
169,70,45176,1,8,0:0:0:0:
196,45,45293,1,8,0:0:0:0:
316,45,45528,5,0,0:0:0:0:
343,70,45645,1,0,0:0:0:0:
376,84,45762,1,8,0:0:0:0:
409,70,45879,1,8,0:0:0:0:
436,45,45996,1,8,0:0:0:0:
330,150,46231,5,8,0:0:0:0:
301,185,46348,1,0,0:0:0:0:
256,192,46465,1,8,0:0:0:0:
211,185,46582,1,0,0:0:0:0:
182,150,46699,1,8,0:0:0:0:
256,270,46934,1,0,0:0:0:0:
182,362,47168,2,0,L|103:362,1,67.5000025749208,8|0,0:0|0:0,0:0:0:0:
256,270,47637,1,8,0:0:0:0:
330,362,47871,5,8,0:0:0:0:
361,382,47989,1,0,0:0:0:0:
392,362,48106,1,8,0:0:0:0:
512,362,48340,1,0,0:0:0:0:
512,242,48575,6,0,L|512:163,1,67.5000025749208,8|0,0:0|0:0,0:0:0:0:
392,175,49043,1,8,0:0:0:0:
314,64,49278,2,0,P|255:34|196:62,1,135.000005149842
120,175,49981,1,8,0:0:0:0:
256,249,50215,1,8,0:0:0:0:
256,212,50333,1,0,0:0:0:0:
256,175,50450,1,8,0:0:0:0:
256,334,50684,5,0,0:0:0:0:
140,334,50918,1,8,0:0:0:0:
120,334,51035,1,4,0:0:0:0:
120,175,51270,2,0,B|120:222|120:222|44:222,1,101.250003862381,8|0,0:0|0:0,0:0:0:0:
120,98,51856,2,0,L|120:18,1,67.5000025749208,8|0,0:0|0:0,0:0:0:0:
191,175,52325,5,8,0:0:0:0:
202,242,52442,1,8,0:0:0:0:
256,282,52559,1,8,0:0:0:0:
310,242,52676,1,8,0:0:0:0:
321,175,52793,1,4,2:0:0:0:
66,222,53262,5,4,2:0:0:0:
446,222,53731,1,4,2:0:0:0:
256,96,54200,6,0,B|256:46|256:46|293:22,1,90,4|0,2:0|0:0,0:0:0:0:
186,24,54551,2,0,B|186:74|186:74|149:98,1,90,8|0,0:0|0:0,0:0:0:0:
71,96,54903,1,8,0:0:0:0:
71,227,55137,2,0,P|82:268|142:306,1,90,8|0,0:0|0:0,0:0:0:0:
258,375,55606,2,0,P|247:334|187:296,1,90,8|0,0:0|0:0,0:0:0:0:
361,303,56075,2,0,L|501:303,1,135,8|8,0:0|0:0,0:0:0:0:
297,165,56778,5,8,0:0:0:0:
256,192,56895,1,0,0:0:0:0:
215,165,57012,1,0,0:0:0:0:
151,303,57246,1,8,0:0:0:0:
361,303,57481,1,8,0:0:0:0:
256,384,57715,1,8,0:0:0:0:
96,236,57950,6,0,P|119:282|166:306,1,90,8|0,0:0|0:0,0:0:0:0:
361,302,58418,2,0,P|397:276|416:236,1,90,8|0,0:0|0:0,0:0:0:0:
309,132,58887,2,0,L|338:44,1,90,8|0,0:0|0:0,0:0:0:0:
203,132,59356,2,0,L|174:44,1,90,8|0,0:0|0:0,0:0:0:0:
334,205,59825,5,8,0:0:0:0:
178,205,60059,1,0,0:0:0:0:
256,295,60293,2,0,L|256:195,1,90,8|0,0:0|0:0,0:0:0:0:
270,376,60762,1,8,0:0:0:0:
242,376,60879,1,4,0:0:0:0:
178,205,61114,5,4,0:0:0:0:
203,132,61231,1,8,0:0:0:0:
256,75,61348,1,8,0:0:0:0:
309,132,61465,1,8,0:0:0:0:
334,205,61582,1,8,0:0:0:0:
256,205,61700,6,0,L|256:304,1,90,4|0,2:0|0:0,0:0:0:0:
178,205,62051,2,0,L|79:205,1,90,8|0,0:0|0:0,0:0:0:0:
6,205,62403,1,8,0:0:0:0:
131,87,62637,2,0,P|176:100|210:159,1,90,8|0,0:0|0:0,0:0:0:0:
381,87,63106,2,0,P|336:100|302:159,1,90,8|0,0:0|0:0,0:0:0:0:
196,29,63575,2,0,B|256:0|256:0|316:29,1,135,8|8,0:0|0:0,0:0:0:0:
256,290,64278,5,8,0:0:0:0:
256,241,64395,1,0,0:0:0:0:
256,192,64512,1,0,0:0:0:0:
256,375,64746,1,0,0:0:0:0:
405,375,64981,2,0,B|446:355|446:355|446:298,1,90,8|0,0:0|0:0,0:0:0:0:
446,163,65450,6,0,B|446:118|446:118|487:98,1,90,8|0,0:0|0:0,0:0:0:0:
342,68,65918,2,0,B|342:23|342:23|301:3,1,90,8|0,0:0|0:0,0:0:0:0:
170,68,66387,2,0,B|170:23|170:23|211:3,1,90,8|0,0:0|0:0,0:0:0:0:
25,98,66855,2,0,B|66:118|66:118|66:163,1,90,8|0,0:0|0:0,0:0:0:0:
103,320,67325,5,8,0:0:0:0:
137,259,67442,1,8,0:0:0:0:
201,237,67559,1,8,0:0:0:0:
215,304,67676,1,8,0:0:0:0:
181,364,67793,1,8,0:0:0:0:
331,364,68028,5,8,0:0:0:0:
297,304,68145,1,8,0:0:0:0:
311,237,68262,1,8,0:0:0:0:
376,259,68379,1,8,0:0:0:0:
410,319,68496,1,8,0:0:0:0:
311,237,68731,5,8,0:0:0:0:
297,304,68848,1,8,0:0:0:0:
256,362,68965,1,8,0:0:0:0:
215,304,69082,1,8,0:0:0:0:
201,237,69200,6,0,B|177:199|177:199|178:146,1,90,4|0,2:0|0:0,0:0:0:0:
334,153,69551,2,0,B|335:199|335:199|311:237,1,90,8|0,0:0|0:0,0:0:0:0:
256,141,69903,1,8,0:0:0:0:
177,32,70137,2,0,P|157:66|114:96,1,90,8|0,0:0|0:0,0:0:0:0:
335,32,70606,2,0,P|355:66|398:96,1,90,8|0,0:0|0:0,0:0:0:0:
256,57,71075,2,0,L|256:207,1,135,8|8,0:0|0:0,0:0:0:0:
220,384,71778,5,8,0:0:0:0:
256,350,71895,1,0,0:0:0:0:
292,384,72012,1,0,0:0:0:0:
444,288,72246,1,0,0:0:0:0:
336,192,72481,1,8,0:0:0:0:
256,267,72715,1,8,0:0:0:0:
176,192,72950,5,8,0:0:0:0:
68,288,73185,1,0,0:0:0:0:
96,117,73418,1,8,0:0:0:0:
176,192,73653,1,0,0:0:0:0:
256,74,73887,1,8,0:0:0:0:
336,192,74121,1,0,0:0:0:0:
416,117,74356,2,0,P|392:73|336:37,1,90,8|0,0:0|0:0,0:0:0:0:
150,47,74825,6,0,P|116:77|96:117,1,90,8|8,0:0|0:0,0:0:0:0:
256,74,75293,1,8,0:0:0:0:
256,192,75528,1,0,0:0:0:0:
256,356,75762,1,8,0:0:0:0:
256,384,75879,1,8,0:0:0:0:
176,192,76114,5,8,0:0:0:0:
188,114,76231,1,8,0:0:0:0:
256,74,76348,1,0,0:0:0:0:
324,114,76465,1,8,0:0:0:0:
336,192,76582,1,0,0:0:0:0:
256,192,76700,6,0,L|256:289,1,90,4|0,2:0|0:0,0:0:0:0:
336,192,77051,2,0,L|433:192,1,90,8|0,0:0|0:0,0:0:0:0:
504,192,77403,1,8,0:0:0:0:
504,43,77637,2,0,B|504:0|504:0|428:0,1,90,8|0,0:0|0:0,0:0:0:0:
310,43,78106,2,0,B|310:0|310:0|357:0,1,90,8|0,0:0|0:0,0:0:0:0:
297,130,78575,6,0,B|256:185|256:185|220:130,1,135,8|8,0:0|0:0,0:0:0:0:
297,324,79278,1,8,0:0:0:0:
256,352,79395,1,0,0:0:0:0:
215,324,79512,1,0,0:0:0:0:
35,324,79746,2,0,B|49:281|49:281|20:196|20:196|35:154,1,180,0|8,0:0|0:0,0:0:0:0:
150,37,80450,6,0,L|207:118,1,90,8|0,0:0|0:0,0:0:0:0:
362,37,80918,2,0,L|305:118,1,90,8|0,0:0|0:0,0:0:0:0:
310,241,81387,2,0,L|367:160,1,90,8|0,0:0|0:0,0:0:0:0:
202,241,81856,2,0,L|145:160,1,90,8|0,0:0|0:0,0:0:0:0:
151,349,82325,5,8,0:0:0:0:
214,379,82442,1,8,0:0:0:0:
256,322,82559,1,8,0:0:0:0:
298,379,82676,1,8,0:0:0:0:
361,349,82793,1,8,0:0:0:0:
361,167,83028,5,8,0:0:0:0:
329,95,83145,1,4,0:0:0:0:
183,95,83379,1,4,0:0:0:0:
151,167,83496,1,8,0:0:0:0:
214,379,83731,1,8,0:0:0:0:
256,322,83848,1,8,0:0:0:0:
298,379,83965,1,8,0:0:0:0:
151,221,84200,5,8,0:0:0:0:
151,167,84317,1,4,0:0:0:0:
256,65,84551,1,4,0:0:0:0:
256,119,84668,1,8,0:0:0:0:
361,221,84903,1,8,0:0:0:0:
361,167,85020,1,4,0:0:0:0:
256,268,85254,1,4,0:0:0:0:
256,322,85371,1,8,0:0:0:0:
151,167,85606,5,8,0:0:0:0:
183,95,85723,1,8,0:0:0:0:
256,65,85840,1,8,0:0:0:0:
329,95,85957,1,8,0:0:0:0:
361,167,86074,1,4,2:0:0:0:
