osu file format v14

[General]
AudioFilename: audio.mp3
AudioLeadIn: 0
PreviewTime: 54198
Countdown: 0
SampleSet: Drum
StackLeniency: 0.3
Mode: 0
LetterboxInBreaks: 0
WidescreenStoryboard: 1

[Editor]
DistanceSpacing: 1.45
BeatDivisor: 4
GridSize: 16
TimelineZoom: 1

[Metadata]
Title:Ciki Ciki Bam Bam (TV Size)
TitleUnicode:チキチキバンバン (TV Size)
Artist:QUEENDOM
ArtistUnicode:QUEENDOM
Creator:P_O
Version:Hard
Source:パリピ孔明
Tags:Party People Koumei Ya Boy Kongming! Opening Jolly Bulikiraly chiki chitty bang Anime Japanese pop Jolly-Bulikirály
BeatmapID:3573668
BeatmapSetID:1737733

[Difficulty]
HPDrainRate:4.5
CircleSize:3.5
OverallDifficulty:6
ApproachRate:7
SliderMultiplier:1.6
SliderTickRate:1

[Events]
//Background and Video events
0,0,"paripi koumei bg.jpg",0,0
Video,-395,"paripi video.mp4"
//Break Periods
//Storyboard Layer 0 (Background)
//Storyboard Layer 1 (Fail)
//Storyboard Layer 2 (Pass)
//Storyboard Layer 3 (Foreground)
//Storyboard Layer 4 (Overlay)
//Storyboard Sound Samples

[TimingPoints]
1700,468.75,4,2,0,50,1,0
1700,-133.333333333333,4,2,0,50,0,0
7325,-100,4,3,0,60,0,1
9200,-100,4,3,0,80,0,0
24200,-133.333333333333,4,3,0,60,0,0
52325,-133.333333333333,4,3,0,80,0,1
54200,-100,4,3,0,80,0,0
84200,-100,4,3,0,80,0,1
86075,-100,4,3,0,80,0,0

[Colours]
Combo1 : 55,200,192
Combo2 : 242,85,255

[HitObjects]
256,45,1700,6,0,L|256:117,1,60.0000022888184,2|2,0:0|0:0,0:0:0:0:
256,192,2168,1,6,0:0:0:0:
178,232,2403,1,2,0:0:0:0:
178,319,2637,2,0,L|118:319,1,60.0000022888184,2|2,0:0|0:0,0:0:0:0:
30,319,3106,1,2,0:0:0:0:
29,232,3340,1,2,0:0:0:0:
89,168,3575,6,0,L|89:108,1,60.0000022888184,10|0,0:0|0:0,0:0:0:0:
167,68,4043,1,10,0:0:0:0:
256,68,4278,1,2,0:0:0:0:
345,68,4512,2,0,L|345:1,1,60.0000022888184,10|0,0:0|0:0,0:0:0:0:
434,68,4981,2,0,L|434:135,1,60.0000022888184,10|2,0:0|0:0,0:0:0:0:
434,224,5450,6,0,L|434:261,4,30.0000011444092,2|2|8|8|12,0:0|0:0|0:0|0:0|0:0,0:0:0:0:
391,342,6153,1,0,0:0:0:0:
304,342,6387,2,0,L|239:342,1,60.0000022888184,2|2,0:0|0:0,0:0:0:0:
244,255,6856,2,0,L|179:255,1,60.0000022888184,2|0,0:0|0:0,0:0:0:0:
67,255,7325,5,4,3:0:0:0:
43,255,7442,1,8,3:0:0:0:
2,168,7676,2,0,L|2:119,1,40,8|4,3:0|3:0,3:0:0:0:
96,128,8028,1,4,3:0:0:0:
120,128,8145,1,8,3:0:0:0:
183,59,8379,2,0,L|232:59,1,40,8|4,3:0|3:0,3:0:0:0:
316,59,8731,5,8,3:0:0:0:
340,59,8848,1,8,3:0:0:0:
356,75,8965,1,8,3:0:0:0:
380,75,9082,1,8,3:0:0:0:
396,91,9200,6,0,B|466:91|466:91|502:140,1,120,4|8,2:0|0:0,0:0:0:0:
495,304,9903,1,8,0:0:0:0:
403,374,10137,2,0,L|317:374,1,80,8|0,0:0|0:0,0:0:0:0:
206,374,10606,2,0,L|145:313,1,80,8|0,0:0|0:0,0:0:0:0:
149,201,11075,6,0,B|149:131|149:131|100:95,1,120,4|8,3:0|0:0,0:0:0:0:
256,9,11778,1,8,0:0:0:0:
256,124,12012,2,0,L|256:219,1,80,8|0,0:0|0:0,0:0:0:0:
256,320,12481,1,8,0:0:0:0:
256,344,12598,1,8,0:0:0:0:
256,368,12715,1,8,0:0:0:0:
372,368,12950,6,0,B|442:368|442:368|478:319,1,120,8|8,0:0|0:0,0:0:0:0:
472,153,13653,1,8,0:0:0:0:
398,63,13887,2,0,L|301:63,1,80,8|0,0:0|0:0,0:0:0:0:
201,63,14356,2,0,L|132:-5,1,80,8|0,0:0|0:0,0:0:0:0:
28,6,14825,5,8,0:0:0:0:
4,6,14942,1,4,0:0:0:0:
4,121,15176,1,4,0:0:0:0:
4,145,15293,1,8,0:0:0:0:
110,192,15528,1,8,0:0:0:0:
110,307,15762,6,0,L|110:360,1,40,8|0,0:0|0:0,0:0:0:0:
184,347,15996,2,0,L|237:347,1,40,8|0,0:0|0:0,0:0:0:0:
298,347,16231,1,8,0:0:0:0:
413,347,16465,1,0,0:0:0:0:
356,248,16700,6,0,B|326:207|326:207|256:207,1,120,4|8,2:0|0:0,0:0:0:0:
82,208,17403,1,8,0:0:0:0:
82,92,17637,2,0,L|150:23,1,80,8|0,0:0|0:0,0:0:0:0:
256,35,18106,2,0,L|352:34,1,80,8|0,0:0|0:0,0:0:0:0:
452,33,18575,6,0,B|452:103|452:103|492:132,1,120,8|8,0:0|0:0,0:0:0:0:
492,306,19278,1,8,0:0:0:0:
380,306,19512,2,0,L|281:306,1,80,8|0,0:0|0:0,0:0:0:0:
300,189,19981,1,8,0:0:0:0:
278,179,20098,1,8,0:0:0:0:
256,169,20215,1,8,0:0:0:0:
234,179,20333,1,8,0:0:0:0:
212,189,20450,6,0,B|142:189|142:189|113:149,1,120,8|8,0:0|0:0,0:0:0:0:
112,322,21153,1,8,0:0:0:0:
0,322,21387,2,0,L|0:223,1,80,8|0,0:0|0:0,0:0:0:0:
0,126,21856,1,8,0:0:0:0:
0,102,21973,1,0,0:0:0:0:
0,78,22090,1,8,0:0:0:0:
86,0,22325,6,0,B|156:0|156:0|185:40,1,120,8|10,0:0|0:0,0:0:0:0:
256,199,23028,1,8,0:0:0:0:
371,200,23262,2,0,L|467:200,1,80,8|8,0:0|0:0,0:0:0:0:
371,115,23731,2,0,L|371:19,1,80,8|8,0:0|0:0,0:0:0:0:
256,35,24200,5,4,2:0:0:0:
186,86,24434,1,8,0:3:0:0:
186,172,24668,2,0,L|186:240,1,60.0000022888184,4|8,2:3|0:3,0:0:0:0:
256,284,25137,2,0,L|256:352,1,60.0000022888184,8|0,0:3|0:0,0:0:0:0:
171,345,25606,1,8,0:0:0:0:
86,344,25840,1,0,0:0:0:0:
0,344,26075,6,0,B|0:262|0:262|40:262,1,120.000004577637,8|8,0:0|0:0,0:0:0:0:
38,170,26778,2,0,L|38:97,1,60.0000022888184,0|8,0:0|0:0,0:0:0:0:
38,19,27246,1,8,0:0:0:0:
38,0,27364,1,0,0:0:0:0:
57,0,27481,1,4,0:0:0:0:
76,0,27598,1,0,0:0:0:0:
95,0,27715,1,8,0:0:0:0:
196,0,27950,6,0,L|269:0,1,60.0000022888184,8|0,0:0|0:0,0:0:0:0:
256,86,28418,1,8,0:0:0:0:
256,104,28535,1,4,0:0:0:0:
256,192,28770,2,0,B|256:240|256:240|312:240,1,90.0000034332277,8|0,0:0|0:0,0:0:0:0:
385,242,29356,1,8,0:0:0:0:
386,155,29590,1,0,0:0:0:0:
448,93,29825,6,0,B|480:93|480:93|510:124|510:124|510:168,1,120.000004577637,8|8,0:0|0:0,0:0:0:0:
510,256,30528,1,0,0:0:0:0:
510,342,30762,1,8,0:0:0:0:
433,384,30996,1,8,0:0:0:0:
415,384,31114,1,8,0:0:0:0:
397,384,31231,1,8,0:0:0:0:
310,384,31465,1,8,0:0:0:0:
298,371,31583,1,8,0:0:0:0:
285,358,31700,5,12,0:0:0:0:
198,358,31934,1,8,0:3:0:0:
111,358,32168,2,0,L|27:358,1,60.0000022888184,12|8,2:3|0:3,0:0:0:0:
0,288,32637,2,0,L|0:204,1,60.0000022888184,8|0,0:3|0:0,0:0:0:0:
50,157,33106,1,8,0:0:0:0:
0,86,33340,1,0,0:0:0:0:
50,15,33575,6,0,B|105:38|105:38|160:15,1,120.000004577637,8|8,0:0|0:0,0:0:0:0:
210,87,34278,1,0,0:0:0:0:
256,160,34512,1,8,0:0:0:0:
256,246,34746,2,0,L|256:306,1,60.0000022888184,8|0,0:0|0:0,0:0:0:0:
313,371,35215,1,8,0:0:0:0:
400,371,35450,6,0,L|460:371,1,60.0000022888184,8|0,0:0|0:0,0:0:0:0:
512,305,35918,2,0,L|512:226,1,60.0000022888184,8|0,0:0|0:0,0:0:0:0:
428,222,36387,2,0,L|427:162,1,60.0000022888184,8|0,0:0|0:0,0:0:0:0:
512,139,36856,2,0,L|512:79,1,60.0000022888184,8|0,0:0|0:0,0:0:0:0:
512,0,37325,5,8,0:0:0:0:
485,0,37442,1,8,0:0:0:0:
463,15,37559,1,8,0:0:0:0:
441,0,37676,1,8,0:0:0:0:
414,0,37793,1,8,0:0:0:0:
326,31,38028,5,8,0:0:0:0:
306,50,38145,1,8,0:0:0:0:
301,76,38262,1,8,0:0:0:0:
275,81,38379,1,8,0:0:0:0:
256,100,38496,1,8,0:0:0:0:
256,192,38731,6,0,L|256:231,3,30.0000011444092,8|8|8|8,0:0|0:0|0:0|0:0,0:0:0:0:
256,293,39200,6,0,L|256:367,1,60.0000022888184,8|8,0:0|0:0,0:0:0:0:
174,383,39668,1,8,0:0:0:0:
91,353,39903,1,8,0:0:0:0:
91,179,40371,2,0,L|91:95,1,60.0000022888184,0|8,0:0|0:0,0:0:0:0:
91,31,40840,1,0,0:0:0:0:
169,119,41075,6,0,L|253:119,1,60.0000022888184,8|0,0:0|0:0,0:0:0:0:
315,119,41543,1,8,0:0:0:0:
402,119,41778,2,0,B|473:119|473:119|509:162,1,120.000004577637
504,243,42481,1,8,0:0:0:0:
504,329,42715,1,8,0:0:0:0:
504,347,42832,1,0,0:0:0:0:
504,365,42950,5,8,0:0:0:0:
417,365,43184,1,0,0:0:0:0:
359,299,43418,1,8,0:0:0:0:
341,299,43535,1,4,0:0:0:0:
256,299,43770,2,0,B|232:313|207:299|207:299|207:250,1,90.0000034332277,8|0,0:0|0:0,0:0:0:0:
207,173,44356,2,0,L|207:111,1,60.0000022888184,8|0,0:0|0:0,0:0:0:0:
207,25,44825,5,8,0:0:0:0:
189,25,44942,1,8,0:0:0:0:
171,25,45059,1,8,0:0:0:0:
84,25,45293,2,0,B|2:25|2:25|2:75,1,120.000004577637,8|8,0:0|0:0,0:0:0:0:
2,150,45996,1,8,0:0:0:0:
2,237,46231,5,8,0:0:0:0:
2,255,46348,1,0,0:0:0:0:
2,273,46465,1,8,0:0:0:0:
14,285,46582,1,0,0:0:0:0:
27,298,46700,6,0,L|108:298,1,60.0000022888184,8|0,0:0|0:0,0:0:0:0:
148,358,47168,2,0,L|229:358,1,60.0000022888184,8|0,0:0|0:0,0:0:0:0:
256,192,47871,1,8,0:0:0:0:
256,174,47989,1,0,0:0:0:0:
256,156,48106,1,8,0:0:0:0:
256,69,48340,1,0,0:0:0:0:
343,69,48575,6,0,L|401:10,1,60.0000022888184,8|0,0:0|0:0,0:0:0:0:
472,26,49043,1,8,0:0:0:0:
472,113,49278,2,0,B|472:150|446:163|446:163|472:175|472:213,1,120.000004577637
472,301,49981,1,8,0:0:0:0:
410,361,50215,1,8,0:0:0:0:
392,361,50332,1,0,0:0:0:0:
374,361,50450,5,8,0:0:0:0:
312,301,50684,1,0,0:0:0:0:
225,301,50918,1,8,0:0:0:0:
207,301,51035,1,4,0:0:0:0:
119,301,51270,2,0,B|70:301|70:301|70:246,1,90.0000034332277,8|0,0:0|0:0,0:0:0:0:
70,172,51856,2,0,L|6:172,1,60.0000022888184,8|0,0:0|0:0,0:0:0:0:
10,84,52325,5,8,0:0:0:0:
10,57,52442,1,8,0:0:0:0:
29,38,52559,1,8,0:0:0:0:
48,19,52676,1,8,0:0:0:0:
75,14,52793,1,4,2:0:0:0:
256,14,53262,5,4,2:0:0:0:
165,170,53731,1,4,2:0:0:0:
347,170,54200,6,0,B|347:240|347:240|298:276,1,120,4|8,2:0|0:0,0:0:0:0:
481,269,54903,1,8,0:0:0:0:
481,153,55137,2,0,L|481:68,1,80,8|0,0:0|0:0,0:0:0:0:
392,0,55606,2,0,L|307:0,1,80,8|0,0:0|0:0,0:0:0:0:
298,116,56075,6,0,P|256:82|208:115,2,120,8|8|8,0:0|0:0|0:0,0:0:0:0:
256,224,57012,1,0,0:0:0:0:
256,339,57246,2,0,L|174:339,1,80,8|8,0:0|0:0,0:0:0:0:
59,339,57715,1,8,0:0:0:0:
59,222,57950,6,0,L|59:140,1,80,8|0,0:0|0:0,0:0:0:0:
116,9,58418,2,0,L|58:66,1,80,8|0,0:0|0:0,0:0:0:0:
275,9,58887,2,0,L|192:8,1,80,8|0,0:0|0:0,0:0:0:0:
354,9,59356,2,0,L|433:9,1,80,8|0,0:0|0:0,0:0:0:0:
508,98,59825,5,8,0:0:0:0:
508,213,60059,1,0,0:0:0:0:
392,213,60293,2,0,L|300:213,1,80,8|0,0:0|0:0,0:0:0:0:
195,213,60762,1,8,0:0:0:0:
171,213,60879,1,4,0:0:0:0:
54,213,61114,5,4,0:0:0:0:
23,232,61231,1,8,0:0:0:0:
23,268,61348,1,8,0:0:0:0:
23,304,61465,1,8,0:0:0:0:
54,323,61582,1,8,0:0:0:0:
90,323,61700,6,0,B|160:323|160:323|196:372,1,120,4|8,2:0|0:0,0:0:0:0:
364,363,62403,1,8,0:0:0:0:
456,292,62637,2,0,L|456:209,1,80,8|0,0:0|0:0,0:0:0:0:
364,132,63106,2,0,L|364:215,1,80,8|0,0:0|0:0,0:0:0:0:
282,132,63575,6,0,B|255:78|255:78|228:132,2,120,8|8|8,0:0|0:0|0:0,0:0:0:0:
256,245,64512,5,0,0:0:0:0:
366,309,64746,1,0,0:0:0:0:
256,373,64981,1,8,0:0:0:0:
146,309,65215,1,0,0:0:0:0:
30,310,65450,6,0,L|30:226,1,80,8|0,0:0|0:0,0:0:0:0:
177,192,65918,2,0,L|93:192,1,80,8|0,0:0|0:0,0:0:0:0:
30,74,66387,2,0,L|30:158,1,80,8|0,0:0|0:0,0:0:0:0:
97,36,66856,2,0,L|177:36,1,80,8|0,0:0|0:0,0:0:0:0:
177,192,67325,5,8,0:0:0:0:
148,213,67442,1,8,0:0:0:0:
148,249,67559,1,8,0:0:0:0:
166,281,67676,1,8,0:0:0:0:
202,286,67793,1,8,0:0:0:0:
310,286,68028,5,8,0:0:0:0:
346,281,68145,1,8,0:0:0:0:
364,249,68262,1,8,0:0:0:0:
364,213,68379,1,8,0:0:0:0:
335,192,68496,1,8,0:0:0:0:
256,107,68731,6,0,L|256:147,3,40,8|8|8|8,0:0|0:0|0:0|0:0,0:0:0:0:
256,32,69200,6,0,B|270:3|270:3|326:3|326:3|338:32,1,120,4|8,2:0|0:0,0:0:0:0:
511,31,69903,1,8,0:0:0:0:
512,147,70137,2,0,L|455:203,1,80,8|0,0:0|0:0,0:0:0:0:
339,203,70606,2,0,L|339:283,1,80,8|0,0:0|0:0,0:0:0:0:
282,382,71075,6,0,B|255:328|255:328|228:382,2,120,8|8|8,0:0|0:0|0:0,0:0:0:0:
150,382,72012,1,0,0:0:0:0:
34,382,72246,2,0,L|34:295,1,80,0|8,0:0|0:0,0:0:0:0:
34,185,72715,1,8,0:0:0:0:
150,185,72950,6,0,L|211:123,1,80,8|0,0:0|0:0,0:0:0:0:
305,128,73418,2,0,L|362:185,1,80,8|0,0:0|0:0,0:0:0:0:
305,286,73887,2,0,L|361:342,1,80,8|0,0:0|0:0,0:0:0:0:
207,286,74356,2,0,L|150:342,1,80,8|0,0:0|0:0,0:0:0:0:
305,286,74825,5,8,0:0:0:0:
256,192,75059,1,8,0:0:0:0:
207,98,75293,1,8,0:0:0:0:
305,98,75528,1,0,0:0:0:0:
256,4,75762,5,8,0:0:0:0:
280,4,75879,1,8,0:0:0:0:
387,4,76114,1,8,0:0:0:0:
411,4,76231,2,8,L|462:3,1,40
510,55,76465,2,8,L|510:112,1,40
510,172,76700,6,0,B|510:242|510:242|461:278,1,120,4|8,2:0|0:0,0:0:0:0:
318,272,77403,1,8,0:0:0:0:
256,192,77637,2,0,L|256:107,1,80,8|0,0:0|0:0,0:0:0:0:
193,269,78106,2,0,L|108:269,1,80,8|0,0:0|0:0,0:0:0:0:
0,270,78575,6,0,P|25:218|0:167,2,120,8|8|8,0:0|0:0|0:0,0:0:0:0:
0,384,79512,1,0,0:0:0:0:
115,384,79746,2,0,B|115:340|115:340|187:340|187:340|187:384,1,160,0|8,0:0|0:0,0:0:0:0:
305,384,80450,6,0,L|390:384,1,80,8|0,0:0|0:0,0:0:0:0:
256,290,80918,2,0,L|256:204,1,80,8|0,0:0|0:0,0:0:0:0:
256,93,81387,1,8,0:0:0:0:
178,168,81621,1,0,0:0:0:0:
256,12,81856,1,8,0:0:0:0:
334,168,82090,1,0,0:0:0:0:
319,41,82325,5,8,0:0:0:0:
291,19,82442,1,8,0:0:0:0:
256,12,82559,1,8,0:0:0:0:
221,19,82676,1,8,0:0:0:0:
193,41,82793,1,8,0:0:0:0:
177,167,83028,2,0,L|152:137,1,40,8|4,0:0|0:0,0:0:0:0:
334,167,83379,2,0,L|360:137,1,40,4|8,0:0|0:0,0:0:0:0:
256,192,83731,6,0,L|256:147,2,40,8|8|8,0:0|0:0|0:0,0:0:0:0:
358,360,84200,5,8,0:0:0:0:
383,334,84317,1,4,0:0:0:0:
345,205,84551,2,0,L|332:159,1,40,4|8,0:0|0:0,0:0:0:0:
167,205,84903,2,0,L|180:159,1,40,8|4,0:0|0:0,0:0:0:0:
129,334,85254,1,4,0:0:0:0:
154,360,85371,1,8,0:0:0:0:
256,344,85606,6,0,L|256:384,4,40,8|8|8|8|4,0:0|0:0|0:0|0:0|2:0,0:0:0:0:
