osu file format v14

[General]
AudioFilename: audio.mp3
AudioLeadIn: 0
PreviewTime: 9608
Countdown: 0
SampleSet: Normal
StackLeniency: 0.3
Mode: 1
LetterboxInBreaks: 0
WidescreenStoryboard: 1

[Editor]
Bookmarks: 9638,17138,24638,32138,39638,47138,54638,62138,69638,77138,84638
DistanceSpacing: 1.9
BeatDivisor: 4
GridSize: 32
TimelineZoom: 1.4

[Metadata]
Title:Ciki Ciki Bam Bam (TV Size)
TitleUnicode:チキチキバンバン (TV Size)
Artist:QUEENDOM
ArtistUnicode:QUEENDOM
Creator:Blackener
Version:Spectacular Stratagem
Source:パリピ孔明
Tags:Tyistiana Bulikiraly エルオーエル 金谷鞠杏 Maria Kaneya lol hibiki moca FAKY Akina Taki GENIC cikicikibambam chikichikibanban chittychittybangbang (tv ver.) Jolly Bulikirály paripi koumei party people ya boy kongming! opening1 op1 disco retro 80s japanese anime jpop j-pop pop
BeatmapID:3555434
BeatmapSetID:1739579

[Difficulty]
HPDrainRate:5.5
CircleSize:4.5
OverallDifficulty:5.5
ApproachRate:8
SliderMultiplier:1.4
SliderTickRate:1

[Events]
//Background and Video events
0,0,"InnerOni.jpg",0,0
Video,-5,"video.mp4"
//Break Periods
//Storyboard Layer 0 (Background)
//Storyboard Layer 1 (Fail)
//Storyboard Layer 2 (Pass)
//Storyboard Layer 3 (Foreground)
//Storyboard Layer 4 (Overlay)
//Storyboard Sound Samples

[TimingPoints]
2138,468.75,4,1,0,60,1,0
5858,-99.3788819875776,4,1,0,65,0,0
5975,-98.7654320987654,4,1,0,65,0,0
6092,-98.159509202454,4,1,0,65,0,0
6209,-97.5609756097561,4,1,0,65,0,0
6326,-96.969696969697,4,1,0,65,0,0
6443,-96.3855421686747,4,1,0,65,0,0
6561,-95.8083832335329,4,1,0,65,0,0
6678,-95.2380952380952,4,1,0,65,0,0
6795,-94.6745562130177,4,1,0,65,0,0
6912,-94.1176470588235,4,1,0,65,0,0
7029,-93.5672514619883,4,1,0,65,0,0
7147,-93.0232558139535,4,1,0,65,0,0
7264,-92.485549132948,4,1,0,65,0,0
7381,-91.9540229885057,4,1,0,65,0,0
7498,-91.4285714285714,4,1,0,65,0,0
7615,-90.9090909090909,4,1,0,65,0,0
7733,-67.7966101694915,4,1,0,70,0,0
7850,-68.9655172413793,4,1,0,70,0,0
7967,-70.1754385964912,4,1,0,70,0,0
8084,-71.4285714285714,4,1,0,70,0,0
8201,-72.7272727272727,4,1,0,70,0,0
8318,-74.0740740740741,4,1,0,70,0,0
8436,-75.4716981132076,4,1,0,70,0,0
8553,-76.9230769230769,4,1,0,70,0,0
8670,-78.4313725490196,4,1,0,70,0,0
8787,-80,4,1,0,70,0,0
8904,-81.6326530612245,4,1,0,70,0,0
9022,-83.3333333333333,4,1,0,70,0,0
9139,-85.1063829787234,4,1,0,70,0,0
9256,-86.9565217391304,4,1,0,70,0,0
9373,-88.8888888888889,4,1,0,70,0,0
9490,-90.9090909090909,4,1,0,70,0,0
9608,-66.6666666666667,4,1,0,80,0,0
9638,-66.6666666666667,4,1,0,80,0,1
9960,-90.9090909090909,4,1,0,80,0,1
23671,-91.4634146341463,4,1,0,80,0,1
23905,-92.5925925925926,4,1,0,80,0,1
24022,-93.167701863354,4,1,0,80,0,1
24139,-93.75,4,1,0,80,0,1
24374,-94.9367088607595,4,1,0,80,0,1
24608,-96.1538461538461,4,1,0,70,0,1
24638,-96.1538461538461,4,1,0,70,0,0
25077,-62.5,4,1,0,70,0,0
25136,-100,4,1,0,70,0,0
32577,-62.5,4,1,0,70,0,0
32636,-100,4,1,0,70,0,0
37733,-80,4,1,0,70,0,0
37850,-81.6326530612245,4,1,0,70,0,0
37967,-83.3333333333333,4,1,0,70,0,0
38084,-85.1063829787234,4,1,0,70,0,0
38201,-86.9565217391304,4,1,0,70,0,0
38436,-78.4313725490196,4,1,0,70,0,0
38553,-80,4,1,0,70,0,0
38670,-81.6326530612245,4,1,0,70,0,0
38787,-83.3333333333333,4,1,0,70,0,0
38904,-85.1063829787234,4,1,0,70,0,0
39021,-86.9565217391304,4,1,0,70,0,0
39139,-88.8888888888889,4,1,0,70,0,0
39256,-90.9090909090909,4,1,0,70,0,0
39373,-93.0232558139535,4,1,0,70,0,0
39490,-95.2380952380952,4,1,0,70,0,0
39608,-66.6666666666667,4,1,0,70,0,0
39843,-95.2380952380952,4,1,0,70,0,0
52733,-80.9968847352025,4,1,0,65,0,0
52850,-82.0189274447949,4,1,0,65,0,0
52967,-83.0670926517572,4,1,0,65,0,0
53084,-84.1423948220065,4,1,0,65,0,0
53201,-85.2459016393443,4,1,0,60,0,0
53670,-89.9653979238754,4,1,0,60,0,0
54139,-95.2380952380952,4,1,0,60,0,0
54608,-95.2380952380952,4,1,0,80,0,0
54638,-62.5,4,1,0,80,0,1
54960,-86.9565217391304,4,1,0,80,0,1
67733,-69.7435897435897,4,1,0,80,0,1
67850,-70.5394190871369,4,1,0,80,0,1
67967,-71.3536201469045,4,1,0,80,0,1
68084,-72.1868365180467,4,1,0,80,0,1
68201,-73.0397422126745,4,1,0,80,0,1
68318,-73.9130434782609,4,1,0,80,0,1
68436,-74.8074807480748,4,1,0,80,0,1
68553,-75.7238307349666,4,1,0,80,0,1
68670,-76.662908680947,4,1,0,80,0,1
68787,-77.6255707762557,4,1,0,80,0,1
68904,-78.6127167630058,4,1,0,80,0,1
69022,-79.6252927400468,4,1,0,80,0,1
69139,-80.6642941874259,4,1,0,80,0,1
69169,-80.6642941874259,4,1,0,80,0,0
69256,-81.7307692307692,4,1,0,80,0,0
69373,-82.8258221680877,4,1,0,80,0,0
69490,-83.9506172839506,4,1,0,80,0,0
69608,-85.1063829787234,4,1,0,80,0,0
69638,-85.1063829787234,4,1,0,80,0,1
84638,-66.6666666666667,4,1,0,80,0,0
86483,-66.6666666666667,4,1,0,100,0,0
86513,-50,4,1,0,100,0,1
86981,-50,4,1,0,100,0,0

[Colours]
Combo1 : 55,200,192
Combo2 : 242,85,255

[HitObjects]
256,192,2138,5,0,0:0:0:0:
256,192,2372,1,0,0:0:0:0:
256,192,2489,1,0,0:0:0:0:
256,192,2606,1,8,0:0:0:0:
256,192,2841,1,8,0:0:0:0:
256,192,2958,1,8,0:0:0:0:
256,176,3075,1,0,0:0:0:0:
256,192,3192,1,8,0:0:0:0:
256,176,3427,1,0,0:0:0:0:
256,192,3544,1,8,0:0:0:0:
256,192,3778,1,8,0:0:0:0:
256,192,3895,1,0,0:0:0:0:
256,176,4013,1,0,0:0:0:0:
256,176,4130,1,8,0:0:0:0:
256,176,4364,1,0,0:0:0:0:
256,176,4481,1,8,0:0:0:0:
256,192,4716,1,8,0:0:0:0:
256,192,4833,1,8,0:0:0:0:
256,176,4950,1,0,0:0:0:0:
256,176,5067,1,8,0:0:0:0:
256,176,5302,1,0,0:0:0:0:
272,192,5419,1,8,0:0:0:0:
272,192,5653,1,8,0:0:0:0:
272,192,5770,1,8,0:0:0:0:
256,176,5888,5,0,0:0:0:0:
272,192,6005,1,8,0:0:0:0:
256,192,6122,1,0,0:0:0:0:
256,192,6239,1,0,0:0:0:0:
256,192,6356,1,8,0:0:0:0:
256,192,6473,1,0,0:0:0:0:
256,192,6591,1,8,0:0:0:0:
256,192,6708,1,8,0:0:0:0:
256,192,6825,1,0,0:0:0:0:
256,192,6942,1,8,0:0:0:0:
256,192,7059,1,0,0:0:0:0:
256,192,7177,1,0,0:0:0:0:
256,192,7294,1,8,0:0:0:0:
256,192,7411,1,0,0:0:0:0:
256,192,7528,1,0,0:0:0:0:
256,192,7645,1,0,0:0:0:0:
256,192,7763,5,8,0:0:0:0:
272,192,7880,1,8,0:0:0:0:
272,192,8114,1,8,0:0:0:0:
272,192,8231,1,8,0:0:0:0:
272,192,8466,1,8,0:0:0:0:
272,192,8583,1,8,0:0:0:0:
272,192,8817,1,8,0:0:0:0:
272,192,8934,1,0,0:0:0:0:
272,192,9169,1,8,0:0:0:0:
272,192,9286,1,8,0:0:0:0:
272,192,9403,1,8,0:0:0:0:
272,192,9520,1,8,0:0:0:0:
256,192,9638,5,4,0:0:0:0:
256,192,9989,1,0,0:0:0:0:
256,192,10106,1,8,0:0:0:0:
256,192,10341,1,0,0:0:0:0:
256,192,10575,1,8,0:0:0:0:
256,192,10692,1,0,0:0:0:0:
256,192,10809,1,8,0:0:0:0:
256,192,10927,1,8,0:0:0:0:
256,192,11044,1,0,0:0:0:0:
256,192,11278,1,8,0:0:0:0:
256,192,11513,1,0,0:0:0:0:
256,192,11630,1,0,0:0:0:0:
256,192,11864,1,0,0:0:0:0:
256,192,11981,1,8,0:0:0:0:
256,192,12216,1,0,0:0:0:0:
256,192,12450,1,8,0:0:0:0:
256,192,12567,1,0,0:0:0:0:
256,192,12684,1,0,0:0:0:0:
256,192,12802,1,0,0:0:0:0:
256,192,12919,1,8,0:0:0:0:
256,192,13036,1,8,0:0:0:0:
256,192,13153,1,0,0:0:0:0:
256,192,13270,1,0,0:0:0:0:
256,192,13388,1,0,0:0:0:0:
256,192,13739,1,0,0:0:0:0:
256,192,13856,1,8,0:0:0:0:
256,192,14091,1,8,0:0:0:0:
256,192,14325,1,0,0:0:0:0:
256,192,14442,1,0,0:0:0:0:
256,192,14559,1,8,0:0:0:0:
256,192,14677,1,8,0:0:0:0:
256,192,14794,1,0,0:0:0:0:
256,192,15028,1,0,0:0:0:0:
256,192,15145,1,0,0:0:0:0:
256,192,15263,1,8,0:0:0:0:
256,192,15380,1,0,0:0:0:0:
256,192,15614,1,0,0:0:0:0:
256,192,15731,1,8,0:0:0:0:
256,192,15966,1,0,0:0:0:0:
256,192,16083,1,0,0:0:0:0:
256,192,16200,1,8,0:0:0:0:
256,192,16317,1,0,0:0:0:0:
256,192,16434,1,8,0:0:0:0:
256,192,16552,1,0,0:0:0:0:
256,192,16669,1,8,0:0:0:0:
256,192,16903,1,8,0:0:0:0:
256,192,17138,1,4,0:0:0:0:
256,192,17489,1,0,0:0:0:0:
256,192,17606,1,8,0:0:0:0:
256,192,17841,1,0,0:0:0:0:
256,192,18075,1,8,0:0:0:0:
256,192,18192,1,0,0:0:0:0:
256,192,18309,1,8,0:0:0:0:
256,192,18427,1,8,0:0:0:0:
256,192,18544,1,0,0:0:0:0:
256,192,18778,1,8,0:0:0:0:
256,192,19013,1,0,0:0:0:0:
256,192,19130,1,0,0:0:0:0:
256,192,19364,1,0,0:0:0:0:
256,192,19481,1,8,0:0:0:0:
256,192,19716,1,0,0:0:0:0:
256,192,19950,1,8,0:0:0:0:
256,192,20067,1,8,0:0:0:0:
256,192,20184,1,0,0:0:0:0:
256,192,20302,1,0,0:0:0:0:
256,192,20419,1,8,0:0:0:0:
256,192,20536,1,8,0:0:0:0:
256,192,20653,1,0,0:0:0:0:
256,192,20770,1,0,0:0:0:0:
256,192,20888,1,0,0:0:0:0:
256,192,21239,1,0,0:0:0:0:
256,192,21356,1,8,0:0:0:0:
256,192,21591,1,8,0:0:0:0:
256,192,21825,1,0,0:0:0:0:
256,192,21942,1,0,0:0:0:0:
256,192,22059,1,0,0:0:0:0:
256,192,22294,1,8,0:0:0:0:
256,192,22411,1,0,0:0:0:0:
256,192,22528,1,8,0:0:0:0:
256,192,22763,1,0,0:0:0:0:
256,192,22880,1,0,0:0:0:0:
256,192,22997,1,8,0:0:0:0:
256,192,23114,1,0,0:0:0:0:
256,192,23231,1,8,0:0:0:0:
256,192,23348,1,8,0:0:0:0:
256,192,23466,1,0,0:0:0:0:
256,192,23700,1,8,0:0:0:0:
256,192,23934,1,0,0:0:0:0:
256,192,24052,1,0,0:0:0:0:
256,192,24169,1,8,0:0:0:0:
256,192,24403,1,8,0:0:0:0:
256,192,24638,1,0,0:0:0:0:
256,192,25106,1,12,0:0:0:0:
256,192,25341,1,0,0:0:0:0:
256,192,25458,1,0,0:0:0:0:
256,192,25575,1,0,0:0:0:0:
256,192,25809,1,0,0:0:0:0:
256,192,25927,1,0,0:0:0:0:
256,192,26044,1,8,0:0:0:0:
256,192,26278,1,8,0:0:0:0:
256,192,26513,1,0,0:0:0:0:
256,192,26630,1,0,0:0:0:0:
256,192,26864,1,0,0:0:0:0:
256,192,26981,1,8,0:0:0:0:
256,192,27216,1,8,0:0:0:0:
256,192,27333,1,8,0:0:0:0:
256,192,27450,1,0,0:0:0:0:
256,192,27684,1,0,0:0:0:0:
256,192,27802,1,0,0:0:0:0:
256,192,27919,1,8,0:0:0:0:
256,192,28036,1,0,0:0:0:0:
256,192,28153,1,8,0:0:0:0:
256,192,28270,1,8,0:0:0:0:
256,192,28388,1,0,0:0:0:0:
256,192,28622,1,0,0:0:0:0:
256,192,28856,1,8,0:0:0:0:
256,192,28973,1,8,0:0:0:0:
256,192,29091,1,0,0:0:0:0:
256,192,29208,1,8,0:0:0:0:
256,192,29442,1,8,0:0:0:0:
256,192,29559,1,0,0:0:0:0:
256,192,29794,1,8,0:0:0:0:
256,192,30028,1,8,0:0:0:0:
256,192,30145,1,8,0:0:0:0:
256,192,30263,1,0,0:0:0:0:
256,192,30497,1,0,0:0:0:0:
256,192,30614,1,0,0:0:0:0:
256,192,30731,1,8,0:0:0:0:
256,192,30966,1,0,0:0:0:0:
256,192,31083,1,8,0:0:0:0:
256,192,31317,1,8,0:0:0:0:
256,192,31434,1,0,0:0:0:0:
256,192,31669,1,8,0:0:0:0:
256,192,31786,1,0,0:0:0:0:
256,192,31903,1,8,0:0:0:0:
256,192,32020,1,8,0:0:0:0:
256,192,32138,1,0,0:0:0:0:
256,192,32606,1,12,0:0:0:0:
256,192,32841,1,0,0:0:0:0:
256,192,32958,1,0,0:0:0:0:
256,192,33075,1,0,0:0:0:0:
256,192,33309,1,0,0:0:0:0:
256,192,33427,1,0,0:0:0:0:
256,192,33544,1,8,0:0:0:0:
256,192,33778,1,8,0:0:0:0:
256,192,34013,1,0,0:0:0:0:
256,192,34130,1,0,0:0:0:0:
256,192,34364,1,0,0:0:0:0:
256,192,34481,1,8,0:0:0:0:
256,192,34716,1,8,0:0:0:0:
256,192,34833,1,8,0:0:0:0:
256,192,34950,1,0,0:0:0:0:
256,192,35067,1,8,0:0:0:0:
256,192,35184,1,0,0:0:0:0:
256,192,35302,1,0,0:0:0:0:
256,192,35419,1,8,0:0:0:0:
256,192,35653,1,8,0:0:0:0:
256,192,35888,1,0,0:0:0:0:
256,192,36005,1,0,0:0:0:0:
256,192,36122,1,8,0:0:0:0:
256,192,36239,1,8,0:0:0:0:
240,192,36356,1,0,0:0:0:0:
256,192,36591,1,8,0:0:0:0:
256,192,36825,1,0,0:0:0:0:
256,192,36942,1,0,0:0:0:0:
256,192,37059,1,8,0:0:0:0:
256,192,37177,1,0,0:0:0:0:
256,192,37294,1,8,0:0:0:0:
256,192,37528,1,0,0:0:0:0:
256,192,37763,1,8,0:0:0:0:
256,192,37880,1,8,0:0:0:0:
256,192,37997,1,0,0:0:0:0:
256,192,38114,1,0,0:0:0:0:
256,192,38231,1,0,0:0:0:0:
256,192,38466,1,8,0:0:0:0:
256,192,38583,1,8,0:0:0:0:
256,192,38700,1,0,0:0:0:0:
256,192,38817,1,8,0:0:0:0:
256,192,38934,1,0,0:0:0:0:
256,192,39052,1,0,0:0:0:0:
256,192,39169,1,8,0:0:0:0:
256,192,39286,1,0,0:0:0:0:
256,192,39403,1,8,0:0:0:0:
256,192,39520,1,8,0:0:0:0:
256,192,39638,1,4,0:0:0:0:
256,192,39872,1,0,0:0:0:0:
256,192,39989,1,0,0:0:0:0:
256,192,40106,1,8,0:0:0:0:
256,192,40341,1,8,0:0:0:0:
256,192,40575,1,0,0:0:0:0:
256,192,40809,1,8,0:0:0:0:
256,192,40927,1,8,0:0:0:0:
256,192,41044,1,0,0:0:0:0:
256,192,41278,1,8,0:0:0:0:
256,192,41513,1,0,0:0:0:0:
256,192,41630,1,0,0:0:0:0:
256,192,41747,1,8,0:0:0:0:
256,192,41864,1,8,0:0:0:0:
256,192,41981,1,0,0:0:0:0:
256,192,42216,1,8,0:0:0:0:
256,192,42450,1,0,0:0:0:0:
256,192,42567,1,0,0:0:0:0:
256,192,42684,1,0,0:0:0:0:
256,192,42802,1,0,0:0:0:0:
256,192,42919,1,8,0:0:0:0:
256,192,43153,1,0,0:0:0:0:
256,192,43388,1,0,0:0:0:0:
256,192,43622,1,8,0:0:0:0:
256,192,43739,1,0,0:0:0:0:
256,192,43856,1,8,0:0:0:0:
256,192,43973,1,8,0:0:0:0:
256,192,44208,1,0,0:0:0:0:
256,192,44442,1,8,0:0:0:0:
256,192,44559,1,0,0:0:0:0:
256,192,44794,1,8,0:0:0:0:
256,192,45028,1,8,0:0:0:0:
256,192,45145,1,8,0:0:0:0:
256,192,45263,1,0,0:0:0:0:
256,192,45497,1,0,0:0:0:0:
256,192,45614,1,0,0:0:0:0:
256,192,45731,1,8,0:0:0:0:
256,192,45966,1,0,0:0:0:0:
256,192,46200,1,8,0:0:0:0:
256,192,46434,1,0,0:0:0:0:
256,192,46552,1,0,0:0:0:0:
256,192,46669,1,8,0:0:0:0:
256,192,46786,1,8,0:0:0:0:
256,192,46903,1,8,0:0:0:0:
256,192,47020,1,8,0:0:0:0:
240,192,47138,1,0,0:0:0:0:
256,192,47372,1,0,0:0:0:0:
256,192,47489,1,0,0:0:0:0:
256,192,47606,1,8,0:0:0:0:
256,192,47841,1,8,0:0:0:0:
256,192,48075,1,0,0:0:0:0:
256,192,48309,1,8,0:0:0:0:
256,192,48427,1,0,0:0:0:0:
256,192,48544,1,8,0:0:0:0:
256,192,48778,1,8,0:0:0:0:
256,192,49013,1,0,0:0:0:0:
256,192,49130,1,0,0:0:0:0:
256,192,49247,1,8,0:0:0:0:
256,192,49364,1,8,0:0:0:0:
256,192,49481,1,0,0:0:0:0:
256,192,49716,1,8,0:0:0:0:
256,192,49950,1,0,0:0:0:0:
256,192,50067,1,8,0:0:0:0:
256,192,50184,1,0,0:0:0:0:
256,192,50302,1,0,0:0:0:0:
256,192,50419,1,8,0:0:0:0:
256,192,50653,1,0,0:0:0:0:
256,192,50888,1,0,0:0:0:0:
256,192,51122,1,8,0:0:0:0:
256,192,51239,1,0,0:0:0:0:
256,192,51356,1,8,0:0:0:0:
256,192,51473,1,8,0:0:0:0:
256,192,51708,1,8,0:0:0:0:
256,192,51825,1,0,0:0:0:0:
256,192,52059,1,0,0:0:0:0:
256,192,52294,1,8,0:0:0:0:
256,192,52411,1,0,0:0:0:0:
256,192,52528,1,8,0:0:0:0:
256,192,52645,1,8,0:0:0:0:
256,192,52763,1,0,0:0:0:0:
256,192,52880,1,0,0:0:0:0:
256,192,52997,1,0,0:0:0:0:
256,192,53114,1,0,0:0:0:0:
256,192,53231,1,8,0:0:0:0:
256,192,53700,1,8,0:0:0:0:
256,192,54169,1,8,0:0:0:0:
256,192,54638,1,4,0:0:0:0:
256,192,54989,1,0,0:0:0:0:
256,192,55106,1,8,0:0:0:0:
256,192,55341,1,0,0:0:0:0:
256,192,55575,1,8,0:0:0:0:
256,192,55692,1,0,0:0:0:0:
256,192,55809,1,8,0:0:0:0:
256,192,55927,1,8,0:0:0:0:
256,192,56044,1,0,0:0:0:0:
256,192,56278,1,8,0:0:0:0:
256,192,56513,1,0,0:0:0:0:
256,192,56747,1,0,0:0:0:0:
256,192,56864,1,0,0:0:0:0:
256,192,56981,1,8,0:0:0:0:
256,192,57216,1,8,0:0:0:0:
256,192,57333,1,8,0:0:0:0:
256,192,57567,1,8,0:0:0:0:
256,192,57684,1,0,0:0:0:0:
256,192,57919,1,8,0:0:0:0:
256,192,58153,1,8,0:0:0:0:
256,192,58270,1,8,0:0:0:0:
256,192,58388,1,0,0:0:0:0:
256,192,58622,1,0,0:0:0:0:
256,192,58739,1,0,0:0:0:0:
256,192,58856,1,8,0:0:0:0:
256,192,59091,1,8,0:0:0:0:
256,192,59325,1,0,0:0:0:0:
256,192,59442,1,0,0:0:0:0:
256,192,59559,1,8,0:0:0:0:
256,192,59677,1,8,0:0:0:0:
256,192,59794,1,0,0:0:0:0:
256,192,60028,1,8,0:0:0:0:
256,192,60263,1,0,0:0:0:0:
256,192,60497,1,8,0:0:0:0:
256,192,60614,1,0,0:0:0:0:
256,192,60731,1,8,0:0:0:0:
256,192,60966,1,8,0:0:0:0:
256,192,61200,1,0,0:0:0:0:
256,192,61317,1,0,0:0:0:0:
256,192,61552,1,0,0:0:0:0:
256,192,61669,1,8,0:0:0:0:
256,192,61786,1,0,0:0:0:0:
256,192,61903,1,8,0:0:0:0:
256,192,62020,1,8,0:0:0:0:
256,192,62138,1,0,0:0:0:0:
256,192,62489,1,0,0:0:0:0:
256,192,62606,1,8,0:0:0:0:
256,192,62841,1,8,0:0:0:0:
256,192,63075,1,0,0:0:0:0:
256,192,63192,1,8,0:0:0:0:
256,192,63309,1,8,0:0:0:0:
256,192,63427,1,8,0:0:0:0:
256,192,63544,1,0,0:0:0:0:
256,192,63778,1,8,0:0:0:0:
256,192,64013,1,0,0:0:0:0:
256,192,64247,1,0,0:0:0:0:
256,192,64364,1,0,0:0:0:0:
256,192,64481,1,8,0:0:0:0:
256,192,64716,1,0,0:0:0:0:
256,192,64833,1,8,0:0:0:0:
256,192,65067,1,8,0:0:0:0:
256,192,65184,1,0,0:0:0:0:
256,192,65419,1,8,0:0:0:0:
256,192,65653,1,0,0:0:0:0:
256,192,65770,1,0,0:0:0:0:
256,192,65888,1,0,0:0:0:0:
256,192,66122,1,8,0:0:0:0:
256,192,66239,1,0,0:0:0:0:
256,192,66356,1,8,0:0:0:0:
256,192,66591,1,0,0:0:0:0:
256,192,66825,1,8,0:0:0:0:
256,192,66942,1,8,0:0:0:0:
256,192,67059,1,0,0:0:0:0:
256,192,67177,1,0,0:0:0:0:
256,192,67294,1,8,0:0:0:0:
256,192,67528,1,8,0:0:0:0:
256,192,67763,5,0,0:0:0:0:
256,192,67880,1,8,0:0:0:0:
256,192,67997,1,0,0:0:0:0:
256,192,68114,1,0,0:0:0:0:
256,192,68231,1,8,0:0:0:0:
256,192,68348,1,0,0:0:0:0:
256,192,68466,1,8,0:0:0:0:
256,192,68583,1,8,0:0:0:0:
256,192,68700,1,0,0:0:0:0:
256,192,68817,1,8,0:0:0:0:
256,192,68934,1,0,0:0:0:0:
288,192,69052,1,0,0:0:0:0:
256,192,69169,1,8,0:0:0:0:
256,192,69286,1,8,0:0:0:0:
256,192,69403,1,8,0:0:0:0:
256,192,69520,1,8,0:0:0:0:
256,192,69638,1,0,0:0:0:0:
256,192,69989,1,0,0:0:0:0:
256,192,70106,1,8,0:0:0:0:
256,192,70341,1,8,0:0:0:0:
256,192,70575,1,0,0:0:0:0:
256,192,70692,1,8,0:0:0:0:
256,192,70809,1,0,0:0:0:0:
256,192,70927,1,0,0:0:0:0:
256,192,71044,1,8,0:0:0:0:
256,192,71278,1,8,0:0:0:0:
256,192,71513,1,0,0:0:0:0:
256,192,71747,1,0,0:0:0:0:
256,192,71864,1,0,0:0:0:0:
256,192,71981,1,8,0:0:0:0:
256,192,72216,1,0,0:0:0:0:
256,192,72333,1,8,0:0:0:0:
256,192,72567,1,8,0:0:0:0:
256,192,72684,1,0,0:0:0:0:
256,192,72919,1,8,0:0:0:0:
256,192,73153,1,0,0:0:0:0:
256,192,73270,1,0,0:0:0:0:
256,192,73388,1,0,0:0:0:0:
256,192,73622,1,0,0:0:0:0:
256,192,73739,1,0,0:0:0:0:
256,192,73856,1,8,0:0:0:0:
256,192,74091,1,8,0:0:0:0:
256,192,74325,1,0,0:0:0:0:
256,192,74442,1,0,0:0:0:0:
256,192,74559,1,8,0:0:0:0:
256,192,74677,1,8,0:0:0:0:
256,192,74794,1,0,0:0:0:0:
256,192,75028,1,8,0:0:0:0:
256,192,75263,1,0,0:0:0:0:
256,192,75497,1,8,0:0:0:0:
256,192,75614,1,0,0:0:0:0:
256,192,75731,1,8,0:0:0:0:
256,192,75966,1,8,0:0:0:0:
256,192,76200,1,0,0:0:0:0:
256,192,76317,1,0,0:0:0:0:
256,192,76552,1,0,0:0:0:0:
256,192,76669,1,8,0:0:0:0:
256,192,76786,1,0,0:0:0:0:
256,192,76903,1,8,0:0:0:0:
256,192,77020,1,8,0:0:0:0:
256,192,77138,1,0,0:0:0:0:
256,192,77489,1,0,0:0:0:0:
256,192,77606,1,8,0:0:0:0:
256,192,77841,1,0,0:0:0:0:
256,192,78075,1,8,0:0:0:0:
256,192,78192,1,0,0:0:0:0:
256,192,78309,1,0,0:0:0:0:
256,192,78427,1,0,0:0:0:0:
256,192,78544,1,8,0:0:0:0:
256,192,78778,1,8,0:0:0:0:
256,192,79013,1,0,0:0:0:0:
256,192,79247,1,0,0:0:0:0:
256,192,79364,1,0,0:0:0:0:
256,192,79481,1,8,0:0:0:0:
256,192,79716,1,8,0:0:0:0:
256,192,79833,1,8,0:0:0:0:
256,192,80067,1,8,0:0:0:0:
256,192,80184,1,0,0:0:0:0:
256,192,80419,1,8,0:0:0:0:
256,192,80653,1,8,0:0:0:0:
256,192,80770,1,8,0:0:0:0:
256,192,80888,1,0,0:0:0:0:
256,192,81122,1,0,0:0:0:0:
256,192,81239,1,0,0:0:0:0:
256,192,81356,1,8,0:0:0:0:
256,192,81591,1,0,0:0:0:0:
256,192,81825,1,8,0:0:0:0:
256,192,82059,1,0,0:0:0:0:
256,192,82177,1,0,0:0:0:0:
256,192,82294,1,8,0:0:0:0:
256,192,82411,1,0,0:0:0:0:
256,192,82528,1,8,0:0:0:0:
256,192,82645,1,8,0:0:0:0:
256,192,82763,1,0,0:0:0:0:
256,192,82880,1,0,0:0:0:0:
256,192,82997,1,0,0:0:0:0:
256,192,83114,1,0,0:0:0:0:
256,192,83231,1,8,0:0:0:0:
256,192,83466,1,0,0:0:0:0:
256,192,83583,1,8,0:0:0:0:
256,192,83817,1,8,0:0:0:0:
256,192,83934,1,0,0:0:0:0:
256,192,84169,1,8,0:0:0:0:
256,192,84286,1,8,0:0:0:0:
256,192,84403,1,8,0:0:0:0:
256,192,84520,1,8,0:0:0:0:
256,192,84638,1,0,0:0:0:0:
256,192,84755,1,0,0:0:0:0:
256,192,84989,1,8,0:0:0:0:
256,192,85106,1,0,0:0:0:0:
256,192,85341,1,0,0:0:0:0:
256,192,85458,1,0,0:0:0:0:
256,192,85692,1,8,0:0:0:0:
256,192,85809,1,0,0:0:0:0:
256,192,86044,1,0,0:0:0:0:
256,192,86161,1,0,0:0:0:0:
256,192,86278,1,0,0:0:0:0:
256,192,86395,1,0,0:0:0:0:
256,192,86513,1,12,0:0:0:0:
