osu file format v14

[General]
AudioFilename: audio.mp3
AudioLeadIn: 0
PreviewTime: 70104
Countdown: 0
SampleSet: Soft
StackLeniency: 0.7
Mode: 0
LetterboxInBreaks: 0
WidescreenStoryboard: 1

[Editor]
Bookmarks: 116250
DistanceSpacing: 1.1
BeatDivisor: 4
GridSize: 16
TimelineZoom: 1

[Metadata]
Title:Mephisto (TV Size)
TitleUnicode:メフィスト (TV Size)
Artist:QUEEN BEE
ArtistUnicode:女王蜂
Creator:KaedeharaKazuha
Version:Normal
Source:【推しの子】
Tags:Addy2607 Kaedehara Kazuha Kyouren gokugohan12468 KittyAdventure Ascended -ascended- -_ascended_- AirinCat 【Oshi [Oshi "Oshi Oshi no Ko Ko" Ko] Ko】 My Star japanese rock jrock j-rock anime ending ed outro theme song Ziyoou-vachi AVU AVU-CHAN アヴ アヴちゃん YASHI-CHAN YASHI やし やしちゃん RURI RURI-CHAN ルリ ルリちゃん HIBARI HIBARI-CHAN ひばり ひばりちゃん Aquamarine Aqua Hoshino 星野愛久愛海 星野アクア Their Idol's Children
BeatmapID:4107531
BeatmapSetID:1978432

[Difficulty]
HPDrainRate:3
CircleSize:3
OverallDifficulty:4
ApproachRate:5
SliderMultiplier:1.1
SliderTickRate:1

[Events]
//Background and Video events
Video,0,"video.mp4"
0,0,"BG.jpg",0,0
//Break Periods
//Storyboard Layer 0 (Background)
//Storyboard Layer 1 (Fail)
//Storyboard Layer 2 (Pass)
//Storyboard Layer 3 (Foreground)
//Storyboard Layer 4 (Overlay)
//Storyboard Sound Samples

[TimingPoints]
565,410.958904109589,4,1,1,100,1,0
1386,508.474576271186,4,1,1,100,1,0
1894,550.45871559633,4,1,1,100,1,0
3545,508.474576271186,4,1,1,100,1,0
6595,540.54054054054,4,1,1,100,1,0
7135,697.674418604651,4,2,1,100,1,0
7832,370.37037037037,4,2,1,100,1,0
8202,458.015267175573,4,2,1,100,1,0
8660,530.973451327434,4,2,1,30,1,0
12907,540.54054054054,4,2,1,30,1,0
15069,428.571428571428,4,2,1,50,1,0
15497,365.853658536585,4,2,1,50,1,0
15862,588.235294117647,4,2,1,50,1,0
16156,521.739130434783,4,2,1,50,1,0
16677,714.285714285714,4,2,1,50,1,0
17391,400,4,2,1,70,1,0
17391,-100,4,2,1,70,0,0
30191,-105.263157894737,4,2,1,50,0,0
33391,-105.263157894737,4,2,1,50,0,0
42991,-105.263157894737,4,2,1,60,0,0
55791,-100,4,2,2,80,0,0
57391,-100,4,2,2,70,0,0
62991,-100,4,2,1,70,0,0
63791,-100,4,2,2,70,0,0
68591,-100,4,2,4,50,0,0
70191,-95.2380952380952,4,2,3,85,0,1
92591,389.61038961039,4,2,4,60,1,0
92591,-100,4,2,4,60,0,0
93954,441.176470588235,4,2,3,60,1,0
94174,434.782608695652,4,2,3,60,1,0
94391,400,4,2,3,90,1,0
94391,-95.2380952380952,4,2,3,90,0,1
95391,-100,4,2,3,60,0,0
95791,400,4,2,1,40,1,0
95791,-125,4,2,1,40,0,0
107791,350.877192982456,4,2,1,40,1,0
107791,-111.111111111111,4,2,1,40,0,0
108141,419.58041958042,4,2,1,40,1,0
108141,-111.111111111111,4,2,1,40,0,0
108560,422.535211267606,4,2,1,40,1,0
108560,-111.111111111111,4,2,1,40,0,0
108982,405.405405405405,4,2,1,40,1,0
108982,-111.111111111111,4,2,1,40,0,0
109387,384.615384615385,4,2,1,40,1,0
109387,-111.111111111111,4,2,1,40,0,0
110156,410.958904109589,4,2,1,40,1,0
110156,-111.111111111111,4,2,1,40,0,0
111799,-111.111111111111,4,2,1,30,0,0
112210,500,4,2,1,20,1,0
112210,-111.111111111111,4,2,1,20,0,0
112709,-111.111111111111,4,2,1,20,0,0
112710,441.176470588235,4,2,1,20,1,0
116239,-111.111111111111,4,2,1,5,0,0

[Colours]
Combo1 : 252,114,176
Combo2 : 177,177,177
Combo3 : 114,114,114
Combo4 : 102,214,251

[HitObjects]
503,240,17391,38,0,P|508:269|515:313,1,55,4|2,3:1|0:0,0:0:0:0:
474,341,17791,2,0,P|418:332|353:321,1,110,10|2,0:0|0:0,0:0:0:0:
252,367,18591,2,0,P|223:362|191:357,1,55,10|2,0:0|0:0,0:0:0:0:
138,343,18991,2,0,P|111:298|158:252,1,110,2|10,3:2|0:0,0:0:0:0:
197,235,19591,1,0,3:0:0:0:
308,188,19991,2,0,P|335:143|288:97,1,110,2|2,3:2|0:0,0:0:0:0:
250,73,20591,6,0,P|205:78|178:82,1,55,2|2,3:2|0:0,0:0:0:0:
150,38,20991,2,0,P|82:29|25:22,1,110,10|2,0:0|0:0,0:0:0:0:
7,140,21791,2,0,P|41:144|70:147,1,55,10|2,0:0|0:0,0:0:0:0:
121,157,22191,2,0,P|153:187|127:251,1,110,2|10,3:2|0:0,0:0:0:0:
91,286,22791,1,0,3:0:0:0:
187,368,23191,1,2,3:2:0:0:
187,368,23391,2,0,P|228:360|255:356,1,55,10|2,0:0|0:0,0:0:0:0:
300,369,23791,38,0,P|341:361|368:357,1,55,6|2,3:2|0:0,0:0:0:0:
395,314,24191,2,0,P|381:243|374:196,1,110,10|2,0:0|0:0,0:0:0:0:
268,149,24991,2,0,P|263:121|257:94,1,55,10|2,0:0|0:0,0:0:0:0:
279,38,25391,2,0,P|340:27|401:15,1,110,2|10,3:2|0:0,0:0:0:0:
445,3,25991,1,0,3:0:0:0:
509,105,26391,2,0,P|448:116|387:128,1,110,2|2,3:2|0:0,0:0:0:0:
344,148,26991,6,0,P|349:174|354:201,1,55,2|2,3:2|0:0,0:0:0:0:
405,233,27391,2,0,P|436:273|413:328,1,110,10|2,0:0|0:0,0:0:0:0:
300,355,28191,2,0,P|260:363|233:369,1,55,10|2,0:0|0:0,0:0:0:0:
185,360,28591,2,0,P|154:320|177:265,1,110,2|10,3:2|0:0,0:0:0:0:
223,235,29191,1,0,3:0:0:0:
137,149,29591,2,0,P|105:154|78:159,2,55,2|10|2,0:0|0:0|0:0,0:0:0:0:
185,118,30191,6,0,P|224:122|297:133,1,104.499997209549
357,39,30991,2,0,P|318:35|245:24,1,104.499997209549,2|2,0:0|0:0,0:0:0:0:
139,44,31791,2,0,P|100:10|42:34,1,104.499997209549,2|2,0:0|0:0,0:0:0:0:
27,75,32391,1,2,0:0:0:0:
27,75,32591,2,0,P|37:118|43:149,1,52.2499986047745,2|2,0:0|0:0,0:0:0:0:
13,177,32991,1,2,0:0:0:0:
95,265,33391,5,0,3:0:0:0:
95,265,33591,2,0,P|87:312|84:327,2,52.2499986047745,2|10|2,0:0|0:0|3:2,0:0:0:0:
143,234,34191,2,0,P|214:246|267:256,1,104.499997209549,2|10,0:0|0:0,0:0:0:0:
344,192,34991,2,0,P|391:184|406:181,2,52.2499986047745,2|2|10,3:2|0:0|0:0,0:0:0:0:
305,157,35591,1,2,3:2:0:0:
305,157,35791,2,0,P|310:129|315:101,1,52.2499986047745,2|10,0:0|0:0,0:0:0:0:
286,54,36191,1,10,0:0:0:0:
179,87,36591,37,0,3:0:0:0:
179,87,36791,2,0,P|174:112|169:138,2,52.2499986047745,2|10|2,0:0|0:0|3:2,0:0:0:0:
156,34,37391,2,0,P|117:3|60:42,1,104.499997209549,2|10,0:0|0:0,0:0:0:0:
28,128,38191,2,0,P|16:186|4:249,1,104.499997209549,2|10,3:2|0:0,0:0:0:0:
36,286,38791,1,2,3:2:0:0:
36,286,38991,1,2,0:0:0:0:
122,210,39391,2,0,P|151:204|185:197,1,52.2499986047745,10|2,0:0|3:2,0:0:0:0:
229,186,39791,5,2,3:2:0:0:
321,254,40191,2,0,P|327:283|334:317,1,52.2499986047745,10|2,0:0|3:2,0:0:0:0:
347,360,40591,1,2,0:0:0:0:
466,367,40991,1,10,0:0:0:0:
466,367,41191,2,0,P|453:304|440:242,1,104.499997209549,2|2,0:0|0:0,0:0:0:0:
481,221,41791,1,10,0:0:0:0:
481,221,41991,2,0,P|502:177|473:131,1,104.499997209549,2|8,3:2|0:0,0:0:0:0:
422,111,42591,1,8,0:0:0:0:
329,52,42991,37,4,3:2:0:0:
329,52,43191,2,0,P|333:15|335:-19,2,52.2499986047745,2|10|2,0:0|0:0|3:2,0:0:0:0:
282,86,43791,2,0,P|288:124|300:199,1,104.499997209549,2|10,0:0|0:0,0:0:0:0:
403,236,44591,2,0,P|406:255|412:292,1,52.2499986047745,2|2,3:2|0:0,0:0:0:0:
419,344,44991,1,10,0:0:0:0:
305,365,45391,2,0,L|248:356,1,52.2499986047745,2|2,0:0|3:2,0:0:0:0:
196,348,45791,1,10,0:0:0:0:
97,301,46191,5,0,3:0:0:0:
97,301,46391,2,0,L|40:310,2,52.2499986047745,2|10|2,0:0|0:0|3:2,0:0:0:0:
131,255,46991,2,0,P|123:206|112:143,1,104.499997209549,2|10,0:0|0:0,0:0:0:0:
62,49,47791,2,0,P|93:29|125:36,1,52.2499986047745,2|2,3:2|0:0,0:0:0:0:
161,49,48191,1,10,0:0:0:0:
253,116,48591,2,0,P|284:136|316:129,1,52.2499986047745,2|10,0:0|0:0,0:0:0:0:
352,116,48991,1,10,0:0:0:0:
452,57,49391,37,0,3:0:0:0:
452,57,49591,2,0,P|443:13|439:-10,2,52.2499986047745,2|10|2,0:0|0:0|3:2,0:0:0:0:
491,98,50191,2,0,P|483:166|480:203,1,104.499997209549,2|10,0:0|0:0,0:0:0:0:
510,312,50991,2,0,P|479:292|451:291,1,52.2499986047745,2|2,3:2|0:0,0:0:0:0:
406,289,51391,2,0,P|371:299|352:320,1,52.2499986047745,10|2,0:0|3:2,0:0:0:0:
333,360,51791,1,2,0:0:0:0:
219,344,52191,2,0,P|193:340|152:335,1,52.2499986047745,10|2,0:0|3:2,0:0:0:0:
110,327,52591,5,2,3:2:0:0:
4,372,52991,2,0,P|8:346|13:305,1,52.2499986047745,10|2,0:0|3:2,0:0:0:0:
18,263,53391,1,2,0:0:0:0:
6,153,53791,1,8,0:0:0:0:
6,153,53991,2,0,P|12:110|20:42,1,104.499997209549,2|2,0:0|0:0,0:0:0:0:
72,23,54591,1,10,0:0:0:0:
72,23,54791,2,0,P|123:14|145:56,1,104.499997209549,2|8,3:2|0:0,0:0:0:0:
143,112,55391,1,8,0:0:0:0:
260,84,55791,6,0,P|292:77|330:69,1,55,4|4,3:0|3:0,0:0:0:0:
372,58,56191,1,4,3:0:0:0:
489,30,56591,2,0,P|482:62|474:100,1,55,4|4,3:0|3:0,0:0:0:0:
461,142,56991,2,0,P|454:174|446:212,1,55,8|8,3:2|3:2,0:0:0:0:
462,255,57391,22,0,P|419:276|364:227,1,110,6|2,3:2|3:2,0:0:0:0:
340,199,57991,1,2,0:0:0:0:
340,199,58191,1,4,3:0:0:0:
237,263,58591,1,2,3:2:0:0:
182,155,58991,2,0,P|188:119|192:96,1,55,2|2,3:2|0:0,0:0:0:0:
159,49,59391,2,0,P|123:43|100:39,1,55,2|2,3:2|0:0,0:0:0:0:
53,71,59791,2,0,P|42:134|31:197,1,110,4|0,3:0|3:0,0:0:0:0:
60,297,60591,6,0,P|21:303|-6:312,2,55,2|2|2,3:2|0:0|3:2,0:0:0:0:
116,331,61191,1,2,0:0:0:0:
116,331,61391,2,0,P|173:344|205:305,1,110,4|2,3:0|3:2,0:0:0:0:
202,253,61991,1,10,3:2:0:0:
202,253,62191,2,0,P|192:182|182:130,1,110,2|2,3:2|3:2,0:0:0:0:
290,84,62991,2,0,P|295:119|300:145,1,55,2|8,3:2|0:0,0:0:0:0:
304,198,63391,2,0,P|309:233|314:259,1,55,2|8,3:2|0:0,0:0:0:0:
297,310,63791,38,0,P|325:347|387:325,1,110,6|2,3:2|3:2,0:0:0:0:
494,376,64591,2,0,P|500:317|512:251,1,110,4|2,3:0|3:2,0:0:0:0:
479,220,65191,1,10,3:2:0:0:
479,220,65391,1,2,3:2:0:0:
505,101,65791,2,0,P|508:71|514:38,1,55,2|2,3:2|0:0,0:0:0:0:
465,7,66191,2,0,P|412:7|390:54,1,110,4|2,3:0|3:2,0:0:0:0:
342,167,66991,5,2,3:2:0:0:
342,167,67191,2,0,P|375:170|415:183,2,55,2|2|2,0:0|3:2|0:0,0:0:0:0:
303,120,67791,2,0,P|248:130|193:155,1,110,4|2,3:0|3:2,0:0:0:0:
149,185,68391,1,10,3:2:0:0:
149,185,68591,37,6,3:2:0:0:
149,185,70191,22,0,P|103:151|121:91,1,115.49999647522,4|2,3:1|0:0,0:0:0:0:
155,53,70791,1,2,0:0:0:0:
155,53,70991,1,10,0:0:0:0:
280,31,71391,2,0,P|314:25|347:19,1,57.7499982376099,2|8,0:0|0:3,0:0:0:0:
400,17,71791,2,0,P|393:56|387:95,1,57.7499982376099,2|8,0:0|0:3,0:0:0:0:
378,135,72191,1,2,3:2:0:0:
482,207,72591,2,0,P|525:243|503:302,1,115.49999647522,10|2,0:0|0:0,0:0:0:0:
457,324,73191,1,8,0:3:0:0:
457,324,73391,6,0,P|411:329|375:334,1,57.7499982376099,6|2,3:2|0:0,0:0:0:0:
345,364,73791,2,0,P|299:369|263:374,1,57.7499982376099,2|2,0:0|0:0,0:0:0:0:
232,339,74191,2,0,P|223:263|215:205,1,115.49999647522,10|0,0:0|0:0,0:0:0:0:
318,146,74991,2,0,P|323:100|328:64,1,57.7499982376099,2|8,0:0|0:3,0:0:0:0:
293,33,75391,2,0,P|247:28|211:23,1,57.7499982376099,0|2,3:0|0:3,0:0:0:0:
172,20,75791,2,0,P|131:59|67:44,1,115.49999647522,10|2,0:0|0:0,0:0:0:0:
33,12,76391,1,8,0:3:0:0:
33,12,76591,37,6,3:2:0:0:
9,136,76991,2,0,P|17:185|21:212,1,57.7499982376099,2|2,0:0|0:0,0:0:0:0:
5,255,77391,2,0,P|75:242|133:235,1,115.49999647522,10|2,0:0|0:0,0:0:0:0:
162,190,77991,1,8,0:3:0:0:
162,190,78191,2,0,P|190:186|218:180,1,57.7499982376099,2|8,0:0|0:3,0:0:0:0:
280,165,78591,2,0,P|308:159|336:155,1,57.7499982376099,2|8,3:2|0:3,0:0:0:0:
388,117,78991,2,0,P|439:157|413:216,1,115.49999647522,10|2,0:0|0:0,0:0:0:0:
452,325,79791,6,0,P|421:310|384:311,1,57.7499982376099,6|2,3:2|0:0,0:0:0:0:
347,270,80191,2,0,P|318:289|302:321,1,57.7499982376099,2|2,0:0|0:0,0:0:0:0:
282,367,80591,2,0,P|221:358|154:357,1,115.49999647522,10|2,0:0|0:0,0:0:0:0:
107,358,81191,1,8,0:3:0:0:
107,358,81391,2,0,P|111:324|112:288,1,57.7499982376099,2|8,3:2|0:3,0:0:0:0:
122,237,81791,1,0,3:0:0:0:
20,160,82191,2,0,P|-1:129|7:89,1,57.7499982376099,10|8,0:0|0:3,0:0:0:0:
12,47,82591,2,0,P|28:13|66:0,1,57.7499982376099,4|4,0:3|0:3,0:0:0:0:
107,11,82991,38,0,P|170:19|231:32,1,115.49999647522,4|2,3:1|0:0,0:0:0:0:
283,8,83591,1,2,0:0:0:0:
283,8,83791,1,10,0:0:0:0:
380,89,84191,2,0,P|371:140|369:160,1,57.7499982376099,2|8,0:0|0:3,0:0:0:0:
319,183,84591,2,0,P|268:174|248:172,1,57.7499982376099,2|8,0:0|0:3,0:0:0:0:
198,166,84991,1,2,3:2:0:0:
88,101,85391,2,0,P|40:112|32:182,1,115.49999647522,10|2,0:0|0:0,0:0:0:0:
52,234,85991,1,4,0:3:0:0:
52,234,86191,6,0,P|44:281|40:298,1,57.7499982376099,6|2,3:2|0:0,0:0:0:0:
80,340,86591,2,0,P|127:348|144:352,1,57.7499982376099,2|2,0:0|0:0,0:0:0:0:
198,367,86991,1,10,0:0:0:0:
322,344,87391,2,0,P|330:297|334:280,1,57.7499982376099,8|8,0:3|0:3,0:0:0:0:
282,247,87791,2,0,P|261:216|265:185,1,57.7499982376099,2|8,0:0|0:3,0:0:0:0:
265,133,88191,2,0,P|281:99|310:87,1,57.7499982376099,2|2,3:2|0:3,0:0:0:0:
361,86,88591,2,0,P|414:93|482:102,1,115.49999647522,10|2,0:0|0:0,0:0:0:0:
512,159,89191,1,8,0:3:0:0:
512,159,89391,37,6,3:2:0:0:
507,285,89791,2,0,P|502:316|497:357,1,57.7499982376099,2|2,0:0|0:0,0:0:0:0:
443,374,90191,2,0,P|389:366|321:357,1,115.49999647522,10|2,0:0|0:0,0:0:0:0:
284,320,90791,1,8,0:3:0:0:
284,320,90991,2,0,P|287:291|292:262,1,57.7499982376099,2|8,0:0|0:3,0:0:0:0:
302,211,91391,2,0,P|305:182|310:153,1,57.7499982376099,2|0,3:2|3:0,0:0:0:0:
281,96,91791,2,0,P|246:55|184:83,1,115.49999647522,10|2,0:0|0:0,0:0:0:0:
164,115,92391,1,2,0:0:0:0:
164,115,92591,21,6,3:2:0:0:
164,115,94391,21,8,3:2:0:0:
164,115,94591,2,0,P|155:166|150:189,1,57.7499982376099,8|8,3:2|3:2,0:0:0:0:
144,223,94991,2,0,P|195:232|218:237,1,57.7499982376099,8|8,3:2|3:2,0:0:0:0:
259,247,95391,1,8,3:2:0:0:
342,296,95791,22,0,B|329:350|361:394|451:394|487:375|538:261|458:214|403:196|360:227|316:208|293:149|321:43|370:26|439:10|520:42|529:120|505:173|481:194|438:201,1,704,2|0,0:0|0:0,0:0:0:0:
345,208,99391,5,2,0:0:0:0:
254,174,99791,2,0,P|186:183|88:237,1,176,2|0,0:0|0:0,0:0:0:0:
17,295,100991,2,0,P|11:332|44:373,2,88
31,199,102191,38,0,B|-31:106|58:-32|218:13|249:132|198:204|198:204|142:288|216:353|294:340|320:259|284:219,1,704,2|0,0:0|0:0,0:0:0:0:
316,139,105791,1,2,0:0:0:0:
394,195,106191,2,0,P|447:215|500:127,2,176,2|0|0,0:0|0:0|0:0,0:0:0:0:
316,139,108141,1,2,0:0:0:0:
376,65,108560,5,2,0:0:0:0:
256,192,108771,12,0,116238,0:0:0:0:
