osu file format v14

[General]
AudioFilename: audio.mp3
AudioLeadIn: 0
PreviewTime: 70104
Countdown: 0
SampleSet: Soft
StackLeniency: 0.4
Mode: 0
LetterboxInBreaks: 0
WidescreenStoryboard: 1

[Editor]
Bookmarks: 116250
DistanceSpacing: 1.2
BeatDivisor: 4
GridSize: 16
TimelineZoom: 1.2

[Metadata]
Title:Mephisto (TV Size)
TitleUnicode:メフィスト (TV Size)
Artist:QUEEN BEE
ArtistUnicode:女王蜂
Creator:KaedeharaKazuha
Version:Hard
Source:【推しの子】
Tags:Addy2607 Kaedehara Kazuha Kyouren gokugohan12468 KittyAdventure Ascended -ascended- -_ascended_- AirinCat 【Oshi [Oshi "Oshi Oshi no Ko Ko" Ko] Ko】 My Star japanese rock jrock j-rock anime ending ed outro theme song Ziyoou-vachi AVU AVU-CHAN アヴ アヴちゃん YASHI-CHAN YASHI やし やしちゃん RURI RURI-CHAN ルリ ルリちゃん HIBARI HIBARI-CHAN ひばり ひばりちゃん Aquamarine Aqua Hoshino 星野愛久愛海 星野アクア Their Idol's Children
BeatmapID:4107641
BeatmapSetID:1978432

[Difficulty]
HPDrainRate:4
CircleSize:3.4
OverallDifficulty:6
ApproachRate:8
SliderMultiplier:1.5
SliderTickRate:1

[Events]
//Background and Video events
Video,0,"video.mp4"
0,0,"BG.jpg",0,0
//Break Periods
//Storyboard Layer 0 (Background)
//Storyboard Layer 1 (Fail)
//Storyboard Layer 2 (Pass)
//Storyboard Layer 3 (Foreground)
//Storyboard Layer 4 (Overlay)
//Storyboard Sound Samples

[TimingPoints]
565,410.958904109589,4,1,1,100,1,0
1386,508.474576271186,4,1,1,100,1,0
1894,550.45871559633,4,1,1,100,1,0
3545,508.474576271186,4,1,1,100,1,0
6595,540.54054054054,4,1,1,100,1,0
7135,697.674418604651,4,2,1,100,1,0
7832,370.37037037037,4,2,1,100,1,0
8202,458.015267175573,4,2,1,100,1,0
8660,530.973451327434,4,2,1,30,1,0
12907,540.54054054054,4,2,1,30,1,0
15069,428.571428571428,4,2,1,50,1,0
15497,365.853658536585,4,2,1,50,1,0
15862,588.235294117647,4,2,1,50,1,0
16156,521.739130434783,4,2,1,50,1,0
16677,714.285714285714,4,2,1,50,1,0
17391,400,4,2,1,70,1,0
17391,-100,4,2,1,70,0,0
30191,-111.111111111111,4,2,1,50,0,0
33391,-105.263157894737,4,2,1,50,0,0
42991,-105.263157894737,4,2,1,60,0,0
55791,-95.2380952380952,4,2,2,80,0,0
57391,-100,4,2,2,70,0,0
62991,-100,4,2,1,70,0,0
63791,-100,4,2,2,70,0,0
68591,-100,4,2,4,50,0,0
70191,-90.9090909090909,4,2,3,85,0,1
92591,389.61038961039,4,2,4,60,1,0
92591,-100,4,2,4,60,0,0
93954,441.176470588235,4,2,3,60,1,0
94174,434.782608695652,4,2,3,60,1,0
94391,400,4,2,3,90,1,0
94391,-90.9090909090909,4,2,3,90,0,1
95391,-100,4,2,3,60,0,0
95791,400,4,2,1,40,1,0
95791,-111.111111111111,4,2,1,40,0,0
107791,350.877192982456,4,2,1,40,1,0
107791,-111.111111111111,4,2,1,40,0,0
108141,419.58041958042,4,2,1,40,1,0
108141,-111.111111111111,4,2,1,40,0,0
108560,422.535211267606,4,2,1,40,1,0
108560,-111.111111111111,4,2,1,40,0,0
108982,405.405405405405,4,2,1,40,1,0
108982,-111.111111111111,4,2,1,40,0,0
109387,384.615384615385,4,2,1,40,1,0
109387,-111.111111111111,4,2,1,40,0,0
110156,410.958904109589,4,2,1,40,1,0
110156,-111.111111111111,4,2,1,40,0,0
111799,-111.111111111111,4,2,1,30,0,0
112210,500,4,2,1,20,1,0
112210,-111.111111111111,4,2,1,20,0,0
112709,-111.111111111111,4,2,1,20,0,0
112710,441.176470588235,4,2,1,20,1,0
116238,-111.111111111111,4,2,1,5,0,0

[Colours]
Combo1 : 252,114,176
Combo2 : 177,177,177
Combo3 : 114,114,114
Combo4 : 102,214,251

[HitObjects]
478,354,17391,38,0,P|508:312|462:260,1,112.5,4|0,3:1|0:0,0:0:0:0:
466,263,17791,2,0,P|420:268|384:276,1,75,10|0,0:0|3:0,0:0:0:0:
306,243,18191,2,0,P|301:197|293:161,1,75,2|0,0:0|0:0,0:0:0:0:
356,103,18591,1,10,0:0:0:0:
356,103,18791,1,2,0:0:0:0:
298,33,18991,6,0,P|252:36|231:67,1,75,2|0,3:2|0:0,0:0:0:0:
181,129,19391,1,10,0:0:0:0:
99,90,19591,1,0,3:0:0:0:
99,90,19991,2,0,P|106:37|110:12,2,75,2|10|2,3:2|0:0|0:0,0:0:0:0:
9,192,20591,37,2,3:2:0:0:
9,192,20791,1,2,0:0:0:0:
64,256,20991,2,0,P|58:293|53:330,1,75,10|0,0:0|3:0,0:0:0:0:
142,340,21391,2,0,P|146:302|152:265,1,75,2|0,0:0|0:0,0:0:0:0:
213,200,21791,1,10,0:0:0:0:
213,200,21991,1,2,0:0:0:0:
259,276,22191,6,0,P|289:303|338:281,1,75,2|0,3:2|0:0,0:0:0:0:
392,244,22591,1,10,0:0:0:0:
463,298,22791,1,0,3:0:0:0:
463,298,23191,2,0,P|452:359|450:384,2,75,2|10|2,3:2|0:0|0:0,0:0:0:0:
512,199,23791,37,6,3:2:0:0:
512,199,23991,1,2,0:0:0:0:
459,125,24191,2,0,P|413:120|378:109,1,75,10|0,0:0|3:0,0:0:0:0:
303,150,24591,2,0,P|298:196|287:231,1,75,2|0,0:0|0:0,0:0:0:0:
351,296,24991,1,10,0:0:0:0:
351,296,25191,1,2,0:0:0:0:
281,352,25391,6,0,P|244:342|207:338,1,75,2|0,3:2|0:0,0:0:0:0:
149,268,25791,1,10,0:0:0:0:
69,310,25991,1,0,3:0:0:0:
69,310,26391,2,0,P|77:358|80:391,2,75,2|10|2,3:2|0:0|0:0,0:0:0:0:
0,210,26991,37,2,3:2:0:0:
0,210,27191,1,2,0:0:0:0:
48,134,27391,2,0,P|85:129|121:120,1,75,10|0,0:0|3:0,0:0:0:0:
187,181,27791,2,0,P|223:171|260:167,1,75,2|0,0:0|0:0,0:0:0:0:
340,218,28191,1,10,0:0:0:0:
340,218,28391,1,2,0:0:0:0:
423,184,28591,6,0,P|449:146|428:108,1,75,2|0,3:2|0:0,0:0:0:0:
404,38,28991,1,10,0:0:0:0:
325,82,29191,1,0,3:0:0:0:
264,15,29391,1,8,3:2:0:0:
198,76,29591,2,0,P|206:109|211:153,2,75,2|10|2,0:0|0:0|0:0,0:0:0:0:
130,28,30191,5,0,0:0:0:0:
130,28,30391,2,0,P|68:22|59:94,1,134.999995880127,2|2,0:0|0:0,0:0:0:0:
2,146,30991,2,0,P|58:145|146:179,1,134.999995880127,2|2,0:0|0:0,0:0:0:0:
195,220,31591,1,2,0:0:0:0:
255,167,31791,6,0,P|250:128|246:94,1,67.4999979400635,2|2,0:0|0:0,0:0:0:0:
327,89,32191,2,0,P|332:128|336:162,1,67.4999979400635,2|2,0:0|0:0,0:0:0:0:
403,200,32591,2,0,P|479:206|481:342,1,236.249992790222,2|0,0:0|0:0,0:0:0:0:
468,349,33391,37,0,3:0:0:0:
392,320,33591,1,2,0:0:0:0:
392,320,33791,2,0,P|347:325|316:331,1,71.2499980974198,10|2,0:0|3:2,0:0:0:0:
243,365,34191,2,0,P|238:320|232:289,1,71.2499980974198,2|2,0:0|0:0,0:0:0:0:
165,242,34591,1,10,0:0:0:0:
165,242,34791,1,2,0:0:0:0:
212,171,34991,6,0,P|257:166|288:160,1,71.2499980974198,2|2,3:2|0:0,0:0:0:0:
367,170,35391,2,0,P|360:134|357:99,1,71.2499980974198,10|2,0:0|3:2,0:0:0:0:
375,15,35791,2,0,P|339:21|304:24,1,71.2499980974198,2|10,0:0|0:0,0:0:0:0:
243,84,36191,1,10,0:0:0:0:
179,27,36391,1,2,0:0:0:0:
84,72,36591,37,0,3:0:0:0:
84,72,36791,2,0,P|76:33|66:-4,2,71.2499980974198,2|10|2,0:0|0:0|3:2,0:0:0:0:
31,139,37391,2,0,P|46:196|57:254,1,106.87499714613,2|0,0:0|0:0,0:0:0:0:
58,260,37791,1,10,0:0:0:0:
133,300,37991,1,2,0:0:0:0:
195,241,38191,6,0,P|187:203|177:166,1,71.2499980974198,2|2,3:2|0:0,0:0:0:0:
262,151,38591,2,0,P|269:188|279:225,1,71.2499980974198,10|2,0:0|3:2,0:0:0:0:
202,89,38991,2,0,P|221:43|275:47,1,106.87499714613,2|0,0:0|0:0,0:0:0:0:
287,56,39391,1,10,0:0:0:0:
351,0,39591,1,2,3:2:0:0:
446,59,39791,38,0,P|435:108|429:152,1,71.2499980974198,2|0,3:2|0:0,0:0:0:0:
483,204,40191,1,10,0:0:0:0:
483,204,40391,1,2,3:2:0:0:
406,241,40591,2,0,P|399:276|391:310,1,71.2499980974198,2|0,0:0|0:0,0:0:0:0:
319,355,40991,1,10,0:0:0:0:
256,296,41191,6,0,P|208:273|136:327,1,142.49999619484,2|2,0:0|0:0,0:0:0:0:
80,380,41791,1,10,0:0:0:0:
19,320,41991,2,0,P|13:264|2:196,1,106.87499714613,2|0,3:2|0:0,0:0:0:0:
4,197,42391,1,8,0:0:0:0:
61,133,42591,1,8,0:0:0:0:
117,197,42791,1,0,3:0:0:0:
201,130,42991,37,4,3:2:0:0:
201,130,43191,2,0,P|195:87|188:50,2,71.2499980974198,2|10|2,0:0|0:0|3:2,0:0:0:0:
258,193,43791,2,0,P|251:229|245:273,1,71.2499980974198,2|2,0:0|0:0,0:0:0:0:
312,326,44191,1,10,0:0:0:0:
312,326,44391,1,2,0:0:0:0:
388,287,44591,6,0,P|393:251|399:216,1,71.2499980974198,2|2,3:2|0:0,0:0:0:0:
468,165,44991,2,0,P|472:129|478:94,1,71.2499980974198,10|2,0:0|3:2,0:0:0:0:
428,25,45391,2,0,P|392:20|357:14,1,71.2499980974198,2|2,0:0|3:2,0:0:0:0:
295,73,45791,1,10,0:0:0:0:
232,14,45991,1,2,3:2:0:0:
152,101,46191,37,0,3:0:0:0:
152,101,46391,2,0,P|116:105|81:111,2,71.2499980974198,2|10|2,0:0|0:0|3:2,0:0:0:0:
224,146,46991,2,0,P|218:181|214:216,1,71.2499980974198,2|2,0:0|0:0,0:0:0:0:
279,280,47391,1,10,0:0:0:0:
279,280,47591,1,2,0:0:0:0:
221,342,47791,6,0,P|185:346|150:352,1,71.2499980974198,2|2,3:2|0:0,0:0:0:0:
69,380,48191,2,0,P|65:344|59:309,1,71.2499980974198,10|2,0:0|3:2,0:0:0:0:
18,233,48591,2,0,P|54:229|89:223,1,71.2499980974198,2|10,0:0|0:0,0:0:0:0:
168,252,48991,1,10,0:0:0:0:
230,194,49191,1,2,3:2:0:0:
205,82,49391,37,0,3:0:0:0:
205,82,49591,2,0,P|202:41|195:6,2,71.2499980974198,2|10|2,0:0|0:0|3:2,0:0:0:0:
290,91,50191,2,0,P|342:81|395:77,1,106.87499714613,2|0,0:0|0:0,0:0:0:0:
414,72,50591,2,0,P|436:38|412:-1,1,71.2499980974198,10|2,0:0|0:0,0:0:0:0:
395,155,50991,6,0,P|405:207|411:245,1,71.2499980974198,2|2,3:2|0:0,0:0:0:0:
327,248,51391,2,0,P|320:212|314:177,1,71.2499980974198,10|2,0:0|3:2,0:0:0:0:
388,306,51791,2,0,P|359:357|312:345,1,106.87499714613,2|0,0:0|0:0,0:0:0:0:
302,338,52191,1,10,0:0:0:0:
226,377,52391,1,2,3:2:0:0:
151,334,52591,38,0,P|145:273|137:227,1,106.87499714613,2|0,3:2|0:0,0:0:0:0:
132,209,52991,1,10,0:0:0:0:
186,143,53191,1,2,3:2:0:0:
140,70,53391,2,0,P|99:23|24:61,1,142.49999619484,2|8,0:0|0:0,0:0:0:0:
20,131,53991,6,0,P|33:211|40:292,1,142.49999619484,2|2,0:0|0:0,0:0:0:0:
12,352,54591,1,10,0:0:0:0:
92,381,54791,2,0,P|138:371|173:368,1,71.2499980974198,2|0,3:2|0:0,0:0:0:0:
208,296,55191,2,0,P|203:260|195:225,2,71.2499980974198,8|8|0,0:0|0:0|3:2,0:0:0:0:
308,353,55791,5,4,3:0:0:0:
390,306,55991,1,4,3:0:0:0:
376,212,56191,1,4,3:0:0:0:
292,167,56391,1,4,3:0:0:0:
213,219,56591,1,4,3:0:0:0:
122,193,56791,1,4,3:0:0:0:
104,109,56991,1,8,3:2:0:0:
104,109,57091,1,8,3:2:0:0:
104,109,57191,1,8,3:2:0:0:
164,42,57391,22,0,P|233:53|292:72,1,112.5,6|0,3:2|0:0,0:0:0:0:
292,72,57791,1,2,3:2:0:0:
371,28,57991,1,2,0:0:0:0:
448,74,58191,2,0,P|481:113|472:145,1,75,4|0,3:0|0:0,0:0:0:0:
397,173,58591,2,0,P|364:134|373:102,1,75,2|8,3:2|3:2,0:0:0:0:
476,220,58991,5,2,3:2:0:0:
476,220,59191,1,2,0:0:0:0:
415,286,59391,2,0,P|372:290|302:315,1,112.5,2|0,3:2|0:0,0:0:0:0:
288,318,59791,2,0,P|234:299|262:208,1,150,4|0,3:0|3:0,0:0:0:0:
312,162,60391,1,2,0:0:0:0:
256,69,60591,38,0,P|209:75|165:77,1,75,2|2,3:2|0:0,0:0:0:0:
111,20,60991,2,0,P|73:22|36:27,1,75,2|2,3:2|0:0,0:0:0:0:
2,110,61391,2,0,P|12:169|18:234,1,112.5,4|0,3:0|0:0,0:0:0:0:
9,237,61791,1,2,3:2:0:0:
84,303,61991,5,10,3:2:0:0:
84,303,62091,1,0,0:0:0:0:
84,303,62191,2,0,P|133:290|203:281,1,112.5,2|0,3:2|0:0,0:0:0:0:
209,284,62591,2,0,P|240:316|215:361,1,75,2|0,3:2|0:0,0:0:0:0:
155,204,62991,37,2,3:2:0:0:
155,204,63091,1,8,0:0:0:0:
155,204,63191,1,8,0:0:0:0:
220,143,63391,2,0,L|213:89,3,37.5,2|8|8|8,3:2|0:0|0:0|0:0,0:0:0:0:
211,86,63791,6,0,P|277:97|345:110,1,112.5,6|0,3:2|0:0,0:0:0:0:
342,109,64191,2,0,P|336:62|332:29,1,75,2|2,3:2|0:0,0:0:0:0:
419,12,64591,2,0,P|423:49|428:86,1,75,4|0,3:0|0:0,0:0:0:0:
486,155,64991,1,2,3:2:0:0:
429,225,65191,1,10,3:2:0:0:
501,311,65391,38,0,P|440:313|375:346,1,112.5,2|0,3:2|0:0,0:0:0:0:
381,344,65791,1,2,3:2:0:0:
313,284,65991,1,2,0:0:0:0:
245,343,66191,2,0,P|193:355|158:371,1,75,4|0,3:0|0:0,0:0:0:0:
93,320,66591,1,2,3:2:0:0:
138,242,66791,1,2,0:0:0:0:
75,157,66991,5,2,3:2:0:0:
75,157,67191,2,0,P|23:169|-12:185,2,75,2|2|2,0:0|3:2|0:0,0:0:0:0:
140,97,67791,2,0,P|199:102|265:127,1,112.5,4|0,3:0|0:0,0:0:0:0:
267,126,68191,1,2,3:2:0:0:
345,81,68391,1,10,3:2:0:0:
413,139,68591,37,6,3:2:0:0:
413,139,70191,22,0,P|472:138|486:70,1,123.75000377655,4|0,3:1|0:0,0:0:0:0:
480,73,70591,2,0,P|461:37|408:37,1,82.5000025177003,2|2,0:0|0:0,0:0:0:0:
338,84,70991,2,0,P|285:90|250:100,1,82.5000025177003,10|0,0:0|0:0,0:0:0:0:
205,12,71391,2,0,P|258:6|293:-4,1,82.5000025177003,2|8,0:0|0:3,0:0:0:0:
178,88,71791,6,0,P|140:136|68:102,1,123.75000377655,2|0,0:0|0:0,0:0:0:0:
69,117,72191,2,0,P|80:181|82:216,1,82.5000025177003,2|0,3:2|0:0,0:0:0:0:
11,268,72591,2,0,P|49:316|121:282,1,123.75000377655,10|0,0:0|0:0,0:0:0:0:
121,296,72991,1,2,0:0:0:0:
187,369,73191,1,8,0:3:0:0:
313,304,73391,37,6,3:2:0:0:
391,364,73591,1,2,0:0:0:0:
487,332,73791,1,2,0:0:0:0:
487,332,73991,1,2,0:0:0:0:
486,233,74191,2,0,P|489:169|497:99,1,123.75000377655,10|0,0:0|0:0,0:0:0:0:
497,91,74591,2,0,P|462:58|412:85,1,82.5000025177003,0|8,0:0|0:3,0:0:0:0:
339,27,74991,5,2,0:0:0:0:
268,97,75191,1,8,0:3:0:0:
200,32,75391,1,0,3:0:0:0:
200,32,75591,1,2,0:3:0:0:
141,112,75791,2,0,P|104:159|33:130,1,123.75000377655,10|0,0:0|0:0,0:0:0:0:
33,151,76191,2,0,P|3:106|18:69,1,82.5000025177003,2|8,0:0|0:3,0:0:0:0:
87,20,76591,37,6,3:2:0:0:
266,171,76991,1,2,0:0:0:0:
266,171,77191,1,2,0:0:0:0:
348,116,77391,2,0,P|402:122|476:124,1,123.75000377655,10|0,0:0|0:0,0:0:0:0:
489,126,77791,2,0,P|484:164|483:217,1,82.5000025177003,2|8,0:0|0:3,0:0:0:0:
510,341,78191,6,0,P|463:293|394:319,1,123.75000377655,2|0,0:0|0:0,0:0:0:0:
406,292,78591,2,0,P|367:320|364:368,1,82.5000025177003,2|8,3:2|0:3,0:0:0:0:
266,296,78991,2,0,P|314:249|288:180,1,123.75000377655,10|0,0:0|0:0,0:0:0:0:
293,186,79391,1,2,0:0:0:0:
363,115,79591,1,8,0:3:0:0:
292,12,79791,37,6,3:2:0:0:
213,72,79991,1,2,0:0:0:0:
137,7,80191,1,2,0:0:0:0:
137,7,80391,1,2,0:0:0:0:
56,65,80591,2,0,P|66:130|73:202,1,123.75000377655,10|0,0:0|0:0,0:0:0:0:
71,204,80991,1,2,0:0:0:0:
18,288,81191,1,8,0:3:0:0:
87,358,81391,5,2,3:2:0:0:
182,332,81591,1,8,0:3:0:0:
277,306,81791,1,0,3:0:0:0:
277,306,82191,37,10,0:0:0:0:
359,361,82391,1,8,0:3:0:0:
447,317,82591,1,4,0:3:0:0:
456,218,82791,1,4,0:3:0:0:
380,139,82991,6,0,P|357:95|403:37,1,123.75000377655,4|0,3:1|0:0,0:0:0:0:
408,45,83391,2,0,P|454:48|480:90,1,82.5000025177003,2|2,0:0|0:0,0:0:0:0:
456,218,83791,2,0,P|409:225|367:240,1,82.5000025177003,10|0,0:0|0:0,0:0:0:0:
406,330,84191,2,0,P|445:317|486:311,1,82.5000025177003,2|8,0:0|0:3,0:0:0:0:
329,306,84591,38,0,P|266:293|195:286,1,123.75000377655,2|0,0:0|0:0,0:0:0:0:
191,291,84991,2,0,P|162:326|183:368,1,82.5000025177003,2|0,3:2|0:0,0:0:0:0:
291,217,85391,2,0,P|228:204|153:204,1,123.75000377655,10|0,0:0|0:0,0:0:0:0:
154,212,85791,1,2,0:0:0:0:
73,154,85991,1,4,0:3:0:0:
118,25,86191,5,6,3:2:0:0:
211,58,86391,1,2,0:0:0:0:
297,8,86591,1,2,0:0:0:0:
297,8,86791,1,2,0:0:0:0:
384,54,86991,2,0,P|373:105|368:140,1,82.5000025177003,10|0,0:0|0:0,0:0:0:0:
465,156,87391,2,0,P|471:115|480:75,1,82.5000025177003,8|8,0:3|0:3,0:0:0:0:
400,214,87791,37,2,0:0:0:0:
463,289,87991,1,8,0:3:0:0:
403,369,88191,1,2,3:2:0:0:
403,369,88391,1,2,0:3:0:0:
309,336,88591,2,0,P|246:341|175:362,1,123.75000377655,10|0,0:0|0:0,0:0:0:0:
171,358,88991,2,0,P|135:335|152:279,1,82.5000025177003,2|8,0:0|0:3,0:0:0:0:
221,251,89391,5,6,3:2:0:0:
63,112,89791,1,2,0:0:0:0:
63,112,89991,1,2,0:0:0:0:
127,37,90191,2,0,P|179:34|258:16,1,123.75000377655,10|0,0:0|0:0,0:0:0:0:
264,16,90591,2,0,P|266:53|279:111,1,82.5000025177003,2|8,0:0|0:3,0:0:0:0:
221,180,90991,38,0,P|234:244|238:310,1,123.75000377655,2|0,0:0|0:0,0:0:0:0:
235,318,91391,2,0,P|283:307|332:303,1,82.5000025177003,2|0,3:2|3:0,0:0:0:0:
413,287,91791,2,0,P|400:223|396:157,1,123.75000377655,10|0,0:0|0:0,0:0:0:0:
402,150,92191,1,2,0:0:0:0:
492,110,92391,1,2,0:0:0:0:
471,18,92591,21,6,3:2:0:0:
471,18,94391,21,8,3:2:0:0:
388,73,94591,1,8,3:2:0:0:
308,13,94791,1,8,3:2:0:0:
225,68,94991,1,8,3:2:0:0:
145,8,95191,1,8,3:2:0:0:
73,62,95391,2,0,P|84:129|90:179,1,112.5,8|0,3:2|0:0,0:0:0:0:
92,189,95791,22,0,P|41:182|10:178,2,67.4999979400635,2|2|2,0:0|0:0|0:0,0:0:0:0:
150,253,96391,1,2,0:0:0:0:
150,253,96591,2,0,P|143:304|139:335,2,67.4999979400635,2|2|2,0:0|0:0|0:0,0:0:0:0:
224,220,97191,1,0,0:0:0:0:
432,95,97791,6,0,P|483:102|514:106,1,67.4999979400635,2|2,0:0|0:0,0:0:0:0:
497,23,98191,2,0,P|446:16|415:12,1,67.4999979400635,2|2,0:0|0:0,0:0:0:0:
363,56,98591,1,2,0:0:0:0:
363,56,98791,2,0,P|267:69|218:78,1,134.999995880127,2|0,0:0|0:0,0:0:0:0:
161,36,99391,1,2,0:0:0:0:
161,36,99591,1,2,0:0:0:0:
102,91,99791,1,2,0:0:0:0:
102,91,101991,37,2,0:0:0:0:
66,163,102191,2,0,P|24:157|-11:153,2,67.4999979400635,2|2|2,0:0|0:0|0:0,0:0:0:0:
131,219,102791,1,2,0:0:0:0:
131,219,102991,2,0,P|173:213|208:209,1,67.4999979400635,2|2,0:0|0:0,0:0:0:0:
252,149,103391,2,0,P|285:144|318:140,1,67.4999979400635,2|2,0:0|0:0,0:0:0:0:
391,177,103791,5,2,0:0:0:0:
353,334,104191,2,0,P|319:338|286:342,1,67.4999979400635,2|2,0:0|0:0,0:0:0:0:
257,267,104591,2,0,P|290:262|323:258,2,67.4999979400635,2|2|2,0:0|0:0|0:0,0:0:0:0:
204,329,105191,2,0,P|161:358|97:295,1,134.999995880127,2|0,0:0|0:0,0:0:0:0:
126,243,105791,1,2,0:0:0:0:
126,243,105991,1,2,0:0:0:0:
63,186,106191,37,2,0:0:0:0:
63,186,108141,6,0,P|56:148|46:112,1,67.4999979400635,2|0,0:0|0:0,0:0:0:0:
93,53,108560,1,2,0:0:0:0:
256,192,108771,12,0,116238,0:0:0:0:
