osu file format v14

[General]
AudioFilename: audio.mp3
AudioLeadIn: 0
PreviewTime: 70104
Countdown: 0
SampleSet: Soft
StackLeniency: 0.8
Mode: 0
LetterboxInBreaks: 0
WidescreenStoryboard: 0

[Editor]
Bookmarks: 116250
DistanceSpacing: 0.2
BeatDivisor: 4
GridSize: 16
TimelineZoom: 1

[Metadata]
Title:Mephisto (TV Size)
TitleUnicode:メフィスト (TV Size)
Artist:QUEEN BEE
ArtistUnicode:女王蜂
Creator:KaedeharaKazuha
Version:Easy
Source:【推しの子】
Tags:Addy2607 Kaedehara Kazuha Kyouren gokugohan12468 KittyAdventure Ascended -ascended- -_ascended_- AirinCat 【Oshi [Oshi "Oshi Oshi no Ko Ko" Ko] Ko】 My Star japanese rock jrock j-rock anime ending ed outro theme song Ziyoou-vachi AVU AVU-CHAN アヴ アヴちゃん YASHI-CHAN YASHI やし やしちゃん RURI RURI-CHAN ルリ ルリちゃん HIBARI HIBARI-CHAN ひばり ひばりちゃん Aquamarine Aqua Hoshino 星野愛久愛海 星野アクア Their Idol's Children
BeatmapID:4107398
BeatmapSetID:1978432

[Difficulty]
HPDrainRate:2
CircleSize:2.5
OverallDifficulty:2
ApproachRate:3
SliderMultiplier:0.9
SliderTickRate:1

[Events]
//Background and Video events
Video,0,"video.mp4"
0,0,"BG.jpg",0,0
//Break Periods
//Storyboard Layer 0 (Background)
//Storyboard Layer 1 (Fail)
//Storyboard Layer 2 (Pass)
//Storyboard Layer 3 (Foreground)
//Storyboard Layer 4 (Overlay)
//Storyboard Sound Samples

[TimingPoints]
565,410.958904109589,4,1,1,100,1,0
1386,508.474576271186,4,1,1,100,1,0
1894,550.45871559633,4,1,1,100,1,0
3545,508.474576271186,4,1,1,100,1,0
6595,540.54054054054,4,1,1,100,1,0
7135,697.674418604651,4,2,1,100,1,0
7832,370.37037037037,4,2,1,100,1,0
8202,458.015267175573,4,2,1,100,1,0
8660,530.973451327434,4,2,1,30,1,0
12907,540.54054054054,4,2,1,30,1,0
15069,428.571428571428,4,2,1,50,1,0
15497,365.853658536585,4,2,1,50,1,0
15862,588.235294117647,4,2,1,50,1,0
16156,521.739130434783,4,2,1,50,1,0
16677,714.285714285714,4,2,1,50,1,0
17391,400,4,2,1,70,1,0
17391,-100,4,2,1,70,0,0
30191,-100,4,2,1,50,0,0
33391,-100,4,2,1,50,0,0
42991,-100,4,2,1,60,0,0
55791,-100,4,2,2,80,0,0
57391,-100,4,2,2,70,0,0
62991,-100,4,2,1,70,0,0
63791,-100,4,2,2,70,0,0
68591,-100,4,2,4,50,0,0
70191,-100,4,2,3,85,0,1
92591,389.61038961039,4,2,4,60,1,0
92591,-100,4,2,4,60,0,0
93954,441.176470588235,4,2,3,60,1,0
94174,434.782608695652,4,2,3,60,1,0
94391,400,4,2,3,90,1,0
94391,-100,4,2,3,90,0,1
95391,-100,4,2,3,60,0,0
95791,400,4,2,1,40,1,0
95791,-100,4,2,1,40,0,0
107791,350.877192982456,4,2,1,40,1,0
108141,419.58041958042,4,2,1,40,1,0
108560,422.535211267606,4,2,1,40,1,0
108982,405.405405405405,4,2,1,40,1,0
109387,384.615384615385,4,2,1,40,1,0
110156,410.958904109589,4,2,1,40,1,0
111799,-100,4,2,1,30,0,0
112210,500,4,2,1,20,1,0
112710,441.176470588235,4,2,1,20,1,0
116239,-100,4,2,1,5,0,0

[Colours]
Combo1 : 252,114,176
Combo2 : 177,177,177
Combo3 : 114,114,114
Combo4 : 102,214,251

[HitObjects]
61,317,17391,38,0,P|106:316|157:335,1,90,4|10,3:1|0:0,0:0:0:0:
231,294,18191,2,0,P|230:249|249:198,1,90,2|10,0:0|0:0,0:0:0:0:
193,132,18991,1,2,3:2:0:0:
248,61,19391,2,0,P|315:60|381:44,1,135,10|2,0:0|3:2,0:0:0:0:
490,123,20591,6,0,P|484:167|492:211,1,90,2|10,3:2|0:0,0:0:0:0:
449,291,21391,2,0,P|404:285|360:293,1,90,2|10,0:0|0:0,0:0:0:0:
285,343,22191,1,2,3:2:0:0:
234,268,22591,2,0,P|243:200|260:88,1,180,10|10,0:0|0:0,0:0:0:0:
192,30,23791,38,0,P|149:29|121:70,1,90,6|10,3:2|0:0,0:0:0:0:
31,62,24591,2,0,P|8:98|30:143,1,90,2|10,0:0|0:0,0:0:0:0:
84,207,25391,1,2,3:2:0:0:
30,279,25791,2,0,P|96:261|182:259,1,135,10|2,0:0|3:2,0:0:0:0:
231,140,26991,6,0,P|276:137|320:125,1,90,2|10,3:2|0:0,0:0:0:0:
380,64,27791,2,0,P|415:37|461:56,1,90,2|10,0:0|0:0,0:0:0:0:
507,123,28591,1,2,3:2:0:0:
480,209,28991,2,0,P|394:220|302:241,1,180,10|10,0:0|0:0,0:0:0:0:
227,190,30191,6,0,P|201:236|221:279,2,90,0|0|2,0:0|0:0|0:0,0:0:0:0:
283,119,31391,1,2,0:0:0:0:
225,49,31791,2,0,P|172:55|120:48,1,90,2|2,0:0|0:0,0:0:0:0:
53,14,32591,1,2,0:0:0:0:
105,186,33391,5,0,3:0:0:0:
43,251,33791,1,10,0:0:0:0:
102,318,34191,2,0,P|146:309|202:307,1,90,2|10,0:0|0:0,0:0:0:0:
269,351,34991,2,0,P|313:342|369:340,1,90,2|10,3:2|0:0,0:0:0:0:
446,354,35791,1,2,0:0:0:0:
502,183,36591,37,0,3:0:0:0:
447,111,36991,1,10,0:0:0:0:
362,142,37391,2,0,P|310:148|271:157,1,90,2|10,0:0|0:0,0:0:0:0:
204,98,38191,2,0,P|175:65|132:69,1,90,2|10,3:2|0:0,0:0:0:0:
73,138,38991,1,2,0:0:0:0:
191,273,39791,6,0,P|249:258|286:254,1,90,2|10,3:2|0:0,0:0:0:0:
328,179,40591,1,2,0:0:0:0:
457,217,41191,2,0,P|491:247|471:334,1,135,2|10,0:0|0:0,0:0:0:0:
398,370,42191,2,0,P|353:361|303:355,1,90,0|8,0:0|0:0,0:0:0:0:
223,383,42991,37,4,3:2:0:0:
160,318,43391,1,10,0:0:0:0:
206,241,43791,2,0,P|200:196|190:149,1,90,2|10,0:0|0:0,0:0:0:0:
207,63,44591,2,0,P|162:72|118:78,1,90,2|10,3:2|0:0,0:0:0:0:
37,118,45391,1,2,0:0:0:0:
71,201,45791,1,10,0:0:0:0:
22,276,46191,5,0,3:0:0:0:
56,359,46591,1,10,0:0:0:0:
145,346,46991,2,0,P|207:353|246:361,1,90,2|10,0:0|0:0,0:0:0:0:
315,320,47791,2,0,P|322:258|330:219,1,90,2|10,3:2|0:0,0:0:0:0:
396,173,48591,1,2,0:0:0:0:
314,12,49391,37,0,3:0:0:0:
243,67,49791,1,10,0:0:0:0:
171,12,50191,2,0,P|120:19|72:19,1,90,2|10,0:0|0:0,0:0:0:0:
17,83,50991,2,0,P|24:134|24:182,1,90,2|10,3:2|0:0,0:0:0:0:
87,237,51791,1,2,0:0:0:0:
237,138,52591,6,0,P|298:127|337:110,1,90,2|10,3:2|0:0,0:0:0:0:
411,138,53391,1,2,0:0:0:0:
400,272,53991,2,0,P|333:282|269:305,1,135,2|10,0:0|0:0,0:0:0:0:
191,349,54991,2,0,P|147:320|155:272,1,90,0|8,0:0|0:0,0:0:0:0:
200,214,55791,5,4,3:0:0:0:
260,147,56191,1,4,3:0:0:0:
254,57,56591,1,4,3:0:0:0:
169,26,56991,1,8,3:2:0:0:
89,68,57391,22,0,P|42:57|-10:52,2,90,6|2|4,3:2|3:2|3:0,0:0:0:0:
137,143,58591,1,2,3:2:0:0:
71,204,58991,2,0,P|65:248|55:292,1,90,2|2,3:2|3:2,0:0:0:0:
109,364,59791,1,4,3:0:0:0:
286,336,60591,6,0,P|291:291|301:247,1,90,2|2,3:2|3:2,0:0:0:0:
225,199,61391,2,0,P|219:154|209:110,1,90,4|2,3:0|3:2,0:0:0:0:
252,31,62191,1,2,3:2:0:0:
341,42,62591,1,2,3:2:0:0:
375,125,62991,1,2,3:2:0:0:
340,207,63391,1,2,3:2:0:0:
395,277,63791,38,0,P|442:268|499:263,2,90,6|2|4,3:2|3:2|3:0,0:0:0:0:
342,350,64991,1,2,3:2:0:0:
253,332,65391,2,0,P|208:336|164:345,1,90,2|2,3:2|3:2,0:0:0:0:
80,310,66191,2,0,P|75:265|66:221,1,90,4|2,3:0|3:2,0:0:0:0:
138,166,66991,5,2,3:2:0:0:
206,224,67391,1,2,3:2:0:0:
289,191,67791,2,0,P|294:146|303:102,1,90,4|2,3:0|3:2,0:0:0:0:
242,35,68591,1,6,3:2:0:0:
242,35,70191,6,0,P|204:94|105:74,1,180,4|10,3:1|0:0,0:0:0:0:
32,26,71391,1,2,0:0:0:0:
4,111,71791,2,0,P|17:174|21:219,1,90,2|2,0:0|3:2,0:0:0:0:
20,289,72591,2,0,P|83:276|128:272,1,90,10|2,0:0|0:0,0:0:0:0:
183,322,73391,6,0,P|246:309|291:305,1,90,6|2,3:2|0:0,0:0:0:0:
316,228,74191,1,10,0:0:0:0:
256,160,74591,1,0,0:0:0:0:
309,87,74991,2,0,P|353:81|397:71,1,90,2|0,0:0|3:0,0:0:0:0:
477,112,75791,1,10,0:0:0:0:
440,194,76191,1,2,0:0:0:0:
472,277,76591,38,0,P|383:289|294:309,1,180,6|10,3:2|0:0,0:0:0:0:
222,362,77791,1,2,0:0:0:0:
137,324,78191,2,0,P|114:283|142:238,1,90,2|2,0:0|3:2,0:0:0:0:
81,170,78991,2,0,P|105:129|157:131,1,90,10|2,0:0|0:0,0:0:0:0:
230,95,79791,6,0,P|224:59|215:-7,2,90,6|2|10,3:2|0:0|0:0,0:0:0:0:
306,142,80991,1,2,0:0:0:0:
254,216,81391,2,0,P|261:260|267:304,1,90,2|0,3:2|3:0,0:0:0:0:
338,360,82191,1,10,0:0:0:0:
485,256,82991,38,0,P|471:163|460:71,1,180,4|10,3:1|0:0,0:0:0:0:
399,11,84191,1,2,0:0:0:0:
346,83,84591,2,0,P|353:135|360:189,1,90,2|2,0:0|3:2,0:0:0:0:
392,255,85391,2,0,P|347:260|303:268,1,90,10|2,0:0|0:0,0:0:0:0:
239,332,86191,6,0,P|194:337|150:345,1,90,6|2,3:2|0:0,0:0:0:0:
78,289,86991,1,10,0:0:0:0:
128,214,87391,1,8,0:3:0:0:
49,170,87791,2,0,P|43:125|36:81,1,90,2|2,0:0|3:2,0:0:0:0:
93,11,88591,1,10,0:0:0:0:
166,63,88991,1,2,0:0:0:0:
243,18,89391,38,0,P|299:17|303:130,1,180,6|10,3:2|0:0,0:0:0:0:
251,181,90591,1,2,0:0:0:0:
309,249,90991,2,0,P|356:242|407:237,1,90,2|2,0:0|3:2,0:0:0:0:
428,322,91791,2,0,P|383:326|338:333,1,90,10|2,0:0|0:0,0:0:0:0:
261,380,92591,1,6,3:2:0:0:
261,380,94391,6,0,P|256:329|242:243,1,135,8|8,3:2|3:2,0:0:0:0:
291,170,95391,1,8,3:2:0:0:
226,106,95791,6,0,B|166:49|105:26|-12:42|-15:120|18:194|73:185|108:160,2,360,2|0|0,0:0|0:0|0:0,0:0:0:0:
306,62,99391,1,2,0:0:0:0:
382,110,99791,2,0,P|425:120|475:13,2,180,2|0|0,0:0|0:0|0:0,0:0:0:0:
206,149,102191,6,0,B|263:209|286:270|270:387|192:390|118:357|127:302|152:267,2,360,2|2|0,0:0|0:0|0:0,0:0:0:0:
156,73,105791,1,2,0:0:0:0:
91,136,106191,2,0,P|26:148|14:50,2,180,2|0|0,0:0|0:0|0:0,0:0:0:0:
157,75,108141,1,2,0:0:0:0:
206,149,108560,37,2,0:0:0:0:
256,192,108771,12,0,116238,0:0:0:0:
