osu file format v14

[General]
AudioFilename: audio.mp3
AudioLeadIn: 0
PreviewTime: 70104
Countdown: 0
SampleSet: Soft
StackLeniency: 0.7
Mode: 0
LetterboxInBreaks: 0
WidescreenStoryboard: 1

[Editor]
Bookmarks: 116250
DistanceSpacing: 0.2
BeatDivisor: 8
GridSize: 16
TimelineZoom: 1

[Metadata]
Title:Mephisto (TV Size)
TitleUnicode:メフィスト (TV Size)
Artist:QUEEN BEE
ArtistUnicode:女王蜂
Creator:KaedeharaKazuha
Version:Beginner
Source:【推しの子】
Tags:Addy2607 Kaedehara Kazuha Kyouren gokugohan12468 KittyAdventure Ascended -ascended- -_ascended_- AirinCat 【Oshi [Oshi "Oshi Oshi no Ko Ko" Ko] Ko】 My Star japanese rock jrock j-rock anime ending ed outro theme song Ziyoou-vachi AVU AVU-CHAN アヴ アヴちゃん YASHI-CHAN YASHI やし やしちゃん RURI RURI-CHAN ルリ ルリちゃん HIBARI HIBARI-CHAN ひばり ひばりちゃん Aquamarine Aqua Hoshino 星野愛久愛海 星野アクア Their Idol's Children
BeatmapID:4107851
BeatmapSetID:1978432

[Difficulty]
HPDrainRate:1
CircleSize:2
OverallDifficulty:1
ApproachRate:2
SliderMultiplier:0.7
SliderTickRate:1

[Events]
//Background and Video events
Video,0,"video.mp4"
0,0,"BG.jpg",0,0
//Break Periods
2,30391,31831
//Storyboard Layer 0 (Background)
//Storyboard Layer 1 (Fail)
//Storyboard Layer 2 (Pass)
//Storyboard Layer 3 (Foreground)
//Storyboard Layer 4 (Overlay)
//Storyboard Sound Samples

[TimingPoints]
565,410.958904109589,4,1,1,100,1,0
1386,508.474576271186,4,1,1,100,1,0
1894,550.45871559633,4,1,1,100,1,0
3545,508.474576271186,4,1,1,100,1,0
6595,540.54054054054,4,1,1,100,1,0
7135,697.674418604651,4,2,1,100,1,0
7832,370.37037037037,4,2,1,100,1,0
8202,458.015267175573,4,2,1,100,1,0
8660,530.973451327434,4,2,1,30,1,0
12907,540.54054054054,4,2,1,30,1,0
15069,428.571428571428,4,2,1,50,1,0
15497,365.853658536585,4,2,1,50,1,0
15862,588.235294117647,4,2,1,50,1,0
16156,521.739130434783,4,2,1,50,1,0
16677,714.285714285714,4,2,1,50,1,0
17391,400,4,2,1,70,1,0
17391,-100,4,2,1,70,0,0
30191,-100,4,2,1,50,0,0
33391,-100,4,2,1,50,0,0
42991,-100,4,2,1,60,0,0
55791,-100,4,2,2,80,0,0
57391,-100,4,2,2,70,0,0
62991,-100,4,2,1,70,0,0
63791,-100,4,2,2,70,0,0
68591,-100,4,2,4,50,0,0
70191,-100,4,2,3,85,0,1
92591,389.61038961039,4,2,4,60,1,0
92591,-100,4,2,4,60,0,0
93954,441.176470588235,4,2,3,60,1,0
94174,434.782608695652,4,2,3,60,1,0
94391,400,4,2,3,90,1,0
94391,-100,4,2,3,90,0,1
95391,-100,4,2,3,60,0,0
95791,400,4,2,1,40,1,0
95791,-100,4,2,1,40,0,0
107791,350.877192982456,4,2,1,40,1,0
108141,419.58041958042,4,2,1,40,1,0
108560,422.535211267606,4,2,1,40,1,0
108982,405.405405405405,4,2,1,40,1,0
109387,384.615384615385,4,2,1,40,1,0
110156,410.958904109589,4,2,1,40,1,0
111799,-100,4,2,1,30,0,0
112210,500,4,2,1,20,1,0
112710,441.176470588235,4,2,1,20,1,0
116239,-100,4,2,1,5,0,0

[Colours]
Combo1 : 252,114,176
Combo2 : 177,177,177
Combo3 : 114,114,114
Combo4 : 102,214,251

[HitObjects]
62,320,17391,38,0,P|56:258|41:172,1,140,4|2,3:1|0:0,0:0:0:0:
32,124,18591,1,10,0:0:0:0:
32,124,18991,2,0,P|56:92|98:93,1,70,2|10,3:2|0:0,0:0:0:0:
210,123,20191,1,10,0:0:0:0:
210,123,20591,2,0,P|281:111|356:105,1,140,2|2,3:2|0:0,0:0:0:0:
416,111,21791,1,10,0:0:0:0:
416,111,22191,2,0,P|435:150|427:179,1,70,2|10,3:2|0:0,0:0:0:0:
488,292,23391,1,10,0:0:0:0:
488,292,23791,6,0,P|405:297|342:315,1,140,6|2,3:2|0:0,0:0:0:0:
297,290,24991,1,10,0:0:0:0:
297,290,25391,2,0,P|294:248|285:217,1,70,2|10,3:2|0:0,0:0:0:0:
266,101,26591,1,10,0:0:0:0:
266,101,26991,2,0,P|198:117|128:120,1,140,2|2,3:2|0:0,0:0:0:0:
80,159,28191,1,10,0:0:0:0:
80,159,28591,2,0,P|88:192|90:227,1,70,2|10,3:2|0:0,0:0:0:0:
22,335,29791,1,10,0:0:0:0:
22,335,30191,5,0,0:0:0:0:
22,335,33391,6,0,P|88:340|168:363,1,140,0|2,3:0|0:0,0:0:0:0:
222,342,34591,1,10,0:0:0:0:
222,342,34991,1,2,3:2:0:0:
152,236,35791,1,2,0:0:0:0:
227,134,36591,38,0,P|293:129|373:106,1,140,0|2,3:0|0:0,0:0:0:0:
488,131,38191,2,0,P|498:98|482:62,2,70,2|10|2,3:2|0:0|0:0,0:0:0:0:
469,194,39391,1,10,0:0:0:0:
469,194,39791,2,0,P|409:203|326:223,1,140,2|2,3:2|0:0,0:0:0:0:
264,288,41191,2,0,P|201:257|208:195,1,140,2|2,0:0|3:2,0:0:0:0:
281,136,42591,1,8,0:0:0:0:
281,136,42991,6,0,P|342:113|341:44,1,140,4|2,3:2|0:0,0:0:0:0:
297,11,44191,1,10,0:0:0:0:
297,11,44591,1,2,3:2:0:0:
181,60,45391,1,2,0:0:0:0:
61,20,46191,2,0,P|76:69|81:172,1,140,0|2,3:0|0:0,0:0:0:0:
45,209,47391,1,10,0:0:0:0:
45,209,47791,1,2,3:2:0:0:
109,317,48591,1,2,0:0:0:0:
226,271,49391,38,0,P|284:277|370:307,1,140,0|2,3:0|0:0,0:0:0:0:
478,256,50991,2,0,P|497:294|488:329,2,70,2|10|2,3:2|0:0|0:0,0:0:0:0:
445,209,52191,1,10,0:0:0:0:
445,209,52591,2,0,P|453:162|472:70,1,140,2|2,3:2|0:0,0:0:0:0:
397,13,53991,2,0,P|352:-2|315:77,1,140,2|2,0:0|3:2,0:0:0:0:
280,158,55391,1,8,0:0:0:0:
280,158,55791,22,0,P|321:160|358:173,2,70,4|4|4,3:0|3:0|3:0,0:0:0:0:
239,206,56991,1,8,3:2:0:0:
239,206,57391,22,0,P|201:257|129:246,1,140,6|4,3:2|3:0,0:0:0:0:
86,213,58591,1,2,3:2:0:0:
86,213,58991,2,0,P|79:158|59:64,1,140,2|4,3:2|3:0,0:0:0:0:
184,103,60591,2,0,P|191:138|198:176,2,70,2|2|4,3:2|3:2|3:0,0:0:0:0:
224,55,61791,1,2,3:2:0:0:
224,55,62191,2,0,P|301:59|363:30,1,140,2|2,3:2|3:2,0:0:0:0:
423,23,63391,1,2,3:2:0:0:
423,23,63791,6,0,P|474:53|446:129,1,140,6|4,3:2|3:0,0:0:0:0:
406,156,64991,1,2,3:2:0:0:
406,156,65391,2,0,P|355:186|383:262,1,140,2|4,3:2|3:0,0:0:0:0:
459,345,66991,2,0,P|380:349|311:374,1,140,2|4,3:2|3:0,0:0:0:0:
269,348,68191,1,2,3:2:0:0:
269,348,68591,1,6,3:2:0:0:
269,348,70191,6,0,P|264:279|246:201,1,140,4|10,3:1|0:0,0:0:0:0:
307,98,71791,2,0,P|341:77|416:132,1,140,2|10,0:0|0:0,0:0:0:0:
443,189,72991,1,2,0:0:0:0:
443,189,73391,2,0,P|491:183|522:183,2,70,6|2|10,3:2|0:0|0:0,0:0:0:0:
370,292,74991,2,0,P|335:293|300:298,1,70,2|0,0:0|3:0,0:0:0:0:
238,311,75791,1,10,0:0:0:0:
115,283,76591,6,0,P|61:234|86:178,1,140,6|10,3:2|0:0,0:0:0:0:
184,105,78191,2,0,P|257:102|330:91,1,140,2|10,0:0|0:0,0:0:0:0:
387,77,79391,1,2,0:0:0:0:
387,77,79791,2,0,P|400:44|384:4,2,70,6|2|10,3:2|0:0|0:0,0:0:0:0:
462,177,81391,2,0,P|468:228|473:256,1,70,2|0,3:2|3:0,0:0:0:0:
436,299,82191,2,0,P|385:305|357:310,1,70,10|4,0:0|0:3,0:0:0:0:
318,267,82991,38,0,P|307:176|298:126,1,140,4|10,3:1|0:0,0:0:0:0:
229,22,84591,2,0,P|218:64|127:75,1,140,2|10,0:0|0:0,0:0:0:0:
75,70,85791,1,2,0:0:0:0:
75,70,86191,2,0,P|70:27|63:-7,2,70,6|2|10,3:2|0:0|0:0,0:0:0:0:
12,179,87791,2,0,P|18:213|22:248,1,70,2|2,0:0|3:2,0:0:0:0:
29,310,88591,1,10,0:0:0:0:
146,356,89391,6,0,P|218:340|291:331,1,140,6|10,3:2|0:0,0:0:0:0:
408,349,90991,2,0,P|477:341|475:274,1,140,2|10,0:0|0:0,0:0:0:0:
441,241,92191,1,2,0:0:0:0:
441,241,92591,1,6,3:2:0:0:
441,241,94391,38,0,P|379:242|267:264,1,175,8|8,3:2|3:2,0:0:0:0:
206,274,95791,22,0,P|138:234|256:170,2,280,2|0|0,0:0|0:0|0:0,0:0:0:0:
325,313,99791,2,0,P|388:297|471:290,2,140,2|0|0,0:0|0:0|0:0,0:0:0:0:
220,245,102191,2,0,B|157:183|76:280|128:275|71:389|-13:326,2,280,2|2|0,0:0|0:0|0:0,0:0:0:0:
315,163,106191,2,0,P|342:104|288:43,2,140,2|0|0,0:0|0:0|0:0,0:0:0:0:
370,263,108560,5,2,0:0:0:0:
256,192,108982,12,0,116238,0:0:0:0:
