osu file format v14

[General]
AudioFilename: audio.mp3
AudioLeadIn: 0
PreviewTime: 70216
Countdown: 0
SampleSet: Soft
StackLeniency: 0.3
Mode: 0
LetterboxInBreaks: 0
WidescreenStoryboard: 0

[Editor]
DistanceSpacing: 1
BeatDivisor: 8
GridSize: 32
TimelineZoom: 2.5

[Metadata]
Title:Mephisto
TitleUnicode:メフィスト
Artist:QUEEN BEE
ArtistUnicode:女王蜂
Creator:Pepekcz
Version:Revenge
Source:【推しの子】
Tags:-Lian- Lian2002 【Oshi [Oshi "Oshi Oshi no Ko Ko" Ko] Ko】 My Star japanese rock jrock j-rock vocal vocalist male anime ending ed outro theme song Ziyoou-vachi AVU AVU-CHAN アヴ アヴちゃん YASHI-CHAN YASHI やし やしちゃん RURI RURI-CHAN ルリ ルリちゃん HIBARI HIBARI-CHAN ひばり ひばりちゃん Aquamarine Aqua Hoshino 星野愛久愛海 星野アクア Their Idol's Children
BeatmapID:4110015
BeatmapSetID:1979581

[Difficulty]
HPDrainRate:5.5
CircleSize:4.5
OverallDifficulty:8.5
ApproachRate:9
SliderMultiplier:2.18
SliderTickRate:1

[Events]
//Background and Video events
0,0,"image.jpg",0,0
//Break Periods
2,30466,31266
2,195266,197266
2,203065,204066
//Storyboard Layer 0 (Background)
//Storyboard Layer 1 (Fail)
//Storyboard Layer 2 (Pass)
//Storyboard Layer 3 (Foreground)
//Storyboard Layer 4 (Overlay)
//Storyboard Sound Samples

[TimingPoints]
640,410.958904109589,4,2,1,50,1,0
1461,508.474576271186,4,2,1,50,1,0
1969,550.45871559633,4,2,1,50,1,0
3620,508.474576271186,4,2,1,50,1,0
6670,540.54054054054,4,2,1,50,1,0
7210,697.674418604651,4,2,1,50,1,0
7907,370.37037037037,4,2,1,50,1,0
8277,458.015267175573,4,2,3,50,1,0
8735,530.973451327434,4,2,3,50,1,0
8735,-222.222222222222,4,2,3,50,0,0
12982,540.54054054054,4,2,1,50,1,0
12982,-333.333333333333,4,2,1,50,0,0
15144,428.571428571428,4,2,1,50,1,0
15144,-250,4,2,1,50,0,0
15572,365.853658536585,4,2,1,50,1,0
15572,-250,4,2,1,50,0,0
15937,588.235294117647,4,2,1,50,1,0
15937,-125,4,2,1,50,0,0
16231,521.739130434783,4,2,1,50,1,0
16231,-166.666666666667,4,2,1,50,0,0
16752,714.285714285714,4,2,1,50,1,0
17466,400,4,2,1,80,1,0
17466,-100,4,2,1,80,0,0
20066,-76.9230769230769,4,2,1,80,0,0
20266,-142.857142857143,4,2,1,80,0,0
20666,-100,4,2,1,80,0,0
23266,-76.9230769230769,4,2,1,80,0,0
23466,-100,4,2,1,80,0,0
23666,-142.857142857143,4,2,1,80,0,0
23866,-100,4,2,1,80,0,0
26466,-76.9230769230769,4,2,1,80,0,0
26666,-142.857142857143,4,2,1,80,0,0
27066,-100,4,2,1,80,0,0
29666,-76.9230769230769,4,2,1,80,0,0
30066,-142.857142857143,4,2,1,80,0,0
31866,-142.857142857143,4,2,1,60,0,0
33466,-142.857142857143,4,2,1,70,0,0
55266,-100,4,2,1,70,0,0
55866,-111.111111111111,4,2,2,75,0,0
57466,-111.111111111111,4,2,1,80,0,0
68666,-111.111111111111,4,2,3,80,0,0
70266,-90.9090909090908,4,2,3,90,0,1
72266,-66.6666666666667,4,2,3,90,0,1
72666,-200,4,2,3,90,0,1
73466,-90.9090909090909,4,2,3,90,0,1
79066,-200,4,2,3,90,0,1
79866,-90.9090909090909,4,2,3,90,0,1
85066,-66.6666666666667,4,2,3,90,0,1
85466,-200,4,2,3,90,0,1
86266,-90.9090909090909,4,2,3,90,0,1
91866,-200,4,2,3,90,0,1
92666,389.61038961039,4,2,1,80,1,0
94029,441.176470588235,4,2,1,80,1,0
94249,434.782608695652,4,2,1,80,1,0
94466,400,4,2,1,80,1,0
94466,-76.9230769230769,4,2,1,80,0,0
95866,400,4,2,1,70,1,0
95866,-142.857142857143,4,2,1,70,0,0
108066,-100,4,2,1,70,0,0
108666,-111.111111111111,4,2,2,75,0,0
110266,-400,4,2,3,60,0,0
116666,-500,4,2,3,60,0,0
121366,-500,4,2,3,5,0,0
121466,-500,4,2,3,70,0,0
123066,-90.9090909090909,4,2,1,80,0,1
142866,-200,4,2,1,80,0,1
143266,-90.9090909090909,4,2,1,80,0,1
143666,-200,4,2,1,80,0,1
144066,-90.9090909090909,4,2,1,80,0,1
148666,-333.333333333333,4,2,1,50,0,0
160666,-166.666666666667,4,2,1,60,0,0
161466,-125,4,2,1,70,0,0
167866,-111.111111111111,4,2,1,80,0,0
171066,-100,4,2,1,80,0,0
172266,-200,4,2,1,80,0,0
172666,-90.9090909090909,4,2,3,90,0,1
174666,-66.6666666666667,4,2,3,90,0,1
175066,-200,4,2,3,90,0,1
175866,-90.9090909090909,4,2,3,90,0,1
181066,-250,4,2,3,90,0,1
181466,-200,4,2,3,90,0,1
182266,-90.9090909090909,4,2,3,90,0,1
184666,-90.9090909090909,4,2,1,90,0,1
185466,-90.9090909090909,4,2,3,90,0,1
187466,-66.6666666666667,4,2,3,90,0,1
187866,-200,4,2,3,90,0,1
188666,-90.9090909090909,4,2,3,90,0,1
194266,-200,4,2,3,90,0,1
195066,-100,4,2,3,60,0,0
197866,-166.666666666667,4,2,3,60,0,0
198266,-166.666666666667,4,2,1,50,0,0
210266,350.877192982456,4,2,1,50,1,0
210616,419.58041958042,4,2,1,50,1,0
210702,419.58041958042,4,2,1,50,1,0
211035,422.535211267606,4,2,3,50,1,0
211035,-501.25313283208,4,2,3,50,0,0
211457,405.405405405405,4,2,1,50,1,0
211862,384.615384615385,4,2,1,50,1,0
212631,410.958904109589,4,2,1,50,1,0
214685,500,4,2,1,50,1,0
215185,384.615384615385,4,2,1,50,1,0
216080,389.61038961039,4,2,1,50,1,0
216666,412.371134020619,4,2,1,50,1,0
217492,384.615384615385,4,2,1,50,1,0
217492,-580.046403712297,4,2,1,50,0,0
218261,384.615384615385,4,2,1,50,1,0
219415,476.190476190476,4,2,1,50,1,0

[Colours]
Combo1 : 170,213,255
Combo2 : 255,255,193

[HitObjects]
182,125,8735,6,0,B|138:92|132:34|216:-2|271:-2|328:62|359:158|299:274|194:216|189:216|184:216|178:216|129:237|94:261|81:295|81:295|58:340|134:337|110:259|157:232|228:236,1,735.749977546693,4|0,2:1|0:0,0:0:0:0:
364,292,12982,6,0,B|437:312|409:414|286:390|291:277,1,245.249992515564,2|0,0:1|0:0,0:0:0:0:
200,196,15144,6,0,P|215:171|249:153,1,65.4,2|0,0:0|0:0,0:0:0:0:
240,79,15572,2,0,P|273:79|302:102,1,65.4,2|0,0:0|0:0,0:0:0:0:
368,72,15937,2,0,P|374:92|372:123,1,43.6,2|0,0:0|0:0,0:0:0:0:
444,142,16231,6,0,P|379:153|320:179,1,130.799996008301,2|2,0:0|0:0,0:0:0:0:
112,361,17466,6,0,P|48:350|57:257,1,163.5,6|0,3:2|0:0,0:0:0:0:
113,204,17866,1,2,1:2:0:0:
225,288,18066,1,0,3:2:0:0:
39,190,18266,2,0,P|30:142|14:72,1,109,2|0,0:2|0:2,0:0:0:0:
219,39,18666,1,2,1:2:0:0:
136,104,18866,1,2,0:2:0:0:
322,226,19066,6,0,P|331:178|347:108,1,109,6|0,3:3|0:2,0:0:0:0:
219,39,19466,2,0,L|227:92,1,54.5,2|0,1:2|0:0,0:0:0:0:
183,219,19666,2,0,P|224:163|274:176,1,109,0|0,3:2|0:2,0:0:0:0:
461,327,20066,6,0,L|472:255,1,70.8499967567445,2|0,3:2|0:0,0:0:0:0:
322,226,20266,2,0,L|327:268,1,38.1499988357544,2|0,1:2|0:0,0:0:0:0:
252,236,20466,2,0,L|257:278,1,38.1499988357544,2|0,0:2|0:0,0:0:0:0:
337,371,20666,6,0,P|258:349|177:335,1,163.5,6|0,3:3|0:0,0:0:0:0:
70,360,21066,1,2,1:2:0:0:
179,259,21266,1,0,3:2:0:0:
73,160,21466,2,0,P|86:215|98:275,1,109,2|0,0:2|0:2,0:0:0:0:
225,134,21866,1,2,1:2:0:0:
155,178,22066,1,2,0:2:0:0:
40,41,22266,6,0,P|93:40|127:95,1,109,6|0,3:3|0:2,0:0:0:0:
9,165,22666,2,0,L|1:110,1,54.5,2|0,1:2|0:0,0:0:0:0:
4,250,22866,2,0,P|56:251|89:210,1,109,0|2,3:2|0:2,0:0:0:0:
198,34,23266,6,0,P|222:37|262:76,1,70.8499967567445,2|0,3:2|0:0,0:0:0:0:
333,38,23466,2,0,P|341:63|335:89,1,54.5,2|0,1:2|0:0,0:0:0:0:
391,132,23666,2,0,P|379:147|363:157,1,38.1499988357544,2|0,0:2|0:0,0:0:0:0:
202,137,23866,6,0,P|267:152|281:254,1,163.5,6|0,3:3|0:0,0:0:0:0:
251,312,24266,1,2,1:2:0:0:
126,188,24466,1,0,3:2:0:0:
333,301,24666,2,0,P|373:288|446:276,1,109,2|0,0:2|0:2,0:0:0:0:
496,89,25066,1,2,1:2:0:0:
420,177,25266,1,2,0:2:0:0:
510,375,25466,6,0,P|458:359|405:351,1,109,6|0,3:3|0:2,0:0:0:0:
228,253,25866,2,0,P|222:284|239:314,1,54.5,2|0,1:2|0:0,0:0:0:0:
312,318,26066,2,0,P|329:267|291:214,1,109,0|0,3:2|0:2,0:0:0:0:
110,168,26466,6,0,P|114:133|120:92,1,70.8499967567445,2|0,3:2|0:0,0:0:0:0:
201,189,26666,2,0,P|191:166|180:139,1,38.1499988357544,2|0,1:2|0:0,0:0:0:0:
21,183,26866,2,0,P|30:160|41:133,1,38.1499988357544,2|0,0:2|0:0,0:0:0:0:
131,6,27066,6,0,P|119:86|109:168,1,163.5,6|0,3:3|0:0,0:0:0:0:
157,254,27466,1,2,1:2:0:0:
24,358,27666,1,0,3:2:0:0:
196,178,27866,2,0,P|247:177|289:224,1,109,2|0,0:2|0:2,0:0:0:0:
365,369,28266,1,2,1:2:0:0:
284,293,28466,1,2,0:2:0:0:
107,364,28666,6,0,P|158:365|200:318,1,109,6|0,3:3|0:2,0:0:0:0:
89,145,29066,1,2,1:2:0:0:
218,254,29266,1,0,3:2:0:0:
107,364,29466,1,0,1:2:0:0:
226,171,29666,6,0,L|298:193,1,70.8499967567445,2|0,0:2|0:0,0:0:0:0:
138,283,29866,2,0,L|121:209,1,70.8499967567445,2|0,1:2|0:0,0:0:0:0:
299,199,30066,2,0,L|335:187,1,38.1499988357544,2|0,0:2|0:0,0:0:0:0:
151,139,30266,5,2,0:2:0:0:
256,192,31866,12,2,33266,0:2:0:0:
316,175,33466,5,4,3:2:0:0:
316,175,33866,5,2,1:2:0:0:
221,242,34066,1,2,3:2:0:0:
157,190,34266,2,0,L|167:106,1,76.2999976715089,2|2,0:2|0:2,0:0:0:0:
284,298,34666,2,0,L|201:331,1,76.2999976715089,2|2,1:2|0:2,0:0:0:0:
67,264,35066,5,6,3:3:0:0:
64,275,35266,1,2,0:2:0:0:
214,229,35466,1,2,1:2:0:0:
148,276,35666,1,2,3:2:0:0:
103,195,35866,1,2,0:2:0:0:
228,303,36066,1,10,1:2:0:0:
398,192,36266,1,10,1:2:0:0:
306,133,36466,1,2,3:2:0:0:
366,278,36666,6,0,P|438:294|517:320,1,152.599995343018,4|2,3:3|1:2,0:0:0:0:
474,167,37266,1,2,3:2:0:0:
398,192,37466,2,0,P|360:204|317:218,1,76.2999976715089,2|0,0:2|0:2,0:0:0:0:
193,67,37866,2,0,P|231:79|274:93,1,76.2999976715089,2|2,1:2|0:2,0:0:0:0:
128,173,38266,5,6,3:3:0:0:
72,127,38466,1,2,0:2:0:0:
193,143,38666,1,2,1:2:0:0:
81,229,38866,1,2,3:2:0:0:
167,292,39066,2,0,P|175:251|188:210,1,76.2999976715089,2|0,0:2|3:2,0:0:0:0:
116,64,39466,1,2,1:2:0:0:
193,143,39666,1,2,3:2:0:0:
352,61,39866,1,6,3:3:0:0:
352,61,40266,5,2,1:2:0:0:
272,145,40466,1,2,3:2:0:0:
343,202,40666,1,2,0:2:0:0:
345,191,40866,1,0,0:2:0:0:
216,278,41066,5,2,1:2:0:0:
265,223,41266,2,0,P|311:230|428:277,1,152.599995343018,2|2,0:2|0:2,0:0:0:0:
493,377,41866,1,2,1:2:0:0:
429,340,42066,2,0,P|389:353|351:371,1,76.2999976715089,2|0,3:2|0:2,0:0:0:0:
186,226,42466,1,8,1:2:0:0:
301,311,42666,1,8,1:2:0:0:
227,368,42866,1,0,3:2:0:0:
350,211,43066,5,4,3:2:0:0:
350,211,43466,5,2,1:2:0:0:
246,150,43666,1,2,3:2:0:0:
182,204,43866,2,0,P|208:228|267:224,1,76.2999976715089,2|2,0:2|0:2,0:0:0:0:
393,107,44266,2,0,P|355:110|327:135,1,76.2999976715089,2|2,1:2|0:2,0:0:0:0:
459,234,44666,5,6,3:3:0:0:
461,223,44866,1,2,0:2:0:0:
358,264,45066,1,2,1:2:0:0:
422,312,45266,1,2,3:2:0:0:
386,178,45466,1,2,0:2:0:0:
284,236,45666,1,10,1:2:0:0:
198,74,45866,1,10,1:2:0:0:
311,166,46066,1,2,3:2:0:0:
196,291,46266,6,0,B|203:233|203:233|222:204|222:204|234:133,1,152.599995343018,4|2,3:3|1:2,0:0:0:0:
348,49,46866,1,2,3:2:0:0:
270,15,47066,2,0,L|283:96,1,76.2999976715089,2|2,0:2|0:2,0:0:0:0:
116,144,47466,2,0,L|128:68,1,76.2999976715089,2|2,1:2|0:2,0:0:0:0:
14,46,47866,5,6,3:3:0:0:
17,58,48066,1,2,0:2:0:0:
116,144,48266,1,2,1:2:0:0:
49,217,48466,1,2,3:2:0:0:
31,139,48666,1,2,0:2:0:0:
154,236,48866,1,10,1:2:0:0:
326,143,49066,1,10,1:2:0:0:
241,71,49266,1,2,3:2:0:0:
440,82,49466,6,0,P|420:155|407:230,1,152.599995343018,4|2,3:3|1:2,0:0:0:0:
298,304,50066,1,2,3:2:0:0:
356,358,50266,2,0,P|401:348|419:316,1,76.2999976715089,2|0,0:2|0:2,0:0:0:0:
337,167,50666,2,0,P|323:210|341:242,1,76.2999976715089,2|2,1:2|0:2,0:0:0:0:
475,112,51066,5,2,3:2:0:0:
416,160,51266,1,2,0:2:0:0:
314,90,51466,1,2,1:2:0:0:
184,168,51666,1,2,3:2:0:0:
259,225,51866,2,0,P|263:183|271:141,1,76.2999976715089,2|0,0:2|3:2,0:0:0:0:
200,7,52266,1,2,1:2:0:0:
314,90,52466,1,2,3:2:0:0:
156,200,52666,1,6,3:3:0:0:
156,200,53066,5,2,1:0:0:0:
242,68,53266,1,2,3:0:0:0:
200,7,53466,1,2,0:0:0:0:
200,7,53866,5,0,1:0:0:0:
223,141,54066,2,0,P|150:155|69:185,1,152.599995343018,2|2,0:0|0:0,0:0:0:0:
8,54,54666,1,2,1:0:0:0:
70,15,54866,2,0,P|98:41|97:81,1,76.2999976715089,2|0,3:0|0:0,0:0:0:0:
11,222,55266,6,0,L|1:168,1,54.5,8|0,1:2|0:0,0:0:0:0:
153,196,55466,2,0,L|143:142,1,54.5,8|0,1:2|0:0,0:0:0:0:
97,272,55666,1,0,3:0:0:0:
276,169,55866,5,4,1:3:0:0:
175,269,56066,1,2,1:3:0:0:
433,223,56266,5,6,1:3:0:0:
320,95,56466,1,2,1:0:0:0:
223,332,56666,5,6,1:3:0:0:
351,234,56866,1,0,1:0:0:0:
151,119,57066,5,6,1:3:0:0:
114,151,57166,1,0,1:0:0:0:
114,200,57266,1,6,1:3:0:0:
157,223,57366,1,0,1:0:0:0:
200,199,57466,6,0,P|243:179|297:170,1,98.0999970062257,6|0,3:2|0:0,0:0:0:0:
307,170,57766,1,2,0:0:0:0:
321,170,57866,1,2,3:0:0:0:
448,294,58066,1,2,0:0:0:0:
448,294,58166,1,2,0:0:0:0:
448,294,58266,2,0,P|388:277|400:197,1,147.149995509339,10|0,1:1|0:0,0:0:0:0:
467,165,58666,6,0,P|506:134|494:83,1,98.0999970062257,2|0,3:0|3:3,0:0:0:0:
355,13,59066,1,6,3:3:0:0:
250,85,59266,5,2,0:0:0:0:
254,104,59366,1,2,0:0:0:0:
258,123,59466,1,2,3:0:0:0:
392,203,59666,5,2,0:0:0:0:
373,196,59766,1,2,0:0:0:0:
355,190,59866,1,10,1:1:0:0:
225,257,60066,5,2,0:0:0:0:
240,244,60166,1,2,0:0:0:0:
254,231,60266,1,2,3:0:0:0:
339,111,60466,5,2,3:3:0:0:
339,111,60566,1,2,0:0:0:0:
339,111,60666,2,0,P|395:103|432:141,1,98.0999970062257,6|2,3:3|0:0,0:0:0:0:
427,292,61066,6,0,P|386:257|387:210,1,98.0999970062257,2|2,3:2|2:3,0:0:0:0:
392,203,61366,1,2,0:0:0:0:
405,197,61466,2,0,P|320:216|207:256,1,196.199994012451,10|2,1:1|3:2,0:0:0:0:
63,136,62066,5,2,3:3:0:0:
47,111,62166,1,2,0:0:0:0:
49,81,62266,1,6,3:3:0:0:
191,152,62466,5,2,0:2:0:0:
220,150,62566,1,2,0:0:0:0:
245,167,62666,1,2,3:3:0:0:
110,243,62866,5,2,0:2:0:0:
110,243,62966,1,2,0:0:0:0:
110,243,63066,5,10,2:1:0:0:
64,288,63166,1,8,0:1:0:0:
3,268,63266,1,8,0:1:0:0:
4,204,63366,1,8,0:1:0:0:
57,169,63466,5,6,3:3:0:0:
110,134,63566,1,8,2:1:0:0:
111,70,63666,1,8,2:1:0:0:
50,50,63766,1,8,2:1:0:0:
4,95,63866,5,6,3:2:0:0:
4,95,64266,5,2,3:2:0:0:
171,194,64466,1,2,0:2:0:0:
171,194,64566,1,2,0:0:0:0:
171,194,64666,2,0,P|221:186|225:96,1,147.149995509339,10|0,1:1|0:0,0:0:0:0:
174,49,65066,1,2,3:2:0:0:
318,119,65266,1,2,3:3:0:0:
475,33,65466,6,0,P|461:96|454:147,1,98.0999970062257,6|0,3:3|0:2,0:0:0:0:
453,143,65766,1,2,0:0:0:0:
444,155,65866,2,0,P|506:158|509:238,1,147.149995509339,2|0,3:2|0:0,0:0:0:0:
459,291,66266,2,0,P|366:258|270:239,1,196.199994012451,10|2,1:1|3:2,0:0:0:0:
85,312,66866,5,2,3:2:0:0:
81,292,66966,1,2,0:0:0:0:
77,272,67066,1,6,3:3:0:0:
168,216,67266,1,2,0:2:0:0:
4,308,67466,1,2,3:2:0:0:
40,208,67666,1,2,0:2:0:0:
173,328,67866,6,0,P|228:339|328:373,1,147.149995509339,10|0,1:1|0:0,0:0:0:0:
381,335,68266,1,0,3:2:0:0:
461,245,68466,1,0,3:2:0:0:
338,124,68666,1,6,3:1:0:0:
338,124,70266,6,0,P|416:140|397:59,1,179.850005488587,14|0,1:1|0:0,0:0:0:0:
337,49,70666,1,2,2:2:0:0:
499,143,70866,1,2,0:2:0:0:
279,271,71066,6,0,P|272:211|260:152,1,119.900003659058,10|0,2:1|2:2,0:0:0:0:
455,5,71466,1,2,2:2:0:0:
269,80,71666,1,0,3:1:0:0:
59,21,71866,6,0,L|-7:31,1,59.9500018295289,2|0,2:2|0:0,0:0:0:0:
260,152,72066,2,0,L|326:162,1,59.9500018295289,4|0,3:3|0:0,0:0:0:0:
88,261,72266,6,0,B|18:304|18:304|66:233|66:233|143:188,1,245.250009355545,6|0,2:3|0:0,0:0:0:0:
228,233,72666,2,0,B|250:246|250:246|235:223|235:223|210:209,1,81.75,10|0,2:1|0:0,0:0:0:0:
184,144,73066,1,2,2:2:0:0:
88,261,73266,1,4,3:3:0:0:
364,334,73466,5,6,1:1:0:0:
228,233,73666,1,2,2:2:0:0:
88,261,73866,1,2,2:2:0:0:
42,327,74066,1,2,2:2:0:0:
298,287,74266,2,0,P|319:169|344:51,1,239.800007318115,10|0,2:1|2:2,0:0:0:0:
212,34,74866,1,0,3:2:0:0:
395,165,75066,5,6,2:1:0:0:
512,89,75266,1,10,2:1:0:0:
476,13,75466,1,2,3:2:0:0:
411,34,75666,2,0,L|418:80,2,29.9750009147644,2|0|0,2:2|0:0|0:0,0:0:0:0:
490,234,75866,5,10,1:1:0:0:
395,165,76066,1,0,2:2:0:0:
233,302,76266,1,6,3:3:0:0:
366,245,76466,1,6,3:3:0:0:
123,70,76666,6,0,B|113:138|113:138|135:170|135:170|121:258,1,179.850005488587,14|0,1:1|0:0,0:0:0:0:
72,296,77066,1,2,2:2:0:0:
235,195,77266,1,2,2:2:0:0:
5,70,77466,2,0,L|22:196,1,119.900003659058,10|0,2:1|2:2,0:0:0:0:
220,291,77866,1,2,2:2:0:0:
42,383,78066,1,0,3:2:0:0:
235,195,78266,6,0,L|301:213,1,59.9500018295289,2|0,2:2|0:0,0:0:0:0:
13,317,78466,2,0,L|-2:254,1,59.9500018295289,4|0,3:3|0:0,0:0:0:0:
169,186,78666,6,0,L|235:204,1,59.9500018295289,6|0,3:3|0:0,0:0:0:0:
22,319,78866,2,0,L|7:256,1,59.9500018295289,0|0,3:3|0:0,0:0:0:0:
233,185,79066,6,0,L|250:101,1,81.75,10|0,2:1|0:0,0:0:0:0:
196,50,79466,1,2,2:2:0:0:
316,126,79666,1,4,3:3:0:0:
482,0,79866,5,14,1:1:0:0:
304,54,80066,1,2,2:2:0:0:
498,203,80266,1,2,2:2:0:0:
378,78,80466,1,2,2:1:0:0:
264,285,80666,2,0,P|323:298|387:318,1,119.900003659058,10|0,2:1|2:2,0:0:0:0:
493,122,81066,1,6,3:3:0:0:
359,229,81266,1,0,3:3:0:0:
510,380,81466,5,6,3:3:0:0:
448,223,81666,1,0,3:3:0:0:
264,285,81866,1,4,3:3:0:0:
264,285,82266,5,10,2:1:0:0:
428,104,82466,1,10,2:1:0:0:
285,7,82666,1,6,3:3:0:0:
331,73,82866,1,6,3:3:0:0:
495,17,83066,6,0,P|416:23|320:84,1,179.850005488587,12|0,1:1|0:0,0:0:0:0:
298,138,83466,1,2,2:2:0:0:
147,39,83666,1,2,0:2:0:0:
373,131,83866,2,0,P|359:189|348:248,1,119.900003659058,10|0,2:1|2:2,0:0:0:0:
104,324,84266,1,2,2:2:0:0:
265,215,84466,1,0,3:1:0:0:
460,322,84666,6,0,L|451:383,1,59.9500018295289,2|0,2:2|0:0,0:0:0:0:
190,255,84866,2,0,L|181:195,1,59.9500018295289,4|0,3:3|0:0,0:0:0:0:
296,346,85066,6,0,P|185:356|203:257,1,245.250009355545,6|0,2:3|0:0,0:0:0:0:
181,108,85466,2,0,P|226:116|254:158,1,81.75,10|0,2:1|0:0,0:0:0:0:
309,277,85866,1,2,2:2:0:0:
184,187,86066,1,4,3:3:0:0:
390,38,86266,5,6,1:1:0:0:
248,141,86466,1,2,2:2:0:0:
112,93,86666,1,2,2:2:0:0:
87,21,86866,1,2,2:2:0:0:
349,113,87066,2,0,B|320:175|384:232|407:192|462:244|433:314,1,239.800007318115,10|2,2:1|2:2,0:0:0:0:
288,343,87666,1,6,3:3:0:0:
492,193,87866,5,6,2:1:0:0:
446,64,88066,1,10,2:1:0:0:
335,50,88266,1,2,3:2:0:0:
296,112,88466,2,0,L|337:125,2,29.9750009147644,2|0|0,2:2|0:0|0:0,0:0:0:0:
326,274,88666,5,14,1:1:0:0:
243,173,88866,1,0,2:2:0:0:
439,251,89066,1,6,3:3:0:0:
394,342,89266,1,6,3:3:0:0:
243,173,89466,6,0,B|195:157|154:197|173:212|139:253|86:239,1,179.850005488587,14|0,1:1|0:0,0:0:0:0:
39,183,89866,1,2,2:2:0:0:
191,316,90066,1,2,2:2:0:0:
36,84,90266,2,0,P|96:103|107:162,1,119.900003659058,10|0,2:1|2:2,0:0:0:0:
25,331,90666,5,2,2:2:0:0:
195,214,90866,1,4,3:3:0:0:
402,322,91066,6,0,P|415:348|409:377,1,59.9500018295289,2|0,3:2|0:0,0:0:0:0:
103,282,91266,2,0,P|96:253|109:226,1,59.9500018295289,4|0,3:3|0:0,0:0:0:0:
389,325,91466,6,0,P|382:353|395:380,1,59.9500018295289,2|0,3:3|0:0,0:0:0:0:
116,284,91666,2,0,P|129:257|122:228,1,59.9500018295289,4|0,3:3|0:0,0:0:0:0:
389,313,91866,6,0,P|433:303|447:256,1,81.75,10|0,2:1|0:0,0:0:0:0:
364,218,92266,1,2,2:2:0:0:
306,289,92466,1,6,3:3:0:0:
512,158,92666,5,14,1:1:0:0:
291,66,94249,1,2,0:0:0:0:
284,72,94466,6,0,L|297:141,1,70.8499967567445,2|0,1:0|0:0,0:0:0:0:
87,61,94666,2,0,L|166:30,1,70.8499967567445,0|0,1:0|0:0,0:0:0:0:
182,225,94866,2,0,L|116:199,1,70.8499967567445,0|0,1:0|0:0,0:0:0:0:
294,150,95066,6,0,L|280:219,1,70.8499967567445,0|0,1:0|0:0,0:0:0:0:
512,122,95266,2,0,L|433:91,1,70.8499967567445,0|0,1:0|0:0,0:0:0:0:
423,347,95466,2,0,L|488:321,1,70.8499967567445,0|0,1:0|0:0,0:0:0:0:
414,215,95866,5,4,3:2:0:0:
414,215,96266,5,2,1:2:0:0:
285,146,96466,1,2,3:2:0:0:
224,196,96666,2,0,P|229:234|233:271,1,76.2999976715089,2|2,0:2|3:2,0:0:0:0:
347,106,97066,2,0,P|351:68|356:30,1,76.2999976715089,2|2,1:2|0:2,0:0:0:0:
212,92,97466,5,6,3:3:0:0:
214,103,97666,1,2,0:2:0:0:
359,193,97866,1,2,1:2:0:0:
233,271,98066,1,2,3:2:0:0:
354,316,98266,1,2,0:2:0:0:
279,210,98466,1,10,1:2:0:0:
139,357,98666,1,10,1:2:0:0:
301,275,98866,1,2,3:2:0:0:
140,128,99066,6,0,P|152:203|162:278,1,152.599995343018,4|2,3:3|1:2,0:0:0:0:
327,345,99666,1,2,3:2:0:0:
301,275,99866,2,0,P|276:246|239:243,1,76.2999976715089,2|2,0:2|3:2,0:0:0:0:
100,311,100266,2,0,P|137:307|161:279,1,76.2999976715089,2|2,1:2|0:2,0:0:0:0:
99,148,100666,5,6,3:3:0:0:
97,160,100866,1,2,0:2:0:0:
227,114,101066,1,2,1:2:0:0:
148,24,101266,1,2,3:2:0:0:
91,71,101466,1,2,0:2:0:0:
284,25,101666,1,10,2:2:0:0:
170,161,101866,1,10,1:2:0:0:
246,218,102066,1,2,3:2:0:0:
91,71,102266,6,0,B|84:129|84:129|65:158|65:158|53:229,1,152.599995343018,4|2,3:3|1:2,0:0:0:0:
130,336,102866,1,2,3:2:0:0:
72,284,103066,2,0,L|167:253,1,76.2999976715089,2|2,0:2|3:2,0:0:0:0:
298,370,103466,2,0,L|203:339,1,76.2999976715089,2|2,1:2|0:2,0:0:0:0:
295,247,103866,5,6,3:3:0:0:
354,295,104066,1,2,0:2:0:0:
484,152,104266,1,2,1:2:0:0:
367,220,104466,1,2,3:2:0:0:
502,324,104666,2,0,P|506:282|514:240,1,76.2999976715089,2|8,0:2|1:2,0:0:0:0:
341,125,105066,1,10,1:2:0:0:
448,212,105266,1,2,3:2:0:0:
284,323,105466,1,6,3:2:0:0:
284,323,105866,5,2,1:2:0:0:
367,220,106066,1,2,3:2:0:0:
291,174,106266,1,2,0:2:0:0:
289,185,106466,1,0,3:2:0:0:
359,371,106666,5,0,1:2:0:0:
284,323,106866,2,0,B|245:309|206:335|224:348|187:379|145:366,1,152.599995343018,2|2,0:2|0:2,0:0:0:0:
54,238,107466,1,2,1:2:0:0:
116,199,107666,2,0,P|144:225|143:265,1,76.2999976715089,2|0,3:2|0:2,0:0:0:0:
22,360,108066,6,0,L|12:306,1,54.5,8|0,1:2|0:0,0:0:0:0:
153,259,108266,2,0,L|204:277,1,54.5,8|0,1:2|0:0,0:0:0:0:
14,297,108466,1,0,3:2:0:0:
209,285,108666,5,4,1:3:0:0:
321,190,108866,1,2,1:3:0:0:
135,67,109066,5,6,1:3:0:0:
229,180,109266,1,2,1:0:0:0:
411,20,109466,5,6,1:3:0:0:
292,106,109666,1,0,1:0:0:0:
415,307,109866,5,6,1:3:0:0:
457,282,109966,1,0,1:0:0:0:
455,232,110066,1,6,1:3:0:0:
412,207,110166,1,0,1:0:0:0:
369,232,110266,6,0,B|329:378|139:308|189:153|294:102|403:156|403:156|483:187|524:120|546:81|537:17|470:-47|397:-15|362:15|354:66,1,858.375,4|0,3:2|0:0,0:0:0:0:
445,234,116666,6,0,B|501:270|487:361|424:386|424:386|323:370|323:370|272:377|272:377|98:354,1,512.3,6|0,0:1|0:0,0:0:0:0:
26,349,121466,6,0,P|60:288|146:291,1,163.5,2|2,0:0|0:0,0:0:0:0:
333,377,123066,6,0,L|389:360,1,59.9500018295289,4|0,3:2|0:0,0:0:0:0:
269,238,123266,2,0,L|253:296,1,59.9500018295289,2|0,0:2|0:0,0:0:0:0:
406,166,123466,6,0,L|346:149,1,59.9500018295289,2|0,1:2|0:0,0:0:0:0:
492,292,123666,2,0,L|476:234,1,59.9500018295289,2|0,3:2|0:0,0:0:0:0:
259,305,123866,6,0,L|323:286,1,59.9500018295289,2|0,0:2|0:0,0:0:0:0:
182,141,124066,2,0,L|164:205,1,59.9500018295289,2|0,3:2|0:0,0:0:0:0:
286,126,124266,6,0,L|346:143,1,59.9500018295289,2|0,1:2|0:0,0:0:0:0:
188,263,124466,2,0,L|170:195,1,59.9500018295289,2|0,0:2|0:0,0:0:0:0:
276,15,124666,5,6,3:3:0:0:
267,9,124866,2,0,L|209:25,1,59.9500018295289,2|0,0:2|0:0,0:0:0:0:
35,115,125066,6,0,L|92:131,1,59.9500018295289,2|0,1:2|0:0,0:0:0:0:
201,24,125266,2,0,L|218:88,1,59.9500018295289,2|0,3:2|0:0,0:0:0:0:
35,221,125466,6,0,L|92:204,1,59.9500018295289,2|0,0:2|0:0,0:0:0:0:
222,90,125666,2,0,L|204:154,1,59.9500018295289,2|0,3:2|0:0,0:0:0:0:
44,296,125866,6,0,L|101:313,1,59.9500018295289,2|0,1:2|0:0,0:0:0:0:
200,158,126066,2,0,L|217:222,1,59.9500018295289,2|0,3:2|0:0,0:0:0:0:
151,374,126266,5,6,3:3:0:0:
158,364,126466,2,0,L|215:347,1,59.9500018295289,2|0,0:2|0:0,0:0:0:0:
348,242,126666,6,0,L|291:225,1,59.9500018295289,2|0,1:2|0:0,0:0:0:0:
475,118,126866,2,0,L|490:175,1,59.9500018295289,2|0,3:2|0:0,0:0:0:0:
321,310,127066,6,0,L|264:293,1,59.9500018295289,2|0,0:2|0:0,0:0:0:0:
444,232,127266,2,0,L|459:289,1,59.9500018295289,2|0,3:2|0:0,0:0:0:0:
278,371,127466,6,0,L|221:354,1,59.9500018295289,2|0,1:2|0:0,0:0:0:0:
395,315,127666,2,0,L|410:372,1,59.9500018295289,2|0,0:2|0:0,0:0:0:0:
284,217,127866,5,6,3:3:0:0:
281,209,128066,2,0,L|296:151,1,59.9500018295289,2|0,0:2|0:0,0:0:0:0:
142,64,128266,6,0,L|157:122,1,59.9500018295289,2|0,1:2|0:0,0:0:0:0:
286,18,128466,2,0,L|228:1,1,59.9500018295289,2|0,3:2|0:0,0:0:0:0:
304,151,128666,2,0,L|346:109,1,59.9500018295289,2|0,0:2|0:0,0:0:0:0:
192,255,128866,6,0,P|226:267|250:297,1,59.9500018295289,2|0,3:2|0:0,0:0:0:0:
66,209,129066,2,0,P|38:232|0:238,1,59.9500018295289,2|0,1:2|0:0,0:0:0:0:
150,124,129266,2,0,P|143:88|157:52,1,59.9500018295289,2|0,3:2|0:0,0:0:0:0:
247,295,129466,5,6,3:2:0:0:
139,201,129666,1,2,0:2:0:0:
354,109,129866,2,0,P|366:176|381:293,1,179.850005488587,2|0,1:2|0:0,0:0:0:0:
344,348,130266,1,2,0:2:0:0:
495,171,130466,6,0,P|477:157|442:147,1,59.9500018295289,2|0,3:2|0:0,0:0:0:0:
389,286,130666,2,0,P|413:303|442:310,1,59.9500018295289,2|0,1:2|0:0,0:0:0:0:
288,170,130866,6,0,P|173:204|63:251,1,239.800007318115,2|0,0:2|0:2,0:0:0:0:
193,362,131466,1,2,1:2:0:0:
46,176,131666,6,0,P|40:145|31:111,1,59.9500018295289,2|0,3:2|0:0,0:0:0:0:
131,203,131866,2,0,P|141:173|150:139,1,59.9500018295289,2|0,0:2|0:0,0:0:0:0:
180,275,132066,2,0,P|203:254|228:229,1,59.9500018295289,2|0,3:2|0:0,0:0:0:0:
39,113,132266,6,0,P|33:82|24:48,1,59.9500018295289,2|0,1:2|0:0,0:0:0:0:
231,237,132466,2,0,P|254:216|279:191,1,59.9500018295289,2|0,3:2|0:0,0:0:0:0:
106,33,132666,6,0,P|127:120|138:209,1,179.850005488587,2|0,3:2|0:0,0:0:0:0:
98,278,133066,1,2,1:2:0:0:
277,185,133266,1,0,3:2:0:0:
26,239,133466,2,0,P|15:302|9:365,1,119.900003659058,2|0,0:2|3:2,0:0:0:0:
257,275,133866,1,2,1:2:0:0:
144,215,134066,1,2,0:2:0:0:
384,133,134266,6,0,P|378:162|373:202,1,59.9500018295289,2|0,3:2|0:0,0:0:0:0:
186,290,134466,1,2,0:2:0:0:
186,290,134566,1,2,0:0:0:0:
186,290,134666,2,0,P|191:320|197:359,1,59.9500018295289,2|0,1:2|0:0,0:0:0:0:
310,152,134866,5,2,3:0:0:0:
310,152,134966,1,2,0:0:0:0:
310,152,135066,2,0,P|304:182|299:221,1,59.9500018295289,2|0,0:0|0:0,0:0:0:0:
114,317,135266,2,0,P|119:347|125:386,1,59.9500018295289,2|0,3:0|0:0,0:0:0:0:
38,169,135466,5,2,1:0:0:0:
66,147,135566,1,0,1:0:0:0:
101,153,135666,2,0,P|131:163|169:181,1,59.9500018295289,2|0,1:0|0:0,0:0:0:0:
292,339,135866,6,0,P|385:325|380:245,1,179.850005488587,6|0,3:2|0:0,0:0:0:0:
300,211,136266,2,0,L|310:273,1,59.9500018295289,0|0,1:2|0:0,0:0:0:0:
414,109,136466,2,0,P|357:88|300:71,1,119.900003659058,0|0,3:2|0:2,0:0:0:0:
66,147,136866,2,0,P|53:121|58:83,1,59.9500018295289,2|0,3:2|0:0,0:0:0:0:
203,171,137066,2,0,P|222:150|227:111,1,59.9500018295289,2|0,1:2|0:0,0:0:0:0:
160,37,137266,6,2,P|140:133|110:288,1,239.800007318115,2|0,0:2|0:2,0:0:0:0:
251,359,137866,1,0,1:2:0:0:
105,278,138066,2,0,L|40:301,1,59.9500018295289,2|0,3:2|0:0,0:0:0:0:
393,129,138266,1,2,0:2:0:0:
187,285,138466,1,2,3:2:0:0:
53,92,138666,1,2,1:2:0:0:
252,243,138866,1,2,3:2:0:0:
5,375,139066,6,0,L|17:308,1,59.9500018295289,6|0,3:2|0:0,0:0:0:0:
197,344,139266,2,0,L|185:277,1,59.9500018295289,2|0,0:2|0:0,0:0:0:0:
370,377,139466,2,0,P|387:258|411:140,1,239.800007318115,2|0,1:2|0:2,0:0:0:0:
278,69,140066,1,0,3:2:0:0:
484,212,140266,1,0,1:2:0:0:
291,317,140466,6,0,B|286:272|286:272|271:248|271:248|261:194,1,119.900003659058,2|0,0:2|3:2,0:0:0:0:
361,123,140866,1,2,0:2:0:0:
166,245,141066,2,0,L|177:316,1,59.9500018295289,0|0,1:2|0:0,0:0:0:0:
10,43,141266,1,2,3:2:0:0:
262,202,141466,1,2,0:2:0:0:
3,374,141666,5,2,3:2:0:0:
191,172,141866,1,2,1:2:0:0:
320,291,142066,1,2,3:2:0:0:
95,179,142266,6,0,P|81:148|82:118,1,59.9500018295289,6|0,3:2|0:0,0:0:0:0:
262,202,142466,2,0,P|295:205|321:221,1,59.9500018295289,2|0,0:2|0:0,0:0:0:0:
155,301,142666,2,0,P|135:328|108:342,1,59.9500018295289,2|0,1:2|0:0,0:0:0:0:
187,165,142866,6,0,P|193:122|204:78,1,81.75,2|0,3:2|0:0,0:0:0:0:
379,193,143266,6,0,B|354:198|354:198|343:209|343:209|319:216,1,59.9500018295289,2|0,3:2|0:0,0:0:0:0:
362,30,143466,2,0,B|387:35|387:35|398:46|398:46|422:53,1,59.9500018295289,2|0,1:2|0:0,0:0:0:0:
502,206,143666,6,0,P|466:196|451:153,1,81.75,2|0,0:2|0:0,0:0:0:0:
479,32,144066,2,0,B|454:37|454:37|443:48|443:48|419:55,1,59.9500018295289,2|0,0:2|0:0,0:0:0:0:
297,106,144266,1,0,1:2:0:0:
135,198,144466,6,0,P|186:202|246:234,1,119.900003659058,2|2,3:2|0:2,0:0:0:0:
143,354,144866,1,2,3:2:0:0:
21,161,145066,6,0,P|50:154|81:149,1,59.9500018295289,2|0,1:2|0:0,0:0:0:0:
5,245,145266,2,0,P|34:239|63:233,1,59.9500018295289,2|0,3:2|0:0,0:0:0:0:
209,87,145466,6,0,B|257:71|298:111|279:126|313:167|366:153,1,179.850005488587,6|0,3:2|0:0,0:0:0:0:
418,45,145866,2,0,P|388:61|371:92,1,59.9500018295289,2|0,1:2|0:0,0:0:0:0:
414,225,146066,2,0,P|296:246|182:285,1,239.800007318115,2|0,3:2|3:2,0:0:0:0:
9,166,146666,1,2,1:2:0:0:
220,360,146866,1,2,0:2:0:0:
220,360,146966,1,2,0:0:0:0:
220,360,147066,5,2,1:2:0:0:
291,351,147166,1,0,1:2:0:0:
306,281,147266,1,0,1:2:0:0:
243,245,147366,1,0,1:2:0:0:
190,293,147466,1,0,3:2:0:0:
190,293,147666,5,2,1:2:0:0:
128,254,147766,1,2,1:2:0:0:
145,184,147866,1,2,1:2:0:0:
216,178,147966,1,0,1:2:0:0:
244,244,148066,1,0,3:2:0:0:
243,245,148266,5,4,2:3:0:0:
297,268,148366,1,4,2:3:0:0:
352,245,148466,1,4,2:3:0:0:
359,185,148566,1,4,2:3:0:0:
324,142,148666,6,0,P|265:147|162:190,1,163.499995010376,4|0,2:2|0:0,0:0:0:0:
96,167,149866,1,2,0:0:0:0:
46,223,150066,1,2,0:0:0:0:
168,356,150266,2,0,P|175:309|189:255,1,98.0999970062257,2|0,0:0|0:0,0:0:0:0:
115,262,151066,2,0,P|108:215|94:161,1,98.0999970062257,2|0,0:0|0:0,0:0:0:0:
224,80,151866,6,0,P|195:46|156:120,1,163.499995010376,2|0,0:0|0:0,0:0:0:0:
220,154,153066,1,2,0:0:0:0:
292,118,153266,1,2,0:0:0:0:
381,219,153466,2,0,P|341:225|281:253,1,98.0999970062257,2|2,0:0|0:0,0:0:0:0:
404,293,154266,2,0,P|364:299|304:327,1,98.0999970062257,2|2,0:0|0:0,0:0:0:0:
167,371,155066,6,0,P|209:371|194:274,1,163.499995010376,2|0,0:0|0:0,0:0:0:0:
134,253,156266,1,2,0:0:0:0:
102,325,156466,1,2,0:0:0:0:
204,196,156666,6,0,B|241:202|241:202|263:219|263:219|300:227,1,98.0999970062257,2|0,0:0|0:0,0:0:0:0:
386,122,157466,2,0,B|349:128|349:128|327:145|327:145|290:153,1,98.0999970062257,2|0,0:0|0:0,0:0:0:0:
131,32,158266,6,0,B|190:41|190:41|225:68|225:68|283:81,1,163.499995010376,2|0,0:0|0:0,0:0:0:0:
352,47,159466,1,2,0:0:0:0:
292,0,159666,1,0,0:0:0:0:
356,134,159866,2,0,P|400:138|411:192,1,98.0999970062257,2|0,0:0|0:0,0:0:0:0:
329,240,160666,5,10,0:3:0:0:
326,252,160766,1,8,0:3:0:0:
323,264,160866,1,6,0:3:0:0:
472,268,161066,1,10,0:3:0:0:
473,281,161166,1,8,0:3:0:0:
474,293,161266,1,6,0:3:0:0:
476,305,161366,1,4,0:3:0:0:
477,317,161466,6,0,P|420:323|339:347,1,130.8,4|0,1:2|0:0,0:0:0:0:
280,370,161866,1,2,1:0:0:0:
164,287,162066,1,2,0:0:0:0:
315,166,162266,6,0,P|299:229|290:294,1,130.8,2|0,1:0|0:0,0:0:0:0:
170,296,162666,2,0,P|178:231|194:167,1,130.8,2|0,1:0|0:0,0:0:0:0:
197,28,163066,6,0,P|255:40|242:111,1,130.8,6|0,1:3|0:0,0:0:0:0:
56,124,163466,2,0,P|37:67|105:43,1,130.8,2|0,1:0|0:0,0:0:0:0:
201,171,163866,2,0,B|172:194|173:229|173:229|162:196|124:186,1,130.8,2|0,1:0|0:0,0:0:0:0:
199,164,164266,2,0,B|170:187|171:222|171:222|160:189|122:179,1,130.8,2|0,1:0|0:0,0:0:0:0:
147,99,164666,5,6,1:2:0:0:
274,177,164866,1,2,0:0:0:0:
370,86,165066,1,2,1:0:0:0:
308,51,165266,1,2,0:0:0:0:
369,160,165466,2,0,P|409:165|496:198,1,130.8,2|0,1:0|0:0,0:0:0:0:
373,253,165866,2,0,P|413:258|500:291,1,130.8,0|0,1:0|0:0,0:0:0:0:
399,337,166266,5,6,1:3:0:0:
305,275,166466,1,2,0:3:0:0:
369,160,166666,1,2,1:0:0:0:
424,204,166866,1,2,0:0:0:0:
240,135,167066,5,2,1:0:0:0:
348,30,167266,1,2,0:0:0:0:
363,155,167466,1,2,1:0:0:0:
301,93,167666,1,2,0:0:0:0:
195,209,167866,6,0,L|204:259,1,49.0499985031128,4|0,1:2|0:0,0:0:0:0:
124,222,168066,2,0,L|133:272,1,49.0499985031128,0|0,1:0|0:0,0:0:0:0:
264,332,168266,6,0,L|272:283,1,49.0499985031128,2|0,1:0|0:0,0:0:0:0:
335,345,168466,2,0,L|343:296,1,49.0499985031128,2|0,1:0|0:0,0:0:0:0:
177,156,168666,6,0,L|185:204,1,49.0499985031128,6|0,1:3|0:0,0:0:0:0:
106,169,168866,2,0,L|114:217,1,49.0499985031128,0|0,1:0|0:0,0:0:0:0:
279,279,169066,6,0,L|287:230,1,49.0499985031128,2|0,1:0|0:0,0:0:0:0:
350,292,169266,2,0,L|358:243,1,49.0499985031128,0|0,1:0|0:0,0:0:0:0:
282,76,169466,6,0,L|341:99,1,49.0499985031128,6|0,1:3|0:0,0:0:0:0:
179,147,169666,2,0,L|165:94,1,49.0499985031128,0|0,1:0|0:0,0:0:0:0:
333,101,169866,6,0,L|379:84,1,49.0499985031128,2|0,1:0|0:0,0:0:0:0:
230,4,170066,2,0,L|218:52,1,49.0499985031128,0|0,1:0|0:0,0:0:0:0:
286,230,170266,6,0,L|345:207,1,49.0499985031128,6|0,1:3|0:0,0:0:0:0:
183,159,170466,2,0,L|169:212,1,49.0499985031128,0|0,1:0|0:0,0:0:0:0:
337,205,170666,6,0,L|383:222,1,49.0499985031128,2|0,1:0|0:0,0:0:0:0:
234,302,170866,2,0,L|222:254,1,49.0499985031128,2|0,1:0|0:0,0:0:0:0:
432,147,171066,5,6,1:3:0:0:
496,175,171166,1,0,3:0:0:0:
509,244,171266,1,2,3:0:0:0:
470,303,171366,1,0,3:0:0:0:
399,301,171466,5,6,1:3:0:0:
350,249,171566,1,0,3:0:0:0:
281,231,171666,1,2,3:0:0:0:
217,263,171766,1,0,3:0:0:0:
202,332,171866,5,6,1:3:0:0:
272,325,171966,1,0,1:0:0:0:
291,256,172066,1,2,1:0:0:0:
249,198,172166,1,0,1:0:0:0:
178,196,172266,6,0,P|173:169|166:140,1,54.5,6|2,1:3|0:0,0:0:0:0:
361,12,172666,6,0,B|313:-4|272:36|291:51|257:92|204:78,1,179.850005488587,12|0,1:1|0:0,0:0:0:0:
148,37,173066,1,2,2:2:0:0:
292,135,173266,1,2,0:2:0:0:
101,258,173466,6,0,P|59:217|71:162,1,119.900003659058,10|0,2:1|2:2,0:0:0:0:
285,142,173866,1,2,2:2:0:0:
111,266,174066,1,0,3:1:0:0:
202,41,174266,6,0,B|206:65|206:65|214:76|214:76|220:107,1,59.9500018295289,2|0,2:2|0:0,0:0:0:0:
12,275,174466,2,0,B|16:253|16:253|24:242|24:242|28:218,1,59.9500018295289,4|0,3:3|0:0,0:0:0:0:
195,34,174666,6,0,P|266:7|272:137,1,245.250009355545,6|0,2:3|0:0,0:0:0:0:
164,152,175066,2,0,P|176:114|222:109,1,81.75,10|0,2:1|0:0,0:0:0:0:
232,185,175466,1,2,2:2:0:0:
101,92,175666,1,4,3:3:0:0:
26,323,175866,5,6,1:1:0:0:
162,222,176066,1,2,2:2:0:0:
306,270,176266,1,2,2:2:0:0:
249,318,176466,1,2,2:2:0:0:
51,232,176666,2,0,B|113:203|170:267|130:290|182:345|252:316,1,239.800007318115,10|0,2:1|2:2,0:0:0:0:
326,196,177266,1,0,3:2:0:0:
141,324,177466,5,6,2:1:0:0:
51,232,177666,1,10,2:1:0:0:
114,173,177866,1,2,3:2:0:0:
165,222,178066,2,0,L|158:268,2,29.9750009147644,2|0|0,2:2|0:0|0:0,0:0:0:0:
332,115,178266,5,10,1:1:0:0:
225,183,178466,1,0,2:2:0:0:
91,23,178666,1,6,3:3:0:0:
212,106,178866,1,6,3:3:0:0:
75,269,179066,6,0,B|141:286|141:286|162:319|162:319|248:340,1,179.850005488587,14|0,1:1|0:0,0:0:0:0:
295,299,179466,1,2,2:2:0:0:
217,188,179666,1,2,2:2:0:0:
361,342,179866,2,0,P|369:285|381:222,1,119.900003659058,10|0,2:1|2:2,0:0:0:0:
494,93,180266,1,2,2:2:0:0:
316,185,180466,1,0,3:2:0:0:
57,71,180666,6,0,P|56:100|69:127,1,59.9500018295289,2|0,2:2|0:0,0:0:0:0:
222,23,180866,2,0,P|196:7|166:5,1,59.9500018295289,4|0,3:3|0:0,0:0:0:0:
223,166,181066,2,0,P|251:150|270:123,1,65.4,6|0,3:3|0:0,0:0:0:0:
160,217,181466,6,0,P|152:174|143:135,1,81.75,10|0,2:1|0:0,0:0:0:0:
192,82,181866,1,2,2:2:0:0:
67,195,182066,1,4,3:3:0:0:
285,322,182266,5,14,1:1:0:0:
160,217,182466,1,2,2:2:0:0:
367,132,182666,1,2,2:2:0:0:
242,237,182866,1,2,2:1:0:0:
121,15,183066,2,0,P|182:26|196:80,1,119.900003659058,10|0,2:1|2:2,0:0:0:0:
62,253,183466,1,6,3:3:0:0:
216,169,183666,1,0,3:3:0:0:
32,30,183866,5,6,3:3:0:0:
142,155,184066,1,0,3:3:0:0:
357,20,184266,1,4,3:3:0:0:
357,20,184666,5,10,1:1:0:0:
297,59,184766,1,8,2:1:0:0:
298,130,184866,1,10,2:3:0:0:
363,159,184966,1,4,2:3:0:0:
418,113,185066,5,10,2:3:0:0:
475,129,185166,1,4,2:3:0:0:
490,186,185266,1,6,2:3:0:0:
454,234,185366,1,4,2:3:0:0:
394,240,185466,6,0,B|326:252|326:252|296:284|296:284|224:303,1,179.850005488587,12|0,1:1|0:0,0:0:0:0:
169,256,185866,1,2,2:2:0:0:
292,145,186066,1,2,0:2:0:0:
156,333,186266,2,0,B|111:325|111:325|92:304|92:304|45:292,1,119.900003659058,10|0,2:1|2:2,0:0:0:0:
214,118,186666,1,2,2:2:0:0:
348,256,186866,1,0,3:1:0:0:
94,158,187066,6,0,L|102:98,1,59.9500018295289,2|0,2:2|0:0,0:0:0:0:
354,249,187266,2,0,L|345:189,1,59.9500018295289,4|0,3:3|0:0,0:0:0:0:
156,333,187466,6,0,B|169:268|169:268|233:252|233:252|274:310|274:310|234:281,1,245.250009355545,6|0,2:3|0:0,0:0:0:0:
89,251,187866,2,0,B|84:229|84:229|63:224|63:224|50:243|50:243|63:234,1,81.75,10|0,2:1|0:0,0:0:0:0:
151,195,188266,1,2,2:2:0:0:
239,285,188466,1,4,3:3:0:0:
503,155,188666,5,6,1:1:0:0:
361,258,188866,1,2,2:2:0:0:
225,210,189066,1,2,2:2:0:0:
212,138,189266,1,2,2:2:0:0:
430,113,189466,2,0,P|399:228|377:346,1,239.800007318115,10|2,2:1|3:3,0:0:0:0:
238,363,190066,1,2,3:3:0:0:
474,258,190266,5,6,2:1:0:0:
377,172,190466,1,10,2:1:0:0:
308,231,190666,1,2,3:2:0:0:
359,283,190866,2,0,L|400:270,2,29.9750009147644,2|0|0,2:2|0:0|0:0,0:0:0:0:
198,199,191066,5,12,2:1:0:0:
281,300,191266,1,0,2:2:0:0:
132,356,191466,1,6,3:3:0:0:
206,277,191666,1,6,3:3:0:0:
48,118,191866,6,0,P|130:93|230:73,1,179.850005488587,14|0,1:1|0:0,0:0:0:0:
288,103,192266,1,2,2:2:0:0:
163,218,192466,1,2,2:2:0:0:
342,55,192666,2,0,P|397:70|458:95,1,119.900003659058,10|0,2:1|2:2,0:0:0:0:
303,278,193066,5,2,2:2:0:0:
477,165,193266,1,4,3:3:0:0:
210,65,193466,6,0,L|221:128,1,59.9500018295289,2|0,3:2|0:0,0:0:0:0:
461,21,193666,2,0,L|400:0,1,59.9500018295289,4|0,3:3|0:0,0:0:0:0:
291,145,193866,6,0,L|280:208,1,59.9500018295289,6|0,3:3|0:0,0:0:0:0:
511,73,194066,2,0,L|450:94,1,59.9500018295289,4|0,3:3|0:0,0:0:0:0:
276,214,194266,6,0,P|319:225|362:241,1,81.75,10|0,2:1|0:0,0:0:0:0:
449,223,194666,1,2,2:2:0:0:
500,299,194866,1,6,3:3:0:0:
349,141,195066,5,14,1:1:0:0:
256,192,197866,5,0,0:0:0:0:
256,192,198266,2,0,P|282:170|312:149,1,65.3999980041505,2|2,0:0|0:0,0:0:0:0:
259,84,198666,2,0,P|292:78|328:74,1,65.3999980041505,2|2,0:0|0:0,0:0:0:0:
342,3,199066,2,0,P|373:15|407:29,1,65.3999980041505,2|2,0:0|0:0,0:0:0:0:
485,20,199466,5,2,0:0:0:0:
490,30,199666,2,0,P|472:89|455:163,1,130.799996008301,2|0,0:0|0:0,0:0:0:0:
365,253,200266,5,2,0:0:0:0:
427,218,200466,1,2,0:0:0:0:
365,262,200666,5,2,0:0:0:0:
427,297,200866,1,2,0:0:0:0:
364,272,201066,5,2,0:0:0:0:
302,307,201266,2,0,P|238:290|174:278,1,130.799996008301,2|0,0:0|0:0,0:0:0:0:
72,208,201866,5,2,0:0:0:0:
25,262,202066,1,2,0:0:0:0:
96,276,202266,2,0,B|86:212|86:212|101:171|101:171|85:79,1,196.199994012451,2|0,0:0|0:0,0:0:0:0:
256,192,204666,12,0,209866,0:0:0:0:
219,191,210702,5,2,0:0:0:0:
332,107,211035,6,0,B|363:-24|565:-10|603:162|490:274|424:262|299:202|243:290|264:370,1,643.1,6|2,0:1|0:0,0:0:0:0:
217,191,217492,6,0,B|195:101|59:111|33:228|110:304|154:296|239:255|276:314|262:369,1,436,2|2,0:0|0:0,0:0:0:0:
