osu file format v14

[General]
AudioFilename: audio.mp3
AudioLeadIn: 0
PreviewTime: 70216
Countdown: 0
SampleSet: Soft
StackLeniency: 0.2
Mode: 0
LetterboxInBreaks: 0
WidescreenStoryboard: 1

[Editor]
Bookmarks: 17466,30266,43066,52466,83066,110266,148666,161466,172666,217280
DistanceSpacing: 1.5
BeatDivisor: 8
GridSize: 8
TimelineZoom: 2.5

[Metadata]
Title:Mephisto
TitleUnicode:メフィスト
Artist:QUEEN BEE
ArtistUnicode:女王蜂
Creator:Pepekcz
Version:Lian's Insane
Source:【推しの子】
Tags:-Lian- Lian2002 【Oshi [Oshi "Oshi Oshi no Ko Ko" Ko] Ko】 My Star japanese rock jrock j-rock vocal vocalist male anime ending ed outro theme song Ziyoou-vachi AVU AVU-CHAN アヴ アヴちゃん YASHI-CHAN YASHI やし やしちゃん RURI RURI-CHAN ルリ ルリちゃん HIBARI HIBARI-CHAN ひばり ひばりちゃん Aquamarine Aqua Hoshino 星野愛久愛海 星野アクア Their Idol's Children
BeatmapID:4125039
BeatmapSetID:1979581

[Difficulty]
HPDrainRate:5.5
CircleSize:4
OverallDifficulty:8
ApproachRate:9
SliderMultiplier:2.18
SliderTickRate:1

[Events]
//Background and Video events
0,0,"image.jpg",0,0
//Break Periods
2,13182,14544
//Storyboard Layer 0 (Background)
//Storyboard Layer 1 (Fail)
//Storyboard Layer 2 (Pass)
//Storyboard Layer 3 (Foreground)
//Storyboard Layer 4 (Overlay)
//Storyboard Sound Samples

[TimingPoints]
640,410.958904109589,4,2,1,50,1,0
1461,508.474576271186,4,2,1,50,1,0
1969,550.45871559633,4,2,1,50,1,0
3620,508.474576271186,4,2,1,50,1,0
6670,540.54054054054,4,2,1,50,1,0
7210,697.674418604651,4,2,1,50,1,0
7907,370.37037037037,4,2,1,50,1,0
8277,458.015267175573,4,2,3,50,1,0
8735,530.973451327434,4,2,3,50,1,0
8735,-200,4,2,3,50,0,0
12982,540.54054054054,4,2,1,50,1,0
12982,-333.333333333333,4,2,1,50,0,0
15144,428.571428571428,4,2,1,50,1,0
15144,-250,4,2,1,50,0,0
15465,-250,4,2,1,5,0,0
15572,365.853658536585,4,2,1,50,1,0
15572,-250,4,2,1,50,0,0
15846,-250,4,2,1,5,0,0
15937,588.235294117647,4,2,1,50,1,0
15937,-125,4,2,1,50,0,0
16157,-125,4,2,1,5,0,0
16231,521.739130434783,4,2,1,50,1,0
16231,-166.666666666667,4,2,1,50,0,0
16752,714.285714285714,4,2,1,50,1,0
17466,400,4,2,1,70,1,0
17466,-105.263157894737,4,2,1,70,0,0
20066,-95.2380952380954,4,2,1,70,0,0
20166,-95.2380952380954,4,2,1,5,0,0
20266,-86.9565217391304,4,2,1,70,0,0
20366,-86.9565217391304,4,2,1,5,0,0
20466,-80,4,2,1,70,0,0
20566,-80,4,2,1,5,0,0
20666,-105.263157894737,4,2,1,70,0,0
23266,-95.2380952380952,4,2,1,70,0,0
23366,-95.2380952380952,4,2,1,5,0,0
23466,-86.9565217391304,4,2,1,70,0,0
23566,-86.9565217391304,4,2,1,5,0,0
23666,-80,4,2,1,70,0,0
23766,-80,4,2,1,5,0,0
23866,-105.263157894737,4,2,1,70,0,0
26466,-95.2380952380954,4,2,1,70,0,0
26566,-95.2380952380954,4,2,1,5,0,0
26666,-86.9565217391304,4,2,1,70,0,0
26766,-86.9565217391304,4,2,1,5,0,0
26866,-80,4,2,1,70,0,0
26966,-80,4,2,1,5,0,0
27066,-105.263157894737,4,2,1,70,0,0
29666,-76.9230769230769,4,2,1,70,0,0
30066,-142.857142857143,4,2,1,70,0,0
31866,-142.857142857143,4,2,1,60,0,0
33466,-142.857142857143,4,2,1,70,0,0
36166,-142.857142857143,4,2,1,5,0,0
36266,-142.857142857143,4,2,1,70,0,0
36366,-142.857142857143,4,2,1,5,0,0
36466,-142.857142857143,4,2,1,70,0,0
39566,-142.857142857143,4,2,1,5,0,0
39666,-142.857142857143,4,2,1,70,0,0
39766,-142.857142857143,4,2,1,5,0,0
39866,-142.857142857143,4,2,1,70,0,0
42566,-142.857142857143,4,2,1,5,0,0
42666,-142.857142857143,4,2,1,70,0,0
42766,-142.857142857143,4,2,1,5,0,0
42866,-142.857142857143,4,2,1,70,0,0
43066,-133.333333333333,4,2,1,70,0,0
45966,-133.333333333333,4,2,1,5,0,0
46066,-133.333333333333,4,2,1,70,0,0
46166,-133.333333333333,4,2,1,5,0,0
46266,-133.333333333333,4,2,1,70,0,0
48966,-133.333333333333,4,2,1,5,0,0
49066,-133.333333333333,4,2,1,70,0,0
49166,-133.333333333333,4,2,1,5,0,0
49266,-133.333333333333,4,2,1,70,0,0
52366,-133.333333333333,4,2,1,5,0,0
52466,-133.333333333333,4,2,1,70,0,0
52566,-133.333333333333,4,2,1,5,0,0
52666,-133.333333333333,4,2,1,70,0,0
55266,-100,4,2,1,70,0,0
55366,-100,4,2,1,5,0,0
55466,-100,4,2,1,70,0,0
55566,-100,4,2,1,5,0,0
55666,-100,4,2,1,70,0,0
55866,-111.111111111111,4,2,2,75,0,0
57466,-111.111111111111,4,2,1,80,0,0
65166,-111.111111111111,4,2,1,5,0,0
65266,-111.111111111111,4,2,1,75,0,0
65366,-111.111111111111,4,2,1,5,0,0
65466,-111.111111111111,4,2,1,75,0,0
68666,-111.111111111111,4,2,3,80,0,0
70266,-66.6666666666667,4,2,3,90,0,1
71066,-90.9090909090908,4,2,3,90,0,1
71866,-66.6666666666667,4,2,3,90,0,1
71966,-66.6666666666667,4,2,3,5,0,1
72066,-66.6666666666667,4,2,3,90,0,1
72166,-66.6666666666667,4,2,3,5,0,1
72266,-100,4,2,3,90,0,1
72666,-111.111111111111,4,2,3,90,0,1
73066,-222.222222222222,4,2,3,90,0,1
73466,-90.9090909090909,4,2,3,90,0,1
75566,-90.9090909090909,4,2,3,5,0,1
75666,-90.9090909090909,4,2,3,90,0,1
76566,-90.9090909090909,4,2,3,5,0,0
76666,-90.9090909090909,4,2,3,90,0,1
78266,-66.6666666666667,4,2,3,90,0,1
78766,-66.6666666666667,4,2,3,5,0,1
78866,-66.6666666666667,4,2,3,90,0,1
78966,-66.6666666666667,4,2,3,5,0,1
79066,-58.8235294117647,4,2,3,90,0,1
79366,-58.8235294117647,4,2,3,5,0,1
79466,-50,4,2,3,90,0,1
79866,-90.9090909090909,4,2,3,90,0,1
81366,-90.9090909090909,4,2,3,5,0,1
81466,-90.9090909090909,4,2,3,90,0,1
81566,-90.9090909090909,4,2,3,5,0,1
81666,-90.9090909090909,4,2,3,90,0,1
81766,-90.9090909090909,4,2,3,5,0,1
81866,-90.9090909090909,4,2,3,90,0,1
82866,-90.9090909090909,4,2,3,90,0,0
83066,-66.6666666666667,4,2,3,90,0,1
84766,-66.6666666666667,4,2,3,5,0,1
84866,-66.6666666666667,4,2,3,90,0,1
84966,-66.6666666666667,4,2,3,5,0,1
85066,-66.6666666666667,4,2,3,90,0,1
85466,-62.5,4,2,3,90,0,1
86266,-90.9090909090909,4,2,3,90,0,1
87966,-90.9090909090909,4,2,3,5,0,1
88066,-90.9090909090909,4,2,3,90,0,1
88166,-90.9090909090909,4,2,3,5,0,1
88266,-90.9090909090909,4,2,3,90,0,1
89366,-90.9090909090909,4,2,3,5,0,0
89466,-66.6666666666667,4,2,3,90,0,1
90266,-90.9090909090909,4,2,3,90,0,1
91066,-90.9090909090909,4,2,3,90,0,1
91566,-90.9090909090909,4,2,3,5,0,1
91666,-90.9090909090909,4,2,3,90,0,1
91766,-90.9090909090909,4,2,3,5,0,1
91866,-66.6666666666667,4,2,3,90,0,1
92166,-66.6666666666667,4,2,3,5,0,1
92266,-200,4,2,3,90,0,1
92566,-200,4,2,3,5,0,1
92666,389.61038961039,4,2,1,80,1,0
92666,-100,4,2,1,80,0,0
94029,441.176470588235,4,2,1,80,1,0
94249,434.782608695652,4,2,1,80,1,0
94357,-100,4,2,1,5,0,0
94466,400,4,2,1,80,1,0
94466,-76.9230769230769,4,2,1,80,0,0
95866,400,4,2,1,70,1,0
95866,-125,4,2,1,70,0,0
108666,-100,4,2,2,75,0,0
110266,-200,4,2,3,60,0,0
121466,-125,4,2,3,70,0,0
121766,-125,4,2,3,5,0,0
121866,-125,4,2,3,70,0,0
121966,-125,4,2,3,5,0,0
122066,-125,4,2,3,70,0,0
122266,-125,4,2,3,5,0,0
122366,-125,4,2,3,70,0,0
123066,-111.111111111111,4,2,1,80,0,0
125666,-99.9999999999999,4,2,1,80,0,0
125766,-99.9999999999999,4,2,1,5,0,0
125866,-90.9090909090909,4,2,1,80,0,0
125966,-90.9090909090909,4,2,1,5,0,0
126066,-83.3333333333333,4,2,1,80,0,0
126166,-83.3333333333333,4,2,1,5,0,0
126266,-111.111111111111,4,2,1,80,0,0
131866,-100,4,2,1,80,0,0
131966,-100,4,2,1,5,0,0
132066,-90.9090909090909,4,2,1,80,0,0
132166,-90.9090909090909,4,2,1,5,0,0
132266,-83.3333333333333,4,2,1,80,0,0
132366,-83.3333333333333,4,2,1,5,0,0
132466,-76.9230769230769,4,2,1,80,0,0
132566,-76.9230769230769,4,2,1,5,0,0
132666,-111.111111111111,4,2,1,80,0,0
141966,-111.111111111111,4,2,1,5,0,0
142066,-111.111111111111,4,2,1,80,0,0
142166,-111.111111111111,4,2,1,5,0,0
142266,-111.111111111111,4,2,1,80,0,0
148666,-200,4,2,1,50,0,0
160666,-200,4,2,1,60,0,0
161466,-100,4,2,1,70,0,0
167866,-100,4,2,1,80,0,0
172666,-66.6666666666667,4,2,3,90,0,1
173466,-90.9090909090909,4,2,3,90,0,1
174266,-66.6666666666667,4,2,3,90,0,1
174366,-66.6666666666667,4,2,3,5,0,1
174466,-66.6666666666667,4,2,3,90,0,1
174566,-66.6666666666667,4,2,3,5,0,1
174666,-100,4,2,3,90,0,1
175066,-111.111111111111,4,2,3,90,0,1
177866,-90.9090909090909,4,2,3,90,0,1
178266,-76.9230769230769,4,2,3,90,0,1
178666,-90.9090909090909,4,2,3,90,0,1
178966,-90.9090909090909,4,2,3,5,0,0
179066,-66.6666666666667,4,2,3,90,0,1
179866,-90.9090909090909,4,2,3,90,0,1
180866,-200,4,2,3,90,0,1
181066,-200,4,2,3,90,0,1
181466,-58.8235294117647,4,2,3,90,0,1
181866,-100,4,2,3,90,0,1
182266,-90.9090909090909,4,2,3,90,0,1
183566,-90.9090909090909,4,2,3,5,0,1
183666,-90.9090909090909,4,2,3,90,0,1
183766,-90.9090909090909,4,2,3,5,0,1
183866,-90.9090909090909,4,2,3,90,0,1
183966,-90.9090909090909,4,2,3,5,0,1
184066,-90.9090909090909,4,2,3,90,0,1
184166,-90.9090909090909,4,2,3,5,0,1
184266,-90.9090909090909,4,2,3,90,0,1
184666,-90.9090909090909,4,2,1,90,0,1
185366,-90.9090909090909,4,2,1,90,0,0
185466,-55.5555555555556,4,2,3,90,0,1
186266,-66.6666666666667,4,2,3,90,0,1
187166,-66.6666666666667,4,2,3,5,0,1
187266,-66.6666666666667,4,2,3,90,0,1
187366,-66.6666666666667,4,2,3,5,0,1
187466,-90.9090909090909,4,2,3,90,0,1
187866,-100,4,2,3,90,0,1
190266,-90.9090909090909,4,2,3,90,0,1
190366,-90.9090909090909,4,2,3,5,0,1
190466,-90.9090909090909,4,2,3,90,0,1
190566,-90.9090909090909,4,2,3,5,0,1
190666,-90.9090909090909,4,2,3,90,0,1
191766,-90.9090909090909,4,2,3,5,0,0
191866,-90.9090909090909,4,2,3,90,0,1
193966,-90.9090909090909,4,2,3,5,0,1
194066,-90.9090909090909,4,2,3,90,0,1
194166,-90.9090909090909,4,2,3,5,0,1
194266,-66.6666666666667,4,2,3,90,0,1
194566,-66.6666666666667,4,2,3,5,0,1
194666,-200,4,2,3,90,0,1
194966,-200,4,2,3,5,0,1
195066,-200,4,2,3,60,0,1
198266,-200,4,2,1,50,0,0
210266,350.877192982456,4,2,1,50,1,0
210266,-200,4,2,1,50,0,0
210616,419.58041958042,4,2,1,50,1,0
210702,419.58041958042,4,2,1,50,1,0
211035,422.535211267606,4,2,3,50,1,0
211035,-501.002004008016,4,2,3,50,0,0
211457,405.405405405405,4,2,1,50,1,0
211457,-200,4,2,1,50,0,0
211862,384.615384615385,4,2,1,50,1,0
211862,-200,4,2,1,50,0,0
212631,410.958904109589,4,2,1,50,1,0
212631,-200,4,2,1,50,0,0
214685,500,4,2,1,50,1,0
214685,-200,4,2,1,50,0,0
215185,384.615384615385,4,2,1,50,1,0
215185,-200,4,2,1,50,0,0
216080,389.61038961039,4,2,1,50,1,0
216080,-200,4,2,1,50,0,0
216666,412.371134020619,4,2,1,50,1,0
216666,-200,4,2,1,50,0,0
217492,384.615384615385,4,2,1,50,1,0
217492,-200,4,2,1,50,0,0
218261,384.615384615385,4,2,1,50,1,0
218261,-200,4,2,1,50,0,0
219415,476.190476190476,4,2,1,50,1,0
219415,-200,4,2,1,50,0,0
219891,-200,4,2,1,50,0,0

[Colours]
Combo1 : 170,213,255
Combo2 : 255,255,193

[HitObjects]
121,346,8735,6,0,B|80:329|49:301|54:255|61:233|71:216|97:201|126:200|154:204|169:216|183:241|186:263|189:292|189:292|196:209|204:170|235:114|256:89|286:62|327:34|356:33|394:29|414:41|434:54|477:97|469:145|424:188|372:186|351:154,1,872,4|2,2:1|0:1,0:0:0:0:
43,200,15144,6,0,P|71:186|105:186,1,65.4,2|0,0:0|0:0,0:0:0:0:
98,102,15572,2,0,P|129:103|158:120,1,65.4,2|0,0:0|0:0,0:0:0:0:
192,44,15937,2,0,P|218:61|235:90,1,65.4,2|0,0:0|0:0,0:0:0:0:
219,178,16231,5,2,0:0:0:0:
219,178,16752,5,2,0:0:0:0:
424,361,17466,5,6,3:2:0:0:
487,282,17666,1,2,0:2:0:0:
392,158,17866,2,0,L|371:276,1,103.549997234917,2|0,1:2|3:2,0:0:0:0:
424,361,18266,2,0,B|383:320|383:320|409:174,1,207.099994469834,2|2,0:2|1:2,0:0:0:0:
434,51,18866,1,2,0:2:0:0:
274,97,19066,6,0,L|292:200,1,103.549997234917,6|0,3:3|0:2,0:0:0:0:
104,185,19466,2,0,B|145:226|145:226|291:200,1,207.099994469834,2|0,1:2|0:2,0:0:0:0:
158,314,20066,2,0,L|99:303,1,57.2249982536317,2|0,3:2|0:0,0:0:0:0:
159,325,20266,2,0,L|97:314,1,62.6750011954308,2|0,1:2|0:0,0:0:0:0:
159,337,20466,2,0,L|87:324,1,68.125,2|0,0:2|0:0,0:0:0:0:
228,247,20666,5,6,3:3:0:0:
315,310,20866,1,2,0:2:0:0:
467,200,21066,2,0,P|424:171|373:171,1,103.549997234917,2|0,1:2|3:2,0:0:0:0:
281,78,21466,2,0,P|281:171|374:171,1,207.099994469834,2|2,0:2|1:2,0:0:0:0:
450,93,22066,1,2,0:2:0:0:
448,297,22266,6,0,P|396:297|354:268,1,103.549997234917,6|0,3:3|0:2,0:0:0:0:
244,339,22666,2,0,B|145:382|145:292|44:331,1,207.099994469834,2|2,1:2|0:2,0:0:0:0:
203,202,23266,2,0,P|203:229|224:264,1,57.2249982536317,2|0,3:2|0:0,0:0:0:0:
193,201,23466,2,0,P|193:229|215:266,1,62.6750011954308,2|0,1:2|0:0,0:0:0:0:
181,200,23666,2,0,P|181:230|204:269,1,68.125,2|0,0:2|0:0,0:0:0:0:
293,206,23866,5,6,3:3:0:0:
388,291,24066,1,2,0:2:0:0:
481,144,24266,2,0,P|447:114|389:114,1,103.549997234917,2|0,1:2|3:2,0:0:0:0:
225,62,24666,2,0,P|290:22|290:115,1,207.099994469834,2|2,0:2|1:2,0:0:0:0:
130,173,25266,1,2,0:2:0:0:
187,242,25466,6,0,P|216:202|216:148,1,103.549997234917,6|0,3:3|0:2,0:0:0:0:
99,81,25866,2,0,P|30:165|67:252,1,207.099994469834,2|0,1:2|0:2,0:0:0:0:
182,357,26466,2,0,L|243:345,1,57.2249982536317,2|0,3:2|0:0,0:0:0:0:
178,347,26666,2,0,L|239:335,1,62.6750011954308,2|0,1:2|0:0,0:0:0:0:
173,335,26866,2,0,L|241:321,1,68.125,2|0,0:2|0:0,0:0:0:0:
329,358,27066,5,6,3:3:0:0:
408,259,27266,1,2,0:2:0:0:
253,197,27466,2,0,P|200:197|161:234,1,103.549997234917,2|0,1:2|3:2,0:0:0:0:
70,130,27866,2,0,P|101:36|149:106,1,207.099994469834,2|2,0:2|1:2,0:0:0:0:
299,22,28466,1,2,0:2:0:0:
362,103,28666,6,0,L|464:85,1,103.549997234917,6|0,3:3|0:2,0:0:0:0:
393,241,29066,2,0,L|290:223,1,103.549997234917,2|0,1:2|3:2,0:0:0:0:
106,275,29466,1,0,1:2:0:0:
128,266,29666,1,2,0:2:0:0:
281,319,29866,1,2,1:2:0:0:
194,361,30066,1,2,0:2:0:0:
256,192,32266,12,0,33266,0:0:0:0:
40,196,33466,6,0,L|67:349,1,152.599995343018,4|2,3:2|1:2,0:0:0:0:
160,228,34066,2,0,L|146:303,2,76.2999976715089,2|2|2,3:2|0:2|0:2,0:0:0:0:
235,241,34666,2,0,L|159:227,1,76.2999976715089,2|2,1:2|0:2,0:0:0:0:
310,200,35066,6,0,L|160:227,1,152.599995343018,6|2,3:3|1:2,0:0:0:0:
102,139,35666,2,0,P|135:122|178:125,1,76.2999976715089,2|2,3:2|0:2,0:0:0:0:
166,265,36066,2,0,L|159:227,1,38.1499988357544,10|0,1:2|0:0,0:0:0:0:
85,261,36266,2,0,L|91:298,1,38.1499988357544,10|0,1:2|0:0,0:0:0:0:
249,349,36466,1,2,3:2:0:0:
249,349,36566,1,2,0:0:0:0:
249,349,36666,6,0,L|275:198,1,152.599995343018,4|2,3:3|1:2,0:0:0:0:
294,67,37266,1,2,3:2:0:0:
214,129,37466,2,0,L|200:53,1,76.2999976715089,2|0,0:2|0:2,0:0:0:0:
343,176,37866,2,0,P|306:176|275:198,1,76.2999976715089,2|2,1:2|0:2,0:0:0:0:
336,87,38266,6,0,P|373:87|404:108,1,76.2999976715089,6|2,3:3|0:2,0:0:0:0:
429,198,38666,1,2,1:2:0:0:
486,77,38866,2,0,P|486:151|429:197,1,152.599995343018,2|0,3:2|3:2,0:0:0:0:
336,87,39466,2,0,L|299:93,1,38.1499988357544,2|0,1:2|0:0,0:0:0:0:
237,146,39666,2,0,L|200:140,1,38.1499988357544,2|0,3:2|0:0,0:0:0:0:
105,119,39866,5,6,3:3:0:0:
105,119,40266,1,2,1:2:0:0:
181,41,40466,1,2,3:2:0:0:
336,87,40666,1,2,0:2:0:0:
336,87,41066,1,2,1:2:0:0:
466,226,41266,6,0,P|451:158|395:193,1,152.599995343018,2|2,0:2|0:2,0:0:0:0:
282,292,41866,1,2,1:2:0:0:
282,292,42066,2,0,P|289:260|316:280,1,76.2999976715089,2|0,3:2|0:2,0:0:0:0:
466,226,42466,2,0,L|460:263,1,38.1499988357544,8|0,1:2|0:0,0:0:0:0:
400,349,42666,2,0,L|394:312,1,38.1499988357544,8|0,1:2|0:0,0:0:0:0:
370,181,42866,1,0,3:2:0:0:
282,292,43066,5,4,3:2:0:0:
72,86,43466,5,2,1:2:0:0:
21,170,43666,2,0,P|21:226|104:281,1,163.50000623703,2|2,3:2|0:2,0:0:0:0:
179,262,44266,2,0,P|134:262|94:295,1,81.7500031185151,2|2,1:2|0:2,0:0:0:0:
216,347,44566,1,2,0:0:0:0:
216,347,44666,6,0,L|244:181,1,163.50000623703,6|2,3:3|1:2,0:0:0:0:
318,249,45266,1,2,3:2:0:0:
467,183,45466,1,2,0:2:0:0:
342,162,45666,1,10,1:2:0:0:
393,289,45866,2,0,L|386:329,1,40.8750015592576,10|0,1:2|0:0,0:0:0:0:
464,351,46066,2,0,L|470:310,1,40.8750015592576,2|0,3:2|0:0,0:0:0:0:
498,158,46266,6,0,B|514:44|514:44|456:83,1,163.50000623703,4|2,3:3|1:2,0:0:0:0:
310,162,46866,2,0,L|323:242,1,81.7500031185151,2|2,3:2|0:2,0:0:0:0:
394,98,47266,1,2,0:2:0:0:
326,41,47466,2,0,P|288:36|249:52,1,81.7500031185151,2|2,1:2|0:2,0:0:0:0:
162,147,47766,1,2,0:0:0:0:
162,147,47866,6,0,B|197:182|197:182|322:159,1,163.50000623703,6|2,3:3|1:2,0:0:0:0:
432,219,48466,1,2,3:2:0:0:
487,145,48666,1,2,0:2:0:0:
331,250,48866,2,0,L|338:290,1,40.8750015592576,10|0,1:2|0:0,0:0:0:0:
253,278,49066,2,0,L|260:318,1,40.8750015592576,10|0,1:2|0:0,0:0:0:0:
389,357,49266,1,2,3:2:0:0:
471,190,49466,6,0,P|434:168|392:172,1,81.7500031185151,4|2,3:3|0:2,0:0:0:0:
315,115,49866,1,2,1:2:0:0:
223,202,50066,1,2,3:2:0:0:
128,74,50266,2,0,P|55:50|55:121,1,163.50000623703,2|2,0:2|1:2,0:0:0:0:
223,202,50866,5,2,0:2:0:0:
64,253,51066,1,6,3:3:0:0:
125,169,51266,1,2,0:2:0:0:
223,305,51466,1,2,1:2:0:0:
223,202,51666,1,2,3:2:0:0:
125,337,51866,1,2,2:2:0:0:
245,55,52266,6,0,P|272:55|299:70,1,40.8750015592576,2|0,1:2|0:0,0:0:0:0:
363,159,52466,2,0,P|359:139|348:123,1,40.8750015592576,2|0,3:2|0:0,0:0:0:0:
373,33,52666,5,6,3:3:0:0:
373,33,53066,5,2,1:0:0:0:
364,159,53266,1,2,3:0:0:0:
245,54,53466,1,2,0:0:0:0:
245,54,53866,5,0,1:0:0:0:
364,158,54066,6,0,P|428:128|437:197,1,163.50000623703,2|2,0:0|0:0,0:0:0:0:
271,273,54666,1,2,1:0:0:0:
271,273,54866,2,0,P|275:237|310:247,1,81.7500031185151,2|0,3:0|0:0,0:0:0:0:
383,350,55266,2,0,L|437:361,1,54.5,8|0,1:2|0:0,0:0:0:0:
426,277,55466,2,0,L|480:267,1,54.5,8|0,1:2|0:0,0:0:0:0:
434,195,55666,5,0,3:0:0:0:
296,35,55866,5,4,1:3:0:0:
295,89,56066,1,2,1:3:0:0:
170,68,56266,5,6,1:3:0:0:
196,125,56466,1,2,1:0:0:0:
66,154,56666,5,6,1:3:0:0:
118,216,56866,1,0,1:0:0:0:
17,334,57066,1,6,1:3:0:0:
55,304,57166,1,0,1:0:0:0:
103,299,57266,1,6,1:3:0:0:
148,319,57366,1,0,1:0:0:0:
176,358,57466,5,6,3:2:0:0:
380,297,57666,1,2,0:0:0:0:
380,297,57766,1,2,0:0:0:0:
380,297,57866,2,0,P|428:297|470:262,1,98.0999970062257,0|2,3:0|0:0,0:0:0:0:
438,189,58166,1,2,0:0:0:0:
438,189,58266,2,0,P|390:189|348:224,1,98.0999970062257,10|0,1:1|0:0,0:0:0:0:
195,109,58666,1,2,3:0:0:0:
272,48,58866,1,0,3:3:0:0:
272,48,58966,1,0,0:0:0:0:
272,48,59066,6,0,L|288:152,1,98.0999970062257,6|2,3:3|0:0,0:0:0:0:
366,121,59366,1,2,0:0:0:0:
366,121,59466,2,0,L|350:225,1,98.0999970062257,2|0,3:0|0:0,0:0:0:0:
418,266,59766,1,2,0:0:0:0:
418,266,59866,1,10,1:1:0:0:
292,356,60066,1,2,0:0:0:0:
292,356,60166,1,2,0:0:0:0:
292,356,60266,1,2,3:0:0:0:
208,296,60466,1,2,3:3:0:0:
208,296,60566,1,2,0:0:0:0:
208,296,60666,6,0,L|104:312,1,98.0999970062257,6|2,3:3|0:0,0:0:0:0:
54,165,61066,1,2,3:2:0:0:
145,215,61266,1,2,2:3:0:0:
215,57,61466,2,0,P|192:17|157:53,1,98.0999970062257,10|0,1:1|0:2,0:0:0:0:
165,126,61766,1,2,0:0:0:0:
165,126,61866,1,2,3:2:0:0:
279,199,62066,1,2,3:3:0:0:
357,130,62266,6,0,L|453:145,1,98.0999970062257,6|0,3:3|0:2,0:0:0:0:
503,218,62566,1,2,0:0:0:0:
503,218,62666,1,2,3:3:0:0:
328,356,62866,1,2,0:2:0:0:
328,356,62966,1,2,0:0:0:0:
328,356,63066,2,0,L|320:307,3,49.0499985031128,10|8|8|8,2:1|0:1|0:1|0:1,0:0:0:0:
247,282,63466,1,6,3:3:0:0:
198,283,63566,1,8,2:1:0:0:
159,256,63666,1,8,2:1:0:0:
143,210,63766,1,8,2:1:0:0:
158,164,63866,6,0,P|103:164|58:119,1,98.0999970062257,6|0,3:2|0:2,0:0:0:0:
91,60,64166,1,2,0:0:0:0:
91,60,64266,2,0,P|146:60|191:105,1,98.0999970062257,2|2,3:2|0:2,0:0:0:0:
249,37,64566,1,2,0:0:0:0:
249,37,64666,1,10,1:1:0:0:
367,167,64866,1,2,0:2:0:0:
367,167,64966,1,2,0:0:0:0:
367,167,65066,2,0,L|375:111,1,49.0499985031128,2|0,3:2|0:0,0:0:0:0:
453,135,65266,2,0,L|446:183,1,49.0499985031128,2|0,3:3|0:0,0:0:0:0:
293,226,65466,6,0,L|277:117,1,98.0999970062257,6|0,3:3|0:2,0:0:0:0:
159,167,65866,2,0,L|172:264,1,98.0999970062257,2|2,3:2|0:2,0:0:0:0:
104,344,66166,1,2,0:0:0:0:
104,344,66266,2,0,P|160:344|209:382,1,98.0999970062257,10|2,1:1|0:2,0:0:0:0:
267,316,66566,1,2,0:0:0:0:
267,316,66666,2,0,P|323:316|372:278,1,98.0999970062257,2|2,3:2|3:2,0:0:0:0:
294,225,66966,1,2,0:0:0:0:
294,225,67066,5,6,3:3:0:0:
438,358,67266,1,2,0:2:0:0:
438,358,67366,1,2,0:0:0:0:
438,358,67466,2,0,L|451:261,1,98.0999970062257,2|2,3:2|0:2,0:0:0:0:
467,182,67766,1,2,0:0:0:0:
467,182,67866,1,10,1:1:0:0:
299,76,68066,1,2,0:2:0:0:
299,76,68166,1,2,0:0:0:0:
299,76,68266,1,2,3:2:0:0:
360,291,68466,5,2,3:2:0:0:
416,44,68666,1,6,3:1:0:0:
151,298,70266,6,0,P|51:215|56:345,1,327.000012474061,14|2,1:1|2:2,0:0:0:0:
151,298,70866,1,2,0:2:0:0:
228,176,71066,2,0,P|207:126|158:148,1,119.900003659058,10|0,2:1|2:2,0:0:0:0:
303,235,71466,1,2,2:2:0:0:
363,136,71666,1,0,3:1:0:0:
303,235,71866,6,0,L|315:322,1,81.7500031185151,2|0,2:2|0:0,0:0:0:0:
434,350,72066,2,0,L|445:268,1,81.7500031185151,4|0,3:3|0:0,0:0:0:0:
324,211,72266,6,0,L|348:337,1,109,6|0,2:3|2:2,0:0:0:0:
454,363,72666,2,0,L|473:266,1,98.0999970062257,10|0,2:1|2:2,0:0:0:0:
506,100,73066,1,2,2:2:0:0:
345,192,73266,5,4,3:3:0:0:
345,192,73366,1,0,3:0:0:0:
345,192,73466,1,6,1:1:0:0:
261,155,73666,1,2,2:2:0:0:
271,65,73866,1,2,2:2:0:0:
361,43,74066,1,2,2:2:0:0:
408,125,74266,5,10,2:1:0:0:
271,65,74666,5,0,2:2:0:0:
156,210,74866,5,0,3:2:0:0:
156,210,74966,1,0,3:0:0:0:
156,210,75066,1,6,2:1:0:0:
20,170,75266,1,10,2:1:0:0:
90,49,75466,2,0,L|80:128,1,59.9500018295289,2|0,3:2|0:0,0:0:0:0:
20,170,75666,2,0,L|31:218,2,29.9750009147644,2|0|0,2:2|0:0|0:0,0:0:0:0:
191,231,75866,6,0,P|151:178|117:221,1,119.900003659058,10|0,1:1|2:2,0:0:0:0:
257,148,76266,2,0,L|295:141,3,29.9750009147644,6|0|0|0,3:3|0:0|0:0|0:0,0:0:0:0:
298,117,76466,2,0,L|238:126,1,59.9500018295289,6|0,3:3|0:0,0:0:0:0:
375,41,76666,6,0,L|394:160,1,119.900003659058,14|0,1:1|2:2,0:0:0:0:
426,350,77066,1,2,2:2:0:0:
347,248,77266,1,2,2:2:0:0:
490,116,77466,2,0,L|469:253,1,119.900003659058,10|0,2:1|2:2,0:0:0:0:
394,160,77866,5,2,2:2:0:0:
347,248,78066,1,0,3:2:0:0:
299,117,78266,1,2,2:2:0:0:
299,117,78366,1,2,0:0:0:0:
299,117,78466,1,4,3:3:0:0:
124,238,78666,6,0,P|84:236|50:215,1,81.7500031185151,6|0,3:3|0:0,0:0:0:0:
72,136,78866,2,0,P|113:137|147:158,1,81.7500031185151,0|0,3:3|0:0,0:0:0:0:
182,40,79066,6,0,B|236:172|124:172|180:308,1,277.950005301476,10|0,2:1|0:0,0:0:0:0:
337,286,79466,2,0,P|324:195|258:260,1,218,2|4,2:2|3:3,0:0:0:0:
109,348,79866,6,0,P|126:296|180:309,1,119.900003659058,14|2,1:1|2:2,0:0:0:0:
254,384,80266,1,2,2:2:0:0:
180,308,80466,1,2,2:1:0:0:
317,167,80666,2,0,L|337:286,1,119.900003659058,10|0,2:1|2:2,0:0:0:0:
429,53,81066,5,6,3:3:0:0:
404,205,81266,2,0,L|415:134,1,59.9500018295289,0|0,3:3|0:0,0:0:0:0:
326,107,81466,2,0,L|316:166,1,59.9500018295289,6|0,3:3|0:0,0:0:0:0:
416,214,81666,2,0,L|427:143,1,59.9500018295289,0|0,3:3|0:0,0:0:0:0:
429,53,81866,5,4,3:3:0:0:
260,344,82266,5,10,2:1:0:0:
176,304,82466,1,10,2:1:0:0:
154,203,82666,1,6,3:3:0:0:
90,117,82866,1,6,3:3:0:0:
260,344,83066,5,12,1:1:0:0:
388,206,83466,5,2,2:2:0:0:
309,181,83666,1,2,0:2:0:0:
189,352,83866,2,0,B|215:314|215:314|197:199,1,163.50000623703,10|0,2:1|2:2,0:0:0:0:
189,352,84266,1,2,2:2:0:0:
113,284,84466,1,0,3:1:0:0:
308,181,84666,6,0,L|294:261,1,81.7500031185151,2|0,2:2|0:0,0:0:0:0:
379,290,84866,2,0,L|391:208,1,81.7500031185151,4|0,3:3|0:0,0:0:0:0:
270,100,85066,6,0,L|294:260,1,163.50000623703,6|0,2:3|2:2,0:0:0:0:
454,358,85466,2,0,L|480:185,1,174.4,10|0,2:1|2:2,0:0:0:0:
505,31,85866,1,2,2:2:0:0:
308,181,86066,5,4,3:3:0:0:
308,181,86166,1,0,3:0:0:0:
308,181,86266,1,6,1:1:0:0:
319,32,86466,1,2,2:2:0:0:
232,147,86666,1,2,2:2:0:0:
368,112,86866,1,2,2:2:0:0:
234,58,87066,1,10,2:1:0:0:
53,253,87466,5,2,2:2:0:0:
53,253,87566,1,0,3:0:0:0:
53,253,87666,1,6,3:3:0:0:
85,66,87866,6,0,L|78:125,1,59.9500018295289,6|0,2:1|0:0,0:0:0:0:
156,165,88066,2,0,L|164:234,1,59.9500018295289,10|0,2:1|0:0,0:0:0:0:
179,319,88266,1,2,3:2:0:0:
256,144,88466,2,0,L|256:191,2,29.9750009147644,2|0|0,2:2|0:0|0:0,0:0:0:0:
256,48,88666,5,14,1:1:0:0:
256,256,88866,1,0,2:2:0:0:
353,172,89066,2,0,L|350:202,3,29.9750009147644,6|0|0|0,3:3|0:0|0:0|0:0,0:0:0:0:
378,215,89266,2,0,L|385:156,1,59.9500018295289,6|0,3:3|0:0,0:0:0:0:
469,266,89466,6,0,P|437:190|374:227,1,163.50000623703,14|0,1:1|2:2,0:0:0:0:
257,143,89866,1,2,2:2:0:0:
398,69,90066,1,2,2:2:0:0:
257,143,90266,2,0,P|204:143|153:99,1,119.900003659058,10|0,2:1|2:2,0:0:0:0:
117,313,90666,5,2,2:2:0:0:
49,152,90866,1,4,3:3:0:0:
41,273,91066,2,0,P|84:233|143:231,1,119.900003659058,2|4,3:2|3:3,0:0:0:0:
311,322,91466,6,0,P|304:293|286:270,1,59.9500018295289,2|0,3:3|0:0,0:0:0:0:
207,307,91666,2,0,P|214:336|233:360,1,59.9500018295289,4|0,3:3|0:0,0:0:0:0:
395,384,91866,6,0,L|433:135,1,245.250009355545,10|0,2:1|0:0,0:0:0:0:
327,115,92266,6,0,L|341:218,1,81.75,2|0,2:2|0:0,0:0:0:0:
449,30,92666,5,14,1:1:0:0:
69,355,94249,6,0,L|58:291,1,54.5,2|0,0:0|0:0,0:0:0:0:
44,189,94466,5,2,1:0:0:0:
142,220,94666,1,0,1:0:0:0:
188,94,94866,1,0,1:0:0:0:
290,221,95066,1,0,1:0:0:0:
316,28,95266,1,0,1:0:0:0:
449,168,95466,1,0,1:0:0:0:
151,347,95866,6,0,L|120:168,1,174.4,4|2,3:2|1:2,0:0:0:0:
38,107,96466,1,2,3:2:0:0:
136,89,96666,2,0,L|121:174,1,87.2,2|2,0:2|3:2,0:0:0:0:
220,226,97066,2,0,L|205:141,1,87.2,2|2,1:2|0:2,0:0:0:0:
391,196,97466,6,0,L|220:226,1,174.4,6|2,3:3|1:2,0:0:0:0:
69,303,98066,1,2,3:2:0:0:
151,347,98266,1,2,0:2:0:0:
220,226,98466,1,10,1:2:0:0:
306,268,98666,1,10,1:2:0:0:
378,115,98866,1,2,3:2:0:0:
378,115,98966,1,2,0:0:0:0:
378,115,99066,6,0,P|440:77|454:155,1,174.4,4|2,3:3|1:2,0:0:0:0:
296,155,99666,2,0,P|284:114|297:65,2,87.2,2|2|2,3:2|0:2|3:2,0:0:0:0:
402,245,100266,1,2,1:2:0:0:
307,293,100466,1,2,0:2:0:0:
188,353,100666,6,0,L|103:338,1,87.2,6|2,3:3|0:2,0:0:0:0:
173,185,101066,2,0,L|158:270,1,87.2,2|2,1:2|3:2,0:0:0:0:
81,164,101466,1,2,0:2:0:0:
219,83,101666,1,10,2:2:0:0:
89,58,101866,1,10,1:2:0:0:
252,0,102066,1,2,3:2:0:0:
252,0,102166,1,2,0:0:0:0:
252,0,102266,6,0,P|306:53|271:152,1,174.4,4|2,3:3|1:2,0:0:0:0:
430,213,102866,1,2,3:2:0:0:
343,262,103066,2,0,L|358:347,1,87.2,2|2,0:2|3:2,0:0:0:0:
430,213,103466,2,0,L|445:128,1,87.2,2|2,1:2|0:2,0:0:0:0:
325,54,103866,5,6,3:3:0:0:
283,139,104066,1,2,0:2:0:0:
126,96,104266,1,2,1:2:0:0:
176,181,104466,1,2,3:2:0:0:
176,181,104566,1,2,0:0:0:0:
176,181,104666,2,0,P|194:223|176:287,1,87.2,2|8,0:2|1:2,0:0:0:0:
59,353,105066,1,10,1:2:0:0:
13,265,105266,1,2,3:2:0:0:
181,351,105466,5,6,3:2:0:0:
359,254,105866,5,2,1:2:0:0:
273,185,106066,1,2,3:2:0:0:
434,207,106266,2,0,P|434:309|371:339,1,174.4,2|0,0:2|1:2,0:0:0:0:
434,207,106866,1,2,0:2:0:0:
379,339,107066,6,0,B|300:362|300:298|209:333,1,174.4,4|2,3:3|1:2,0:0:0:0:
106,358,107666,2,0,L|90:250,1,87.2,2|0,3:2|0:2,0:0:0:0:
74,165,108066,1,8,1:2:0:0:
207,201,108266,1,8,1:2:0:0:
267,55,108466,1,0,3:2:0:0:
267,55,108566,1,2,0:0:0:0:
267,55,108666,5,4,1:3:0:0:
276,106,108866,1,2,1:3:0:0:
403,177,109066,5,6,1:3:0:0:
414,112,109266,1,2,1:0:0:0:
203,187,109466,5,6,1:3:0:0:
226,272,109666,1,0,1:0:0:0:
455,338,109866,5,6,1:3:0:0:
427,304,109966,1,0,1:0:0:0:
387,286,110066,1,6,1:3:0:0:
344,287,110166,1,0,1:0:0:0:
305,306,110266,1,4,3:2:0:0:
256,192,110366,12,2,112666,0:0:0:0:
90,45,113266,5,2,0:0:0:0:
150,103,113466,2,0,L|143:157,1,54.5,2|2,0:0|0:0,0:0:0:0:
121,243,113866,1,2,0:0:0:0:
121,243,114066,1,2,0:0:0:0:
47,190,114266,2,0,P|89:157|143:157,1,109,2|2,0:0|0:0,0:0:0:0:
204,218,114866,1,2,0:0:0:0:
287,192,115066,6,0,P|316:192|347:175,1,54.5,2|0,0:0|0:0,0:0:0:0:
463,146,115466,2,0,P|444:100|397:116,2,109,2|2|2,0:0|0:0|0:0,0:0:0:0:
338,181,116466,1,0,0:0:0:0:
256,60,116666,6,0,P|202:51|157:87,1,109,6|2,0:1|0:0,0:0:0:0:
48,215,117466,2,0,P|91:245|143:236,1,109,2|2,0:0|0:0,0:0:0:0:
219,193,118066,1,2,0:0:0:0:
224,333,118266,6,0,L|217:280,1,54.5,2|0,0:0|0:0,0:0:0:0:
296,243,118666,2,0,L|303:296,1,54.5,2|2,0:0|0:0,0:0:0:0:
399,354,119066,2,0,L|406:300,1,54.5,2|2,0:0|0:0,0:0:0:0:
480,252,119466,1,2,0:0:0:0:
480,252,119666,1,2,0:0:0:0:
478,164,119866,6,0,P|430:136|378:146,1,109,2|2,0:0|0:0,0:0:0:0:
320,80,120466,1,2,0:0:0:0:
237,107,120666,1,2,0:0:0:0:
39,128,121066,5,2,0:0:0:0:
39,128,121266,1,2,0:0:0:0:
34,260,121466,6,0,P|69:207|110:247,1,130.8,2|2,0:0|0:0,0:0:0:0:
213,318,121866,2,0,L|157:309,1,43.6
169,311,122066,2,0,L|268:297,1,87.2,2|2,0:0|0:0,0:0:0:0:
342,342,122366,2,0,P|269:344|266:276,1,130.8
255,298,122766,1,2,0:0:0:0:
255,298,122866,1,2,0:0:0:0:
486,222,123066,5,4,3:2:0:0:
418,302,123266,1,0,0:2:0:0:
324,172,123466,2,0,L|212:191,1,98.0999970062257,2|0,1:2|3:2,0:0:0:0:
402,111,123866,2,0,P|388:29|319:75,1,196.199994012451,2|2,0:2|1:2,0:0:0:0:
299,270,124466,1,2,0:2:0:0:
299,270,124566,1,2,0:0:0:0:
299,270,124666,6,0,L|410:289,1,98.0999970062257,6|0,3:3|0:2,0:0:0:0:
202,321,125066,2,0,L|395:286,1,196.199994012451,2|0,1:2|0:2,0:0:0:0:
217,135,125666,2,0,L|228:199,1,54.5,2|0,3:2|0:0,0:0:0:0:
234,127,125866,2,0,L|245:191,1,59.9500018295289,2|0,1:2|0:0,0:0:0:0:
255,119,126066,2,0,L|266:183,1,65.3999980041505,2|0,3:2|0:0,0:0:0:0:
320,65,126266,1,6,3:3:0:0:
199,41,126466,1,2,0:2:0:0:
395,10,126666,2,0,P|412:57|396:110,1,98.0999970062257,2|0,1:2|3:2,0:0:0:0:
266,183,127066,6,0,L|459:218,1,196.199994012451,2|2,0:2|1:2,0:0:0:0:
400,102,127666,1,2,0:2:0:0:
362,234,127866,2,0,L|459:218,1,98.0999970062257,6|0,3:3|0:2,0:0:0:0:
402,350,128266,2,0,B|309:377|309:301|202:342,1,196.199994012451,2|0,1:2|0:2,0:0:0:0:
120,365,128866,1,2,3:2:0:0:
43,157,129066,1,2,1:2:0:0:
226,229,129266,1,2,3:2:0:0:
101,274,129466,5,4,3:2:0:0:
211,339,129666,1,2,0:2:0:0:
292,155,129866,2,0,P|264:132|200:132,1,98.0999970062257,2|0,1:2|3:2,0:0:0:0:
304,268,130266,2,0,L|497:233,1,196.199994012451,2|2,0:2|1:2,0:0:0:0:
378,77,130866,1,2,0:2:0:0:
378,77,130966,1,2,0:0:0:0:
378,77,131066,6,0,P|368:123|398:174,1,98.0999970062257,2|0,3:2|0:2,0:0:0:0:
497,231,131466,2,0,L|518:102,1,98.0999970062257,2|0,1:2|3:2,0:0:0:0:
382,274,131866,2,0,L|391:329,1,54.5,0|0,0:2|0:0,0:0:0:0:
366,273,132066,2,0,L|375:333,1,59.9500018295289,2|0,3:2|0:0,0:0:0:0:
348,273,132266,2,0,L|358:338,1,65.3999980041505,2|0,1:2|0:0,0:0:0:0:
334,270,132466,2,0,L|346:348,1,70.8499967567445,2|0,3:2|0:0,0:0:0:0:
467,357,132666,5,2,3:2:0:0:
497,232,132866,1,2,0:2:0:0:
386,164,133066,2,0,P|364:120|374:73,1,98.0999970062257,2|0,1:2|3:2,0:0:0:0:
253,187,133466,2,0,P|262:139|241:96,1,98.0999970062257,2|0,0:2|3:2,0:0:0:0:
453,102,133866,1,2,1:2:0:0:
334,270,134066,1,2,0:2:0:0:
253,187,134266,5,2,3:2:0:0:
448,239,134466,1,2,0:2:0:0:
448,239,134566,1,2,0:0:0:0:
448,239,134666,2,0,L|518:228,1,49.0499985031128,2|0,1:2|0:0,0:0:0:0:
416,340,134866,1,2,3:0:0:0:
416,340,134966,1,2,0:0:0:0:
416,340,135066,2,0,L|486:351,1,49.0499985031128,2|0,0:0|0:0,0:0:0:0:
331,266,135266,1,2,3:0:0:0:
203,344,135466,1,2,1:0:0:0:
203,344,135566,1,0,1:0:0:0:
203,344,135666,1,2,1:0:0:0:
59,151,135866,6,0,L|252:186,1,196.199994012451,6|0,3:2|1:2,0:0:0:0:
376,74,136466,2,0,P|376:111|340:162,1,98.0999970062257,0|0,3:2|0:2,0:0:0:0:
252,186,136866,1,0,3:2:0:0:
411,247,137066,2,0,L|314:264,1,98.0999970062257,0|2,1:2|0:2,0:0:0:0:
478,328,137466,6,0,L|285:363,1,196.199994012451,0|0,3:2|1:2,0:0:0:0:
160,265,138066,2,0,P|115:265|73:294,1,98.0999970062257,2|2,3:2|0:2,0:0:0:0:
151,166,138466,2,0,P|195:166|237:195,1,98.0999970062257,0|0,3:2|1:2,0:0:0:0:
160,265,138866,1,2,3:2:0:0:
69,118,139066,6,0,P|69:38|143:79,1,196.199994012451,6|2,3:2|1:2,0:0:0:0:
237,195,139666,2,0,L|255:99,1,98.0999970062257,2|0,3:2|0:2,0:0:0:0:
151,166,140066,1,0,3:2:0:0:
218,287,140266,2,0,P|264:287|307:254,1,98.0999970062257,0|2,1:2|0:2,0:0:0:0:
493,258,140666,6,0,B|397:290|397:210|301:258,1,196.199994012451,0|0,3:2|1:2,0:0:0:0:
365,345,141266,1,2,3:2:0:0:
365,345,141366,1,2,0:0:0:0:
365,345,141466,1,2,0:2:0:0:
303,256,141666,1,2,3:2:0:0:
449,178,141866,2,0,L|443:129,1,49.0499985031128,2|0,1:2|0:0,0:0:0:0:
366,162,142066,2,0,L|371:210,1,49.0499985031128,2|0,3:2|0:0,0:0:0:0:
493,258,142266,6,0,B|397:290|397:210|301:258,1,196.199994012451,4|2,3:2|1:2,0:0:0:0:
189,169,142866,2,0,P|188:120|161:80,1,98.0999970062257,2|0,3:2|0:2,0:0:0:0:
80,34,143266,1,2,3:2:0:0:
77,208,143466,2,0,P|49:167|49:119,1,98.0999970062257,2|2,1:2|0:2,0:0:0:0:
0,261,143866,6,0,B|93:214|93:294|189:262,1,196.199994012451,0|0,3:2|1:2,0:0:0:0:
359,240,144466,2,0,L|376:143,1,98.0999970062257,2|2,3:2|0:2,0:0:0:0:
247,110,144866,1,0,3:2:0:0:
283,292,145066,2,0,L|265:195,1,98.0999970062257,0|2,1:2|3:2,0:0:0:0:
462,167,145466,6,0,L|426:360,1,196.199994012451,6|2,3:2|1:2,0:0:0:0:
359,240,146066,2,0,L|376:143,1,98.0999970062257,2|0,3:2|0:2,0:0:0:0:
397,54,146466,1,0,3:2:0:0:
247,110,146666,1,0,1:2:0:0:
119,161,146866,1,2,0:2:0:0:
119,161,146966,1,2,0:0:0:0:
119,161,147066,6,0,L|61:150,3,49.0499985031128,0|0|0|0,1:2|1:2|1:2|1:2,0:0:0:0:
22,144,147466,1,0,3:2:0:0:
160,283,147666,1,0,1:2:0:0:
160,283,147766,1,0,1:2:0:0:
160,283,147866,6,0,L|218:272,1,49.0499985031128,0|0,1:2|1:2,0:0:0:0:
256,267,148066,1,0,3:2:0:0:
397,349,148266,1,4,2:3:0:0:
431,338,148366,1,4,2:3:0:0:
458,313,148466,1,4,2:3:0:0:
471,279,148566,1,4,2:3:0:0:
467,243,148666,5,4,2:2:0:0:
377,50,149066,5,2,0:0:0:0:
368,54,149266,1,2,0:0:0:0:
358,61,149466,2,0,L|294:69,1,54.5,2|0,0:0|0:0,0:0:0:0:
231,105,149866,2,0,P|221:69|229:37,1,54.5,2|2,0:0|0:0,0:0:0:0:
304,69,150266,5,2,0:0:0:0:
260,226,150666,2,0,P|212:195|155:211,2,109,2|2|0,0:0|0:0|0:0,0:0:0:0:
377,340,151866,6,0,P|404:327|442:332,3,54.5,2|2|2|2,0:0|0:0|0:0|0:0,0:0:0:0:
461,249,152666,1,2,0:0:0:0:
320,165,153066,1,2,0:0:0:0:
320,165,153266,1,2,0:0:0:0:
320,165,153466,6,0,P|349:167|380:190,3,54.5,2|2|2|2,0:0|0:0|0:0|0:0,0:0:0:0:
432,126,154266,1,2,0:0:0:0:
246,71,154666,2,0,P|246:27|287:49,1,109,2|2,0:0|0:0,0:0:0:0:
146,133,155466,6,0,L|152:187,2,54.5,2|2|2,0:0|0:0|0:0,0:0:0:0:
17,233,156266,2,0,L|23:287,1,54.5,2|2,0:0|0:0,0:0:0:0:
95,325,156666,6,0,P|149:325|196:363,1,109,2|2,0:0|0:0,0:0:0:0:
246,202,157466,2,0,P|273:248|263:308,1,109,2|2,0:0|0:0,0:0:0:0:
429,315,158266,2,0,P|413:341|382:353,3,54.5,2|2|2|2,0:0|0:0|0:0|0:0,0:0:0:0:
315,377,159066,1,2,0:0:0:0:
194,266,159466,1,2,0:0:0:0:
181,268,159666,1,0,0:0:0:0:
167,269,159866,5,2,0:0:0:0:
448,50,160666,5,10,0:3:0:0:
452,70,160766,1,8,0:3:0:0:
453,89,160866,1,6,0:3:0:0:
320,135,161066,1,10,0:3:0:0:
339,116,161166,1,8,0:3:0:0:
361,118,161266,1,6,0:3:0:0:
379,141,161366,1,4,0:3:0:0:
372,167,161466,5,4,1:2:0:0:
237,238,161666,1,2,0:0:0:0:
237,238,161766,1,2,0:0:0:0:
236,238,161866,2,0,P|215:183|227:133,1,109,2|2,1:0|0:0,0:0:0:0:
215,33,162266,2,0,P|235:82|225:135,1,109,2|0,1:0|0:0,0:0:0:0:
61,114,162666,2,0,B|101:75|101:75|159:92,1,109,2|0,1:0|2:0,0:0:0:0:
90,205,163066,6,0,B|39:219|39:219|0:180,1,109,6|0,1:3|0:0,0:0:0:0:
41,313,163466,2,0,L|153:278,1,109,2|0,1:0|0:0,0:0:0:0:
217,357,163866,2,0,L|249:252,1,109,2|0,1:0|0:0,0:0:0:0:
177,175,164266,2,0,L|145:280,1,109,2|0,1:0|0:0,0:0:0:0:
317,328,164666,6,0,L|421:360,1,109,6|2,1:2|0:0,0:0:0:0:
346,190,165066,2,0,L|419:270,1,109,2|2,1:0|0:0,0:0:0:0:
441,67,165466,2,0,L|464:173,1,109,2|0,1:0|0:0,0:0:0:0:
346,190,165866,1,0,1:0:0:0:
195,328,166266,6,0,L|90:360,1,109,6|2,1:3|0:3,0:0:0:0:
166,190,166666,2,0,L|92:270,1,109,2|2,1:0|0:0,0:0:0:0:
71,67,167066,2,0,L|47:173,1,109,2|2,1:0|0:0,0:0:0:0:
166,189,167466,1,2,1:0:0:0:
166,189,167666,1,2,0:0:0:0:
257,54,167866,5,4,1:2:0:0:
257,54,168066,1,0,1:0:0:0:
329,141,168266,1,2,1:0:0:0:
361,153,168466,1,2,1:0:0:0:
449,120,168666,1,6,1:3:0:0:
464,40,168866,1,0,1:0:0:0:
258,200,169066,5,2,1:0:0:0:
273,286,169266,1,0,1:0:0:0:
444,356,169466,5,6,1:3:0:0:
459,254,169666,1,0,1:0:0:0:
221,193,169866,5,2,1:0:0:0:
241,305,170066,1,0,1:0:0:0:
403,363,170266,5,6,1:3:0:0:
429,229,170466,1,0,1:0:0:0:
300,83,170666,5,2,1:0:0:0:
300,83,171066,5,6,1:3:0:0:
279,63,171166,1,0,3:0:0:0:
252,54,171266,1,2,3:0:0:0:
224,55,171366,1,0,3:0:0:0:
183,88,171466,5,6,1:3:0:0:
162,108,171566,1,0,3:0:0:0:
135,117,171666,1,2,3:0:0:0:
107,116,171766,1,0,3:0:0:0:
37,68,171866,5,6,1:3:0:0:
37,68,171966,1,0,1:0:0:0:
37,68,172066,1,2,1:0:0:0:
15,190,172266,1,6,1:3:0:0:
113,252,172466,1,2,0:0:0:0:
339,127,172666,6,0,P|439:44|434:174,1,327.000012474061,12|2,1:1|2:2,0:0:0:0:
349,317,173266,1,2,0:2:0:0:
280,270,173466,2,0,P|301:218|354:236,1,119.900003659058,10|0,2:1|2:2,0:0:0:0:
214,363,173866,1,2,2:2:0:0:
73,243,174066,1,0,3:1:0:0:
213,363,174266,6,0,P|173:363|133:323,1,81.7500031185151,2|0,2:2|0:0,0:0:0:0:
58,169,174466,2,0,P|52:208|73:243,1,81.7500031185151,4|0,3:3|0:0,0:0:0:0:
236,346,174666,6,0,P|179:347|138:304,1,109,6|0,2:3|2:2,0:0:0:0:
78,157,175066,2,0,P|73:205|97:246,1,98.0999970062257,10|0,2:1|2:2,0:0:0:0:
278,38,175466,1,2,2:2:0:0:
161,96,175666,5,4,3:3:0:0:
161,96,175766,1,0,3:0:0:0:
161,96,175866,1,6,1:1:0:0:
243,203,176066,1,2,2:2:0:0:
370,141,176266,1,2,2:2:0:0:
243,203,176466,1,2,2:2:0:0:
161,96,176666,5,10,2:1:0:0:
371,141,177066,5,0,2:2:0:0:
195,331,177266,5,0,3:2:0:0:
195,331,177366,1,0,3:0:0:0:
195,331,177466,1,6,2:1:0:0:
105,293,177666,1,10,2:1:0:0:
148,214,177866,2,0,L|207:206,1,59.9500018295289,2|0,3:2|0:0,0:0:0:0:
160,94,178066,2,0,L|163:123,2,29.9750009147644,2|0|0,2:2|0:0|0:0,0:0:0:0:
105,293,178266,6,0,B|65:255|65:255|57:168,1,141.699993513489,10|0,1:1|2:2,0:0:0:0:
207,205,178666,2,0,L|210:234,3,29.9750009147644,6|0|0|0,3:3|0:0|0:0|0:0,0:0:0:0:
245,243,178866,2,0,L|236:183,1,59.9500018295289,6|0,3:3|0:0,0:0:0:0:
320,348,179066,6,0,L|350:146,1,163.50000623703,14|0,1:1|2:2,0:0:0:0:
410,44,179466,1,2,2:2:0:0:
498,84,179666,1,2,2:2:0:0:
446,267,179866,2,0,L|427:148,1,119.900003659058,10|0,2:1|2:2,0:0:0:0:
410,45,180266,1,2,2:2:0:0:
344,187,180466,1,0,3:2:0:0:
234,124,180666,5,2,2:2:0:0:
234,124,180766,1,2,0:0:0:0:
234,124,180866,2,0,L|194:117,1,27.25,4|0,3:3|0:0,0:0:0:0:
53,221,181066,1,6,3:3:0:0:
52,221,181466,6,0,P|56:110|138:186,1,277.950005301476,10|0,2:1|0:0,0:0:0:0:
304,72,181866,2,0,P|263:37|210:37,1,109,2|4,2:2|3:3,0:0:0:0:
254,228,182266,5,14,1:1:0:0:
234,124,182466,1,2,2:2:0:0:
357,262,182666,5,2,2:2:0:0:
377,158,182866,1,2,2:1:0:0:
439,351,183066,6,0,L|459:232,1,119.900003659058,10|0,2:1|2:2,0:0:0:0:
302,250,183466,6,0,L|362:241,1,59.9500018295289,6|0,3:3|0:0,0:0:0:0:
296,272,183666,2,0,L|356:263,1,59.9500018295289,0|0,3:3|0:0,0:0:0:0:
168,341,183866,2,0,L|227:350,1,59.9500018295289,6|0,3:3|0:0,0:0:0:0:
200,214,184066,2,0,L|141:223,1,59.9500018295289,0|0,3:3|0:0,0:0:0:0:
0,298,184266,5,4,3:3:0:0:
51,57,184666,5,10,1:1:0:0:
55,79,184766,1,8,2:1:0:0:
57,99,184866,1,10,2:3:0:0:
61,121,184966,1,4,2:3:0:0:
101,161,185066,5,10,2:3:0:0:
99,171,185166,1,4,2:3:0:0:
97,181,185266,1,6,2:3:0:0:
96,193,185366,1,4,2:3:0:0:
92,205,185466,6,0,B|189:171|189:246|285:212,1,196.199994012451,4|0,3:2|0:0,0:0:0:0:
446,39,185866,5,2,2:2:0:0:
352,138,186066,1,2,0:2:0:0:
429,192,186266,2,0,B|457:156|457:156|445:40,1,163.50000623703,10|0,2:1|2:2,0:0:0:0:
274,107,186666,2,0,P|342:74|345:145,1,163.50000623703,2|0,2:2|3:1,0:0:0:0:
364,260,187066,6,0,P|324:260|284:233,1,81.7500031185151,2|0,2:2|0:0,0:0:0:0:
226,298,187266,2,0,P|206:263|209:215,1,81.7500031185151,4|0,3:3|0:0,0:0:0:0:
102,189,187466,6,0,P|168:189|211:230,1,119.900003659058,6|0,2:3|2:2,0:0:0:0:
116,89,187866,2,0,P|66:89|20:123,1,109,10|0,2:1|2:2,0:0:0:0:
135,275,188266,1,2,2:2:0:0:
340,345,188466,5,4,3:3:0:0:
340,345,188566,1,0,3:0:0:0:
340,345,188666,1,6,1:1:0:0:
300,250,188866,1,2,2:2:0:0:
410,197,189066,1,2,2:2:0:0:
286,90,189266,1,2,2:2:0:0:
452,63,189466,5,10,2:1:0:0:
299,251,189866,5,2,3:3:0:0:
299,251,189966,1,0,3:0:0:0:
299,251,190066,1,2,3:3:0:0:
178,180,190266,6,0,L|118:173,1,59.9500018295289,6|0,2:1|0:0,0:0:0:0:
72,96,190466,2,0,L|12:103,1,59.9500018295289,10|0,2:1|0:0,0:0:0:0:
30,12,190666,1,2,3:2:0:0:
258,92,190866,2,0,L|295:87,2,29.9750009147644,2|0|0,2:2|0:0|0:0,0:0:0:0:
190,43,191066,5,12,2:1:0:0:
294,210,191266,1,0,2:2:0:0:
406,126,191466,2,0,L|374:129,3,29.9750009147644,6|0|0|0,3:3|0:0|0:0|0:0,0:0:0:0:
421,151,191666,2,0,L|362:158,1,59.9500018295289,6|0,3:3|0:0,0:0:0:0:
464,270,191866,6,0,L|344:283,1,119.900003659058,14|0,1:1|2:2,0:0:0:0:
185,353,192266,1,2,2:2:0:0:
130,256,192466,1,2,2:2:0:0:
192,169,192666,2,0,P|245:169|296:213,1,119.900003659058,10|0,2:1|2:2,0:0:0:0:
471,109,193066,2,0,P|427:148|369:151,1,119.900003659058,2|4,2:2|3:3,0:0:0:0:
275,53,193466,5,2,3:2:0:0:
275,53,193566,1,0,3:0:0:0:
275,53,193666,1,4,3:3:0:0:
192,168,193866,2,0,L|176:88,1,59.9500018295289,6|0,3:3|0:0,0:0:0:0:
114,207,194066,2,0,L|97:128,1,59.9500018295289,4|0,3:3|0:0,0:0:0:0:
35,270,194266,6,0,P|154:239|203:337,1,245.250009355545,10|0,2:1|0:0,0:0:0:0:
98,333,194666,6,0,P|117:309|112:340,1,81.75,2|0,2:2|0:0,0:0:0:0:
191,168,195066,5,14,1:1:0:0:
256,43,197866,5,0,0:0:0:0:
256,43,198266,6,0,L|264:123,1,54.5,2|2,0:0|0:0,0:0:0:0:
341,132,198666,2,0,L|333:212,1,54.5,2|2,0:0|0:0,0:0:0:0:
417,216,199066,2,0,L|425:296,2,54.5,2|2|2,0:0|0:0|0:0,0:0:0:0:
483,158,199666,1,2,0:0:0:0:
301,346,200266,5,2,0:0:0:0:
301,346,200466,1,2,0:0:0:0:
228,298,200666,2,0,P|201:298|165:319,2,54.5,2|2|2,0:0|0:0|0:0,0:0:0:0:
301,346,201266,2,0,L|319:166,1,163.5,2|2,0:0|0:0,0:0:0:0:
265,112,202066,1,2,0:0:0:0:
304,34,202266,1,2,0:0:0:0:
227,44,204466,5,0,0:0:0:0:
227,44,204666,2,0,P|198:44|164:60,1,54.5,2|2,0:0|0:0,0:0:0:0:
87,43,205066,2,0,P|87:72|103:106,1,54.5,2|2,0:0|0:0,0:0:0:0:
169,142,205466,2,0,P|169:171|153:205,1,54.5,2|2,0:0|0:0,0:0:0:0:
81,232,205866,1,2,0:0:0:0:
35,306,206066,1,2,0:0:0:0:
97,367,206266,1,2,0:0:0:0:
238,265,206666,6,0,P|267:265|301:281,1,54.5,2|2,0:0|0:0,0:0:0:0:
360,221,207066,1,2,0:0:0:0:
360,221,207266,1,2,0:0:0:0:
376,306,207466,1,2,0:0:0:0:
446,254,207666,2,0,L|462:123,1,109,2|0,0:0|0:0,0:0:0:0:
441,59,208266,2,0,P|482:59|519:83,2,72.6666666666667,2|2|2,0:0|0:0|0:0,0:0:0:0:
202,240,210702,5,2,0:0:0:0:
451,62,211035,6,0,L|448:89,1,21.7563995591355,6|2,0:1|0:0,0:0:0:0:
359,76,211457,2,0,L|364:130,1,54.5,2|2,0:0|0:0,0:0:0:0:
274,115,211862,2,0,L|279:169,1,54.5,2|2,0:0|0:0,0:0:0:0:
293,255,212246,1,2,0:0:0:0:
293,255,212438,1,2,0:0:0:0:
60,361,213041,6,0,P|32:361|7:352,1,54.5,2|2,0:0|0:0,0:0:0:0:
73,274,213452,2,0,P|48:265|21:266,2,54.5,2|2|2,0:0|0:0|0:0,0:0:0:0:
143,328,214069,2,0,L|275:313,1,109,2|0,0:0|0:0,0:0:0:0:
317,268,214685,2,0,L|392:281,1,54.5,2|2,0:0|0:0,0:0:0:0:
422,351,215185,2,0,B|470:309|470:309|456:153,1,218,2|0,0:0|0:0,0:0:0:0:
472,207,217284,5,0,0:0:0:0:
472,207,217492,2,0,L|479:267,1,54.5,2|2,0:0|0:0,0:0:0:0:
392,245,217876,2,0,L|399:305,1,54.5,2|2,0:0|0:0,0:0:0:0:
326,347,218261,2,0,P|298:347|273:338,1,54.5,2|2,0:0|0:0,0:0:0:0:
201,289,218645,2,0,P|173:288|148:297,1,54.5,2|2,0:0|0:0,0:0:0:0:
73,343,219030,1,2,0:0:0:0:
42,170,219415,6,0,L|34:108,1,54.5,2|2,0:0|0:0,0:0:0:0:
125,204,219891,1,2,0:0:0:0:
125,204,220049,2,0,L|131:148,1,54.5,2|2,0:0|0:0,0:0:0:0:
276,247,220526,6,0,P|326:197|402:231,1,163.5,2|2,0:0|0:0,0:0:0:0:
470,153,221557,1,2,0:0:0:0:
313,47,221954,5,2,0:0:0:0:
