osu file format v14

[General]
AudioFilename: audio.mp3
AudioLeadIn: 0
PreviewTime:51808
Countdown: 0
SampleSet: Soft
StackLeniency: 0.4
Mode: 0
LetterboxInBreaks: 0
WidescreenStoryboard: 1

[Editor]
Bookmarks: 88813
DistanceSpacing: 1
BeatDivisor: 4
GridSize: 32
TimelineZoom: 1.3

[Metadata]
Title:HALF (TV Size)
TitleUnicode:HALF (TV Size)
Artist:QUEEN BEE
ArtistUnicode:女王蜂
Creator:KaedeharaKazuha
Version:NORMAL
Source:東京喰種トーキョーグール:re
Tags:Addy2607 Kaedehara Kazuha Tokyo Ghoul Ghoul:re :re re anime season 1 3 one 1st first three third 3rd ending ed outro theme song japanese rock jrock j-rock Ziyoou-vachi 十 Jū Juu Ju Ten 10 AVU Avu-chan アヴ アヴちゃん YASHI-CHAN YASHI やし やしちゃん RURI RURI-CHAN ルリ ルリちゃん HIBARI HIBARI-CHAN ひばり ひばりちゃん
BeatmapID:3598459
BeatmapSetID:1758363

[Difficulty]
HPDrainRate:3
CircleSize:3
OverallDifficulty:4
ApproachRate:5
SliderMultiplier:1.8
SliderTickRate:1

[Events]
//Background and Video events
0,0,"BG2.jpg",0,0
Video,-700,"video.avi"
//Break Periods
//Storyboard Layer 0 (Background)
//Storyboard Layer 1 (Fail)
//Storyboard Layer 2 (Pass)
//Storyboard Layer 3 (Foreground)
//Storyboard Layer 4 (Overlay)
//Storyboard Sound Samples

[TimingPoints]
370,566.037735849057,4,2,1,50,1,0
370,-105.263157894737,4,2,1,50,0,0
2563,-105.263157894737,4,2,1,5,0,0
2634,-105.263157894737,4,2,1,60,0,0
4898,-100,4,2,1,70,0,0
13954,-105.263157894737,4,2,1,50,0,0
50181,-100,4,2,1,60,0,0
51313,-100,4,2,1,70,0,0
52445,-95.2380952380952,4,2,1,80,0,0
70558,-95.2380952380952,4,2,1,80,0,0
78483,-95.2380952380952,4,2,1,70,0,0
79615,-100,4,2,1,70,0,0
84143,-105.263157894737,4,2,1,60,0,0
88813,-105.263157894737,4,2,1,5,0,0

[Colours]
Combo1 : 18,254,201
Combo2 : 192,192,192
Combo3 : 78,78,78
Combo4 : 241,20,53

[HitObjects]
256,192,370,12,0,2068,0:0:0:0:
144,263,2634,6,0,B|89:272|89:272|59:324|59:324|3:335,2,170.999995433808,2|2|2,3:2|3:2|3:2,0:0:0:0:
280,366,4332,1,2,3:2:0:0:
409,240,4898,38,0,L|505:258,2,90,6|2|10,3:2|0:0|0:0,0:0:0:0:
355,167,5747,2,0,L|177:202,1,180,2|2,3:2|3:2,0:0:0:0:
100,170,6596,1,10,0:0:0:0:
100,170,6879,1,2,0:0:0:0:
39,236,7162,38,0,P|24:285|51:327,2,90,2|2|10,3:0|0:0|0:0,0:0:0:0:
100,170,8011,2,0,B|70:49|70:49|122:89,1,180,2|2,3:2|3:2,0:0:0:0:
188,32,8860,2,0,B|224:7|224:7|277:41,1,90,10|2,0:0|0:3,0:0:0:0:
345,67,9426,6,0,P|386:52|446:51,2,90,2|2|10,3:2|0:0|0:0,0:0:0:0:
295,141,10275,2,0,L|316:331,1,180,2|2,3:2|3:2,0:0:0:0:
239,365,11124,1,10,0:0:0:0:
239,365,11407,1,2,0:0:0:0:
154,323,11690,38,0,B|111:305|111:305|63:336,2,90,2|2|10,3:0|0:0|0:0,0:0:0:0:
239,365,12539,2,0,P|344:350|429:343,1,180,2|2,3:2|3:0,0:0:0:0:
490,291,13388,2,0,P|512:319|504:374,2,90,10|8|2,0:0|0:0|3:0,0:0:0:0:
428,234,14237,21,2,0:0:0:0:
428,234,14520,2,0,P|435:180|441:145,1,85.4999977169037,10|2,0:0|3:2,0:0:0:0:
475,71,15086,2,0,P|421:64|386:58,1,85.4999977169037,2|2,0:0|3:2,0:0:0:0:
312,24,15653,2,0,P|305:78|299:113,1,85.4999977169037,10|2,0:0|0:0,0:0:0:0:
234,164,16219,5,2,3:2:0:0:
234,164,16502,2,0,P|246:234|256:351,2,170.999995433807,2|2|2,0:0|3:0|3:2,0:0:0:0:
162,117,17917,1,10,0:0:0:0:
52,248,18483,37,2,3:0:0:0:
52,248,18766,2,0,P|60:295|64:347,2,85.4999977169037,2|10|2,0:0|0:0|3:2,0:0:0:0:
1,172,19615,2,0,P|9:125|13:73,1,85.4999977169037,2|2,0:0|3:2,0:0:0:0:
69,23,20181,2,0,P|116:31|168:35,1,85.4999977169037,10|2,0:0|0:0,0:0:0:0:
321,3,21030,5,2,0:0:0:0:
321,3,21313,2,0,P|311:54|305:97,1,85.4999977169037,10|2,0:0|0:3,0:0:0:0:
374,138,21879,2,0,P|391:179|376:221,1,85.4999977169037,2|2,0:0|3:2,0:0:0:0:
381,302,22445,2,0,P|336:296|308:262,1,85.4999977169037,10|2,0:0|0:0,0:0:0:0:
233,299,23011,37,2,3:0:0:0:
233,299,23294,2,0,P|240:348|245:385,2,85.4999977169037,2|10|2,0:0|0:0|3:2,0:0:0:0:
172,236,24143,2,0,P|175:185|179:144,1,85.4999977169037,2|2,0:0|3:2,0:0:0:0:
210,71,24709,2,0,P|159:68|118:64,1,85.4999977169037,10|2,0:0|0:0,0:0:0:0:
46,27,25275,5,2,3:2:0:0:
46,27,25558,2,0,P|40:122|32:200,1,170.999995433807,2|2,0:0|3:2,0:0:0:0:
5,278,26407,2,0,P|37:280|92:305,1,85.4999977169037,2|2,0:2|3:0,0:0:0:0:
149,357,26973,1,10,0:0:0:0:
306,289,27539,37,2,3:0:0:0:
306,289,27822,2,0,P|301:225|287:118,1,170.999995433807,2|2,0:0|3:2,0:0:0:0:
317,39,28671,2,0,P|358:14|395:27,1,85.4999977169037,2|2,0:0|3:2,0:0:0:0:
461,74,29237,2,0,P|485:115|472:152,1,85.4999977169037,10|2,0:0|0:0,0:0:0:0:
392,298,30086,6,0,P|350:292|215:294,1,170.999995433807,2|2,0:0|0:2,0:0:0:0:
140,264,30936,2,0,P|96:270|45:280,1,85.4999977169037,2|2,0:0|3:2,0:0:0:0:
41,193,31502,2,0,P|85:187|136:177,1,85.4999977169037,10|2,0:0|0:0,0:0:0:0:
185,118,32068,38,0,P|179:74|169:23,2,85.4999977169037,6|2|10,3:2|0:0|0:0,0:0:0:0:
256,164,32917,2,0,P|246:228|230:343,1,170.999995433807,2|2,3:2|3:2,0:0:0:0:
300,382,33766,1,10,0:0:0:0:
381,357,34049,6,0,P|391:293|407:178,1,170.999995433807,2|2,0:0|0:0,0:0:0:0:
474,136,34898,2,0,P|496:103|472:53,1,85.4999977169037,10|2,0:0|3:2,0:0:0:0:
398,73,35464,2,0,P|337:82|294:88,1,85.4999977169037,2|2,0:0|3:2,0:0:0:0:
254,147,36030,1,10,0:0:0:0:
95,83,36596,38,0,P|104:22|110:-21,2,85.4999977169037,2|2|10,3:2|0:0|0:0,0:0:0:0:
26,134,37445,2,0,P|-4:176|66:260,1,170.999995433807,2|2,3:2|3:2,0:0:0:0:
138,226,38294,1,10,0:0:0:0:
138,226,38577,1,2,0:0:0:0:
212,268,38860,6,0,P|207:325|204:368,2,85.4999977169037,2|2|10,3:2|0:0|0:0,0:0:0:0:
276,211,39709,2,0,P|270:118|253:30,1,170.999995433807,2|2,3:2|3:2,0:0:0:0:
332,2,40558,1,8,0:0:0:0:
456,119,41124,38,0,P|460:176|465:214,1,85.4999977169037,2|2,3:0|0:0,0:0:0:0:
420,278,41690,2,0,P|363:282|325:287,1,85.4999977169037,10|2,0:0|3:2,0:0:0:0:
280,219,42256,2,0,P|276:162|271:124,1,85.4999977169037,2|2,0:0|3:2,0:0:0:0:
266,48,42822,2,0,P|209:52|171:57,1,85.4999977169037,10|2,0:0|0:0,0:0:0:0:
13,88,43671,6,0,P|4:27|-2:-1,2,85.4999977169037,2|10|2,0:0|0:0|3:2,0:0:0:0:
68,152,44520,2,0,P|59:213|53:241,1,85.4999977169037,2|2,0:0|3:2,0:0:0:0:
98,306,45086,2,0,P|129:324|180:300,1,85.4999977169037,10|2,0:0|0:0,0:0:0:0:
243,259,45653,38,0,P|274:240|325:264,2,85.4999977169037,2|2|10,3:2|0:0|0:0,0:0:0:0:
184,196,46502,2,0,P|156:144|228:61,1,170.999995433807,2|2,3:2|3:2,0:0:0:0:
285,13,47351,1,10,0:0:0:0:
285,13,47634,6,0,P|358:27|456:16,1,170.999995433807,2|2,0:0|0:0,0:0:0:0:
508,82,48483,1,10,0:0:0:0:
508,82,48766,2,0,P|497:163|484:266,1,170.999995433807,2|2,3:2|3:2,0:0:0:0:
423,310,49615,1,10,0:0:0:0:
260,231,50181,38,0,P|205:239|173:249,1,90,8|8,3:2|0:0,0:0:0:0:
95,203,50747,2,0,P|87:148|77:116,1,90,8|8,3:2|0:0,0:0:0:0:
123,38,51313,2,0,P|178:30|210:20,1,90,8|8,3:2|0:0,0:0:0:0:
298,40,51879,2,0,P|339:84|325:120,1,90,10|8,3:2|0:0,0:0:0:0:
283,188,52445,38,0,P|293:240|302:294,1,94.499997116089,6|2,3:2|0:0,0:0:0:0:
387,330,53011,1,10,0:0:0:0:
387,330,53294,1,2,3:2:0:0:
442,253,53577,2,0,P|432:201|423:147,1,94.499997116089,2|2,0:0|3:2,0:0:0:0:
454,70,54143,2,0,P|402:80|348:89,1,94.499997116089,10|2,0:0|0:0,0:0:0:0:
279,38,54709,38,0,P|181:23|79:18,1,188.999994232178,2|8,3:2|0:0,0:0:0:0:
16,75,55558,1,2,3:2:0:0:
53,265,56124,1,2,3:2:0:0:
53,265,56407,2,0,P|104:269|151:274,1,94.499997116089,10|2,0:0|0:0,0:0:0:0:
209,344,56973,5,2,3:2:0:0:
281,283,57256,1,2,0:0:0:0:
281,283,57539,2,0,P|276:227|269:182,1,94.499997116089,10|2,0:0|3:2,0:0:0:0:
199,126,58105,2,0,P|186:76|294:50,1,188.999994232178,2|8,0:0|0:0,0:0:0:0:
374,1,58954,1,2,0:0:0:0:
459,41,59237,38,0,P|453:95|449:140,1,94.499997116089,2|2,3:2|0:0,0:0:0:0:
503,212,59803,2,0,P|509:266|513:311,1,94.499997116089,10|2,0:0|3:2,0:0:0:0:
435,360,60370,1,2,0:0:0:0:
435,360,61502,6,0,P|398:333|344:357,1,94.499997116089,6|2,3:2|0:0,0:0:0:0:
266,381,62068,2,0,P|258:319|250:271,1,94.499997116089,10|2,0:0|3:2,0:0:0:0:
284,198,62634,2,0,P|321:171|375:195,1,94.499997116089,2|2,0:0|3:2,0:0:0:0:
448,228,63200,2,0,P|456:166|464:118,1,94.499997116089,10|2,0:0|0:0,0:0:0:0:
487,43,63766,38,0,P|426:52|285:76,1,188.999994232178,2|8,3:2|0:0,0:0:0:0:
222,19,64615,1,2,3:2:0:0:
52,98,65181,1,2,3:2:0:0:
52,98,65464,2,0,P|49:146|45:204,1,94.499997116089,10|2,0:0|0:0,0:0:0:0:
8,279,66030,5,2,3:2:0:0:
78,350,66313,1,2,0:0:0:0:
78,350,66596,2,0,P|123:372|165:343,1,94.499997116089,10|2,0:0|3:2,0:0:0:0:
228,288,67162,2,0,P|215:188|200:91,1,188.999994232178,2|8,0:0|0:0,0:0:0:0:
255,23,68011,1,2,0:0:0:0:
255,23,68294,38,0,P|296:27|352:37,1,94.499997116089,2|2,3:2|0:0,0:0:0:0:
440,14,68860,2,0,P|436:55|426:111,1,94.499997116089,10|2,0:0|3:2,0:0:0:0:
353,167,69426,2,0,P|357:208|367:264,1,94.499997116089,2|0,0:0|3:0,0:0:0:0:
311,337,69992,1,10,0:0:0:0:
137,261,70558,6,0,P|86:264|42:273,1,94.499997116089,6|2,3:2|0:0,0:0:0:0:
33,178,71124,2,0,P|84:175|128:166,1,94.499997116089,10|2,0:0|3:2,0:0:0:0:
211,206,71690,2,0,P|262:209|306:218,1,94.499997116089,2|2,0:0|3:2,0:0:0:0:
320,124,72256,2,0,P|269:121|225:112,1,94.499997116089,10|2,0:0|0:0,0:0:0:0:
171,35,72822,38,0,P|114:-7|34:62,1,188.999994232178,2|8,3:2|0:0,0:0:0:0:
10,149,73671,1,0,3:0:0:0:
152,273,74237,2,0,P|141:325|142:373,2,94.499997116089,2|10|2,3:2|0:0|0:0,0:0:0:0:
206,196,75086,5,2,3:2:0:0:
206,196,75370,2,0,P|195:144|196:96,2,94.499997116089,2|10|2,0:0|0:0|3:2,0:0:0:0:
271,264,76219,2,0,P|334:253|457:289,1,188.999994232178,2|8,0:0|0:0,0:0:0:0:
504,207,77068,1,2,0:0:0:0:
504,207,77351,38,0,P|499:152|493:101,1,94.499997116089,2|2,3:2|0:0,0:0:0:0:
511,19,77917,2,0,P|464:24|416:28,1,94.499997116089,10|2,0:0|3:2,0:0:0:0:
351,96,78483,1,2,0:0:0:0:
351,96,79615,6,0,P|302:93|251:85,2,90,6|2|10,3:2|0:0|0:0,0:0:0:0:
431,56,80464,2,0,B|463:92|463:92|443:229,1,180,2|2,3:2|3:2,0:0:0:0:
373,279,81313,1,10,0:0:0:0:
373,279,81596,1,2,0:0:0:0:
299,226,81879,38,0,P|281:189|304:138,2,90,2|2|10,3:0|0:0|0:0,0:0:0:0:
260,307,82728,2,0,B|201:318|201:318|176:364|176:364|93:376,1,180,2|2,3:2|3:0,0:0:0:0:
27,335,83577,2,0,P|1:309|17:253,1,90,10|8,0:0|0:0,0:0:0:0:
61,192,84143,21,2,0:0:0:0:
256,192,84426,12,0,88813,0:0:0:0:
