osu file format v14

[General]
AudioFilename: audio.mp3
AudioLeadIn: 0
PreviewTime: 51808
Countdown: 0
SampleSet: Soft
StackLeniency: 0.4
Mode: 0
LetterboxInBreaks: 0
WidescreenStoryboard: 0

[Editor]
Bookmarks: 88813
DistanceSpacing: 0.7
BeatDivisor: 8
GridSize: 32
TimelineZoom: 1.3

[Metadata]
Title:HALF (TV Size)
TitleUnicode:HALF (TV Size)
Artist:QUEEN BEE
ArtistUnicode:女王蜂
Creator:KaedeharaKazuha
Version:MY BETTER HALF
Source:東京喰種トーキョーグール:re
Tags:Addy2607 Kaedehara Kazuha Tokyo Ghoul Ghoul:re :re re anime season 1 3 one 1st first three third 3rd ending ed outro theme song japanese rock jrock j-rock Ziyoou-vachi 十 Jū Juu Ju Ten 10 AVU Avu-chan アヴ アヴちゃん YASHI-CHAN YASHI やし やしちゃん RURI RURI-CHAN ルリ ルリちゃん HIBARI HIBARI-CHAN ひばり ひばりちゃん
BeatmapID:3598458
BeatmapSetID:1758363

[Difficulty]
HPDrainRate:6
CircleSize:4
OverallDifficulty:8
ApproachRate:9
SliderMultiplier:2.6
SliderTickRate:1

[Events]
//Background and Video events
0,0,"BG2.jpg",0,0
Video,-700,"video.avi"
//Break Periods
//Storyboard Layer 0 (Background)
//Storyboard Layer 1 (Fail)
//Storyboard Layer 2 (Pass)
//Storyboard Layer 3 (Foreground)
//Storyboard Layer 4 (Overlay)
//Storyboard Sound Samples

[TimingPoints]
370,566.037735849057,4,2,1,50,1,0
370,-1000,4,2,1,50,0,0
2563,-1000,4,2,1,5,0,0
2634,-133.333333333333,4,2,1,60,0,0
4898,-100,4,2,1,70,0,0
13954,-117.647058823529,4,2,1,50,0,0
50181,-90.9090909090909,4,2,1,60,0,0
51313,-90.9090909090909,4,2,1,70,0,0
52445,-66.6666666666667,4,2,1,80,0,0
70558,-74.0740740740741,4,2,1,80,0,0
70770,-74.0740740740741,4,2,1,5,0,0
70841,-74.0740740740741,4,2,1,80,0,0
71336,-74.0740740740741,4,2,1,5,0,0
71407,-74.0740740740741,4,2,1,80,0,0
71903,-74.0740740740741,4,2,1,5,0,0
71973,-74.0740740740741,4,2,1,80,0,0
72469,-74.0740740740741,4,2,1,5,0,0
72539,-74.0740740740741,4,2,1,80,0,0
76431,-74.0740740740741,4,2,1,5,0,0
76502,-74.0740740740741,4,2,1,80,0,0
76997,-74.0740740740741,4,2,1,5,0,0
77068,-74.0740740740741,4,2,1,80,0,0
78483,-71.4285714285714,4,2,1,70,0,0
79615,-100,4,2,1,70,0,0
84143,-1000,4,2,1,60,0,0
88813,-1000,4,2,1,5,0,0

[Colours]
Combo1 : 18,254,201
Combo2 : 192,192,192
Combo3 : 78,78,78
Combo4 : 241,20,53

[HitObjects]
17,48,370,6,0,P|0:92|26:135,1,100.75,2|0,0:0|0:0,0:0:0:0:
26,135,2634,6,0,P|91:120|149:175,1,146.250005578995,2|0,3:2|0:0,0:0:0:0:
96,343,3200,2,0,P|91:277|71:200,1,146.250005578995,2|0,3:2|0:0,0:0:0:0:
114,38,3766,2,0,P|180:33|257:13,1,146.250005578995,2|0,3:2|0:0,0:0:0:0:
441,15,4332,2,0,P|398:71|316:44,1,146.250005578995,2|0,3:2|0:0,0:0:0:0:
203,109,4898,22,0,P|219:161|227:194,1,65,6|2,3:2|0:3,0:0:0:0:
327,273,5181,2,0,P|335:241|345:210,1,65,2|2,0:0|3:0,0:0:0:0:
303,136,5464,1,10,0:0:0:0:
199,359,5747,38,0,P|266:348|392:380,1,195,2|2,3:2|0:3,0:0:0:0:
476,354,6313,2,0,P|497:312|484:283,1,65,2|2,3:2|0:3,0:0:0:0:
472,154,6596,2,0,P|464:196|459:229,1,65,10|2,0:0|0:3,0:0:0:0:
476,354,6879,2,0,P|497:312|484:283,1,65,2|2,0:0|0:3,0:0:0:0:
344,210,7162,6,0,P|296:218|262:230,1,65,2|2,3:0|0:3,0:0:0:0:
408,141,7445,2,0,P|456:149|490:161,1,65,2|2,0:0|3:0,0:0:0:0:
347,76,7728,1,10,0:0:0:0:
146,166,8011,38,0,P|168:233|183:378,1,195,2|2,3:2|0:3,0:0:0:0:
98,312,8577,2,0,P|84:285|93:247,1,65,2|2,3:2|0:3,0:0:0:0:
212,99,8860,6,0,P|230:49|128:43,1,195,10|2,0:0|0:3,0:0:0:0:
0,129,9426,38,0,P|36:117|70:112,1,65,2|2,3:2|0:3,0:0:0:0:
209,183,9709,2,0,P|173:171|139:166,1,65,2|2,0:0|3:0,0:0:0:0:
90,252,9992,1,10,0:0:0:0:
212,99,10275,6,0,P|283:94|400:139,1,195,2|2,3:2|0:3,0:0:0:0:
451,211,10841,2,0,P|481:185|483:153,1,65,2|2,3:2|0:3,0:0:0:0:
480,6,11124,2,0,P|467:52|459:82,1,65,10|2,0:0|0:3,0:0:0:0:
451,211,11407,2,0,P|481:185|483:153,1,65,2|2,0:0|0:3,0:0:0:0:
316,186,11690,38,0,P|323:230|326:265,1,65,2|2,3:0|0:3,0:0:0:0:
404,375,11973,2,0,P|411:331|414:296,1,65,2|2,0:0|3:0,0:0:0:0:
451,211,12256,1,10,0:0:0:0:
248,293,12539,6,0,B|182:309|182:309|155:360|155:360|82:382,1,195,2|2,3:2|0:3,0:0:0:0:
34,306,13105,2,0,B|60:283|60:283|95:290,1,65,2|2,3:0|0:3,0:0:0:0:
239,377,13388,1,10,0:0:0:0:
399,138,13671,37,8,0:0:0:0:
331,7,13813,1,8,0:0:0:0:
463,68,13954,1,2,3:0:0:0:
463,68,14237,22,0,P|420:55|393:54,1,55.2500010538101,2|2,0:0|3:0,0:0:0:0:
267,106,14520,2,0,P|310:93|337:92,1,55.2500010538101,10|2,0:0|0:3,0:0:0:0:
452,152,14803,2,0,P|409:139|382:138,1,55.2500010538101,2|2,3:2|0:3,0:0:0:0:
243,24,15086,6,0,P|181:41|145:77,1,110.50000210762,2|2,0:0|3:2,0:0:0:0:
85,8,15511,1,2,0:3:0:0:
0,122,15653,2,0,P|7:161|11:193,1,55.2500010538101,10|2,0:0|0:3,0:0:0:0:
183,207,15936,2,0,P|190:168|194:136,1,55.2500010538101,2|2,0:0|0:3,0:0:0:0:
76,91,16219,38,0,P|83:130|87:162,1,55.2500010538101,2|2,3:2|0:3,0:0:0:0:
0,270,16502,2,0,P|65:245|142:317,1,165.75000316143,2|2,0:0|0:3,0:0:0:0:
68,384,17068,2,0,P|62:348|59:316,1,55.2500010538101,2|2,3:0|0:3,0:0:0:0:
0,270,17351,5,2,0:3:0:0:
248,335,17634,2,0,P|289:347|308:356,1,55.2500010538101,2|2,3:2|0:3,0:0:0:0:
347,232,17917,2,0,P|316:261|298:273,1,55.2500010538101,10|2,0:0|0:3,0:0:0:0:
386,369,18200,2,0,P|375:327|374:306,1,55.2500010538101,2|2,0:0|0:3,0:0:0:0:
455,325,18483,37,2,3:0:0:0:
413,87,18766,5,2,0:0:0:0:
490,149,18908,1,2,3:2:0:0:
500,15,19049,2,0,P|492:52|488:82,1,55.2500010538101,10|2,0:0|0:3,0:0:0:0:
424,227,19332,2,0,P|418:200|414:173,1,55.2500010538101,2|2,3:2|0:3,0:0:0:0:
267,125,19615,38,0,P|243:139|230:163,1,55.2500010538101,2|2,0:0|0:3,0:0:0:0:
112,78,19898,2,0,P|127:101|127:129,1,55.2500010538101,2|2,3:2|0:3,0:0:0:0:
245,17,20181,6,0,P|217:18|193:4,1,55.2500010538101,10|2,0:0|0:3,0:0:0:0:
362,99,20464,2,0,P|389:100|413:87,1,55.2500010538101,2|2,0:0|0:3,0:0:0:0:
370,19,20747,37,2,3:0:0:0:
322,249,21030,6,0,P|314:213|303:175,1,55.2500010538101,2|2,0:0|3:0,0:0:0:0:
394,304,21313,2,0,P|319:291|229:278,1,165.75000316143,10|2,0:0|0:3,0:0:0:0:
54,331,21879,38,0,P|46:361|60:389,1,55.2500010538101,2|2,0:0|0:3,0:0:0:0:
183,339,22162,2,0,P|136:349|119:354,1,55.2500010538101,2|2,3:2|0:3,0:0:0:0:
4,248,22445,6,0,P|-4:218|10:190,1,55.2500010538101,10|2,0:0|0:3,0:0:0:0:
133,240,22728,2,0,P|86:230|69:225,1,55.2500010538101,2|2,0:0|0:3,0:0:0:0:
74,140,23011,37,2,3:0:0:0:
314,41,23294,5,2,0:0:0:0:
229,3,23436,1,2,3:2:0:0:
285,127,23577,37,10,0:0:0:0:
323,42,23719,1,2,0:0:0:0:
191,89,23860,2,0,P|196:123|200:154,1,55.2500010538101,2|2,3:2|0:3,0:0:0:0:
349,193,24143,6,0,P|344:227|340:258,1,55.2500010538101,2|2,0:0|0:3,0:0:0:0:
412,376,24426,2,0,P|407:348|404:321,1,55.2500010538101,2|2,3:2|0:3,0:0:0:0:
435,174,24709,38,0,P|430:201|427:228,1,55.2500010538101,10|2,0:0|0:3,0:0:0:0:
498,380,24992,2,0,P|493:352|490:325,1,55.2500010538101,2|2,0:0|0:3,0:0:0:0:
270,335,25275,6,0,P|302:329|330:326,1,55.2500010538101,2|2,3:2|0:3,0:0:0:0:
189,378,25558,2,0,P|130:367|18:362,1,165.75000316143,2|2,0:0|0:0,0:0:0:0:
145,284,26124,2,0,P|177:290|205:293,1,55.2500010538101,2|2,3:2|0:3,0:0:0:0:
34,120,26407,38,0,P|44:178|63:290,1,165.75000316143,2|2,0:2|0:3,0:0:0:0:
160,204,26973,2,0,P|165:177|170:149,1,55.2500010538101,10|2,0:0|0:3,0:0:0:0:
34,120,27256,2,0,P|29:92|24:65,1,55.2500010538101,2|2,0:0|0:3,0:0:0:0:
88,0,27539,5,2,3:0:0:0:
254,200,27822,38,0,P|334:184|429:195,1,165.75000316143,2|2,0:0|0:2,0:0:0:0:
503,162,28388,2,0,P|516:131|510:106,1,55.2500010538101,2|2,3:2|0:3,0:0:0:0:
355,8,28671,6,0,P|359:50|362:73,1,55.2500010538101,2|2,0:0|0:3,0:0:0:0:
417,192,28954,2,0,P|421:150|424:127,1,55.2500010538101,2|2,3:2|0:3,0:0:0:0:
271,30,29237,38,0,P|275:72|278:95,1,55.2500010538101,10|2,0:0|0:3,0:0:0:0:
333,214,29520,2,0,P|337:172|340:149,1,55.2500010538101,2|2,0:0|0:3,0:0:0:0:
438,59,29803,5,2,3:0:0:0:
260,168,30086,38,0,P|180:152|85:163,1,165.75000316143,2|2,0:0|0:2,0:0:0:0:
12,127,30653,2,0,P|-3:101|5:65,1,55.2500010538101,2|2,0:2|0:3,0:0:0:0:
97,160,30936,6,0,P|93:187|90:214,1,55.2500010538101,2|2,0:0|0:3,0:0:0:0:
21,337,31219,2,0,P|17:309|14:282,1,55.2500010538101,2|2,3:2|0:3,0:0:0:0:
179,189,31502,38,0,P|175:216|172:243,1,55.2500010538101,10|2,0:0|0:3,0:0:0:0:
103,366,31785,2,0,P|99:338|96:311,1,55.2500010538101,2|2,0:0|0:3,0:0:0:0:
275,217,32068,6,0,P|307:218|332:238,1,55.2500010538101,6|2,3:2|0:3,0:0:0:0:
391,361,32351,2,0,P|375:332|380:301,1,55.2500010538101,2|2,0:0|3:0,0:0:0:0:
458,189,32634,2,0,P|441:216|411:227,1,55.2500010538101,10|2,0:0|0:3,0:0:0:0:
282,299,32917,2,0,P|229:303|174:328,1,110.50000210762,2|2,3:2|0:3,0:0:0:0:
103,366,33341,1,2,0:3:0:0:
13,199,33483,38,0,P|8:158|3:129,1,55.2500010538101,2|2,3:2|0:3,0:0:0:0:
32,5,33766,2,0,P|27:46|22:75,1,55.2500010538101,10|2,0:0|0:3,0:0:0:0:
99,218,34049,2,0,P|90:150|82:103,1,110.50000210762,2|2,0:0|3:0,0:0:0:0:
368,9,34615,6,0,P|396:13|420:34,1,55.2500010538101,2|0,0:0|3:0,0:0:0:0:
369,140,34898,2,0,P|358:113|364:82,1,55.2500010538101,10|2,0:0|0:3,0:0:0:0:
481,73,35181,2,0,P|463:95|433:105,1,55.2500010538101,2|2,3:2|0:3,0:0:0:0:
273,40,35464,38,0,P|245:44|221:65,1,55.2500010538101,2|2,0:0|0:3,0:0:0:0:
272,171,35747,2,0,P|283:144|277:113,1,55.2500010538101,2|2,3:2|0:3,0:0:0:0:
147,51,36030,2,0,P|162:109|225:137,1,110.50000210762,10|2,0:0|0:3,0:0:0:0:
224,60,36454,1,2,0:3:0:0:
83,139,36596,6,0,P|90:180|95:204,1,55.2500010538101,2|2,3:2|0:3,0:0:0:0:
37,318,36879,2,0,P|44:277|49:253,1,55.2500010538101,2|2,0:0|3:0,0:0:0:0:
0,127,37162,2,0,P|7:168|12:192,1,55.2500010538101,10|2,0:0|0:3,0:0:0:0:
129,359,37445,2,0,P|142:278|152:230,1,110.50000210762,2|2,3:2|0:3,0:0:0:0:
93,193,37870,1,2,0:3:0:0:
225,344,38011,38,0,P|258:345|290:325,1,55.2500010538101,2|2,3:2|0:3,0:0:0:0:
344,213,38294,2,0,P|326:241|327:278,1,55.2500010538101,10|2,0:0|0:3,0:0:0:0:
397,381,38577,2,0,P|381:351|348:334,1,55.2500010538101,2|2,0:0|0:3,0:0:0:0:
237,251,38860,6,0,P|224:178|215:135,1,110.50000210762,2|2,3:2|0:0,0:0:0:0:
148,106,39285,1,2,3:0:0:0:
274,12,39426,2,0,P|267:53|262:77,1,55.2500010538101,10|2,0:0|0:3,0:0:0:0:
459,123,39709,38,0,P|377:114|295:150,1,165.75000316143,2|2,3:2|0:3,0:0:0:0:
362,199,40275,2,0,P|392:200|422:185,1,55.2500010538101,2|2,3:2|0:3,0:0:0:0:
459,123,40558,1,8,0:0:0:0:
492,250,40841,2,0,P|508:224|510:190,1,55.2500010538101,2|2,0:0|0:3,0:0:0:0:
456,107,41124,5,2,3:0:0:0:
296,368,41407,37,2,0:0:0:0:
252,286,41549,1,2,3:2:0:0:
389,304,41690,2,0,P|344:297|319:292,1,55.2500010538101,10|2,0:0|0:3,0:0:0:0:
209,361,41973,2,0,P|164:368|139:373,1,55.2500010538101,2|2,3:2|0:3,0:0:0:0:
3,247,42256,6,0,P|34:236|66:249,1,55.2500010538101,2|2,0:0|0:3,0:0:0:0:
45,372,42539,2,0,P|39:327|34:299,1,55.2500010538101,2|2,3:2|0:3,0:0:0:0:
122,169,42822,38,0,P|148:164|173:174,1,55.2500010538101,10|2,0:0|0:3,0:0:0:0:
131,299,43105,2,0,P|137:254|142:226,1,55.2500010538101,2|2,0:0|0:3,0:0:0:0:
41,151,43388,5,2,3:0:0:0:
206,8,43671,38,0,P|234:12|257:32,1,55.2500010538101,2|0,0:0|3:0,0:0:0:0:
293,158,43954,2,0,P|282:131|288:100,1,55.2500010538101,10|2,0:0|0:3,0:0:0:0:
380,7,44237,2,0,P|361:29|332:39,1,55.2500010538101,2|2,3:2|0:3,0:0:0:0:
245,222,44520,6,0,P|251:267|256:295,1,55.2500010538101,2|2,0:0|0:3,0:0:0:0:
124,354,44803,2,0,P|130:309|135:281,1,55.2500010538101,2|2,3:2|0:3,0:0:0:0:
167,120,45086,38,0,P|173:165|178:193,1,55.2500010538101,10|2,0:0|0:3,0:0:0:0:
49,330,45369,2,0,P|55:285|60:257,1,55.2500010538101,2|2,0:0|0:3,0:0:0:0:
209,359,45653,6,0,P|274:353|328:373,1,110.50000210762,2|2,3:2|0:0,0:0:0:0:
392,345,46077,1,2,3:0:0:0:
327,232,46219,2,0,P|332:266|337:309,1,55.2500010538101,10|2,0:0|0:3,0:0:0:0:
476,384,46502,2,0,P|483:334|490:272,1,110.50000210762,2|2,3:2|0:3,0:0:0:0:
505,195,46926,1,2,0:3:0:0:
305,143,47068,38,0,P|269:159|240:172,1,55.2500010538101,2|2,3:2|0:3,0:0:0:0:
454,172,47351,2,0,P|490:188|519:201,1,55.2500010538101,10|2,0:0|0:3,0:0:0:0:
371,5,47634,2,0,P|378:54|385:116,1,110.50000210762,2|2,0:0|3:0,0:0:0:0:
188,360,48200,6,0,P|181:327|175:296,1,55.2500010538101,2|2,0:0|3:0,0:0:0:0:
346,232,48483,2,0,P|339:265|333:296,1,55.2500010538101,10|2,0:0|0:3,0:0:0:0:
110,362,48766,2,0,P|95:294|83:231,1,110.50000210762,2|2,3:2|0:3,0:0:0:0:
23,319,49190,1,2,0:3:0:0:
178,195,49332,38,0,P|163:171|140:157,1,55.2500010538101,2|2,3:2|0:3,0:0:0:0:
0,162,49615,2,0,P|27:161|51:148,1,55.2500010538101,10|2,0:0|0:3,0:0:0:0:
115,24,49898,2,0,P|101:47|101:75,1,55.2500010538101,2|2,0:0|0:3,0:0:0:0:
236,132,50181,5,8,3:2:0:0:
236,132,50322,1,8,0:0:0:0:
288,73,50464,37,8,0:0:0:0:
288,73,50605,1,8,0:0:0:0:
331,149,50747,37,8,3:2:0:0:
331,149,50888,1,8,0:0:0:0:
379,50,51030,37,8,0:0:0:0:
379,50,51171,1,8,0:0:0:0:
426,160,51313,37,8,3:2:0:0:
426,160,51454,1,8,0:0:0:0:
471,21,51596,37,8,0:0:0:0:
471,21,51737,1,8,0:0:0:0:
511,169,51879,37,10,3:2:0:0:
379,50,52020,1,8,0:0:0:0:
342,224,52162,37,8,0:0:0:0:
509,174,52303,1,8,0:0:0:0:
288,73,52445,6,0,P|245:51|186:73,1,97.50000371933,6|0,3:2|0:0,0:0:0:0:
225,231,52728,2,0,P|229:179|236:114,1,97.50000371933,2|0,0:0|3:0,0:0:0:0:
38,27,53011,38,0,P|81:5|140:27,1,97.50000371933,10|0,0:0|0:0,0:0:0:0:
101,185,53294,2,0,P|97:133|90:68,1,97.50000371933,2|0,3:2|0:0,0:0:0:0:
380,40,53577,6,0,P|384:92|391:157,1,97.50000371933,2|0,0:0|0:0,0:0:0:0:
350,321,53860,2,0,P|346:269|339:204,1,97.50000371933,2|0,3:2|0:0,0:0:0:0:
469,60,54143,38,0,P|473:112|480:177,1,97.50000371933,10|0,0:0|0:0,0:0:0:0:
439,340,54426,2,0,P|435:288|428:223,1,97.50000371933,2|0,0:0|0:0,0:0:0:0:
183,349,54709,6,0,P|86:340|-18:395,1,195.00000743866,2|0,3:2|0:0,0:0:0:0:
5,182,55134,1,0,3:0:0:0:
10,173,55275,2,0,P|21:218|33:283,1,97.50000371933,8|0,0:0|0:0,0:0:0:0:
272,380,55558,38,0,P|278:317|309:183,1,195.00000743866,2|0,3:2|0:0,0:0:0:0:
3,6,56124,6,0,P|50:38|96:29,1,97.50000371933,2|0,3:2|0:0,0:0:0:0:
115,243,56407,2,0,P|119:186|88:150,1,97.50000371933,10|0,0:0|0:0,0:0:0:0:
265,28,56690,2,0,P|213:52|198:97,1,97.50000371933,2|0,0:0|0:0,0:0:0:0:
365,294,56973,38,0,P|415:288|477:283,1,97.50000371933,2|0,3:2|0:0,0:0:0:0:
462,57,57256,1,2,0:0:0:0:
462,57,57398,1,0,3:0:0:0:
376,28,57539,2,0,P|385:74|399:145,1,97.50000371933,10|0,0:0|0:0,0:0:0:0:
462,284,57822,2,0,P|471:238|485:167,1,97.50000371933,2|0,3:2|0:0,0:0:0:0:
283,7,58105,6,0,P|299:92|325:225,1,195.00000743866,2|0,0:0|3:0,0:0:0:0:
395,124,58530,1,0,0:0:0:0:
191,90,58671,2,0,P|129:98|47:140,1,146.250005578995,8|0,0:0|0:0,0:0:0:0:
44,138,58954,2,0,P|3:104|28:55,1,97.50000371933,2|0,0:0|0:0,0:0:0:0:
223,189,59237,38,0,P|285:195|339:200,1,97.50000371933,2|0,3:2|0:0,0:0:0:0:
121,368,59520,1,2,0:0:0:0:
121,368,59662,1,0,3:0:0:0:
62,307,59803,2,0,P|68:245|73:191,1,97.50000371933,10|0,0:0|0:0,0:0:0:0:
190,103,60086,2,0,P|252:109|306:114,1,97.50000371933,2|0,3:2|0:0,0:0:0:0:
287,112,61502,6,0,P|336:100|378:135,1,97.50000371933,6|0,3:2|0:0,0:0:0:0:
328,294,61785,2,0,P|326:234|321:184,1,97.50000371933,2|0,0:0|3:0,0:0:0:0:
504,44,62068,38,0,P|455:31|413:66,1,97.50000371933,10|0,0:0|0:0,0:0:0:0:
463,225,62351,2,0,P|465:165|470:115,1,97.50000371933,2|0,3:2|0:0,0:0:0:0:
280,16,62634,6,0,P|226:25|178:37,1,97.50000371933,2|0,0:0|0:0,0:0:0:0:
12,62,62917,2,0,P|66:71|114:83,1,97.50000371933,2|0,3:2|0:0,0:0:0:0:
294,96,63200,38,0,P|240:105|192:117,1,97.50000371933,10|0,0:0|0:0,0:0:0:0:
0,147,63483,2,0,P|54:156|102:168,1,97.50000371933,2|0,0:0|0:0,0:0:0:0:
324,288,63766,6,0,B|374:252|417:301|398:318|455:372|506:318,1,195.00000743866,2|0,3:2|0:0,0:0:0:0:
493,147,64190,1,0,3:0:0:0:
483,142,64332,2,0,P|474:202|470:263,1,97.50000371933,8|0,0:0|0:0,0:0:0:0:
231,369,64615,38,0,P|220:266|200:157,1,195.00000743866,2|0,3:2|0:0,0:0:0:0:
433,0,65181,6,0,P|424:60|420:121,1,97.50000371933,2|0,3:2|0:0,0:0:0:0:
317,295,65464,2,0,P|312:246|304:198,1,97.50000371933,10|0,0:0|0:0,0:0:0:0:
511,8,65747,2,0,P|502:68|498:129,1,97.50000371933,2|0,0:0|0:0,0:0:0:0:
253,125,66030,38,0,P|306:99|346:126,1,97.50000371933,2|0,3:2|0:0,0:0:0:0:
235,373,66313,1,2,0:0:0:0:
235,373,66454,1,0,3:0:0:0:
147,334,66596,2,0,P|142:285|134:237,1,97.50000371933,10|0,0:0|0:0,0:0:0:0:
46,108,66879,2,0,P|31:162|61:196,1,97.50000371933,2|0,3:2|0:0,0:0:0:0:
201,38,67162,6,0,P|106:32|-5:24,1,195.00000743866,2|0,0:0|3:0,0:0:0:0:
46,108,67586,1,0,0:0:0:0:
280,5,67728,2,0,P|320:53|399:27,1,146.250005578995,8|0,0:0|0:0,0:0:0:0:
402,28,68011,2,0,P|396:90|392:139,1,97.50000371933,2|0,0:0|0:0,0:0:0:0:
512,303,68294,38,0,P|458:298|401:293,1,97.50000371933,2|0,3:2|0:0,0:0:0:0:
216,342,68577,2,0,P|270:337|327:332,1,97.50000371933,2|0,0:0|3:0,0:0:0:0:
499,221,68860,6,0,P|445:216|388:211,1,97.50000371933,10|0,0:0|0:0,0:0:0:0:
229,260,69143,2,0,P|283:255|340:250,1,97.50000371933,2|0,3:2|0:0,0:0:0:0:
201,38,69426,38,0,P|139:14|84:73,1,146.250005578995,2|0,0:0|0:0,0:0:0:0:
86,74,69709,2,0,P|98:134|108:196,1,97.50000371933,0|0,3:0|0:0,0:0:0:0:
95,346,69992,5,10,0:0:0:0:
21,268,70134,1,2,0:0:0:0:
107,255,70275,37,2,0:0:0:0:
5,360,70417,1,2,0:0:0:0:
104,170,70558,6,0,P|161:156|233:142,1,131.62500050211,6|0,3:2|0:0,0:0:0:0:
242,139,70841,2,0,P|231:86|222:31,1,87.7500003347397,2|0,0:0|3:0,0:0:0:0:
200,244,71124,2,0,P|182:297|246:355,1,131.62500050211,10|0,0:0|0:0,0:0:0:0:
238,351,71407,2,0,P|295:342|339:336,1,87.7500003347397,2|0,3:2|0:0,0:0:0:0:
510,217,71690,38,0,P|472:184|392:194,1,131.62500050211,2|0,0:0|0:0,0:0:0:0:
390,200,71973,2,0,P|386:246|425:266,1,87.7500003347397,2|0,3:2|0:0,0:0:0:0:
448,37,72256,2,0,P|353:58|305:69,1,131.62500050211,10|0,0:0|0:0,0:0:0:0:
311,72,72539,2,0,P|240:56|204:48,1,87.7500003347397,2|0,0:0|0:0,0:0:0:0:
22,68,72822,6,0,B|-1:21|32:-23|110:-23|127:42|69:154,1,263.250001004219,2|0,3:2|3:0,0:0:0:0:
84,288,73388,1,8,0:0:0:0:
141,220,73530,1,0,0:0:0:0:
0,245,73671,2,0,P|80:246|276:303,1,263.250001004219,0|0,3:0|0:0,0:0:0:0:
479,190,74237,38,0,P|496:141|471:102,1,87.7500003347397,2|0,3:2|0:0,0:0:0:0:
321,108,74520,2,0,P|354:147|401:145,1,87.7500003347397,10|0,0:0|0:0,0:0:0:0:
471,12,74803,2,0,P|420:21|398:62,1,87.7500003347397,2|0,0:0|0:0,0:0:0:0:
241,207,75086,6,0,P|250:263|258:305,1,87.7500003347397,2|0,3:2|0:0,0:0:0:0:
33,190,75370,38,0,P|16:141|41:102,1,87.7500003347397,2|0,0:0|3:0,0:0:0:0:
191,108,75653,2,0,P|157:147|110:145,1,87.7500003347397,10|0,0:0|0:0,0:0:0:0:
41,12,75936,2,0,P|91:21|113:62,1,87.7500003347397,2|0,3:2|0:0,0:0:0:0:
241,207,76219,6,0,P|304:198|377:180,1,131.62500050211,2|0,0:0|0:0,0:0:0:0:
378,180,76502,2,0,P|411:215|392:262,1,87.7500003347397,0|0,3:0|0:0,0:0:0:0:
255,293,76785,38,0,P|192:284|119:266,1,131.62500050211,8|0,0:0|0:0,0:0:0:0:
117,266,77068,2,0,P|84:301|103:348,1,87.7500003347397,2|0,0:0|0:0,0:0:0:0:
324,378,77351,6,0,P|331:335|342:277,1,87.7500003347397,2|0,3:2|0:0,0:0:0:0:
477,96,77634,2,0,P|485:139|492:182,1,87.7500003347397,2|0,0:0|3:0,0:0:0:0:
438,384,77917,38,0,P|445:341|456:283,1,87.7500003347397,10|0,0:0|0:0,0:0:0:0:
365,93,78200,2,0,P|373:136|381:180,1,87.7500003347397,2|0,3:2|0:0,0:0:0:0:
204,343,78483,6,0,B|52:366|52:366|-6:375|-18:293|40:283|40:283|226:257|226:257|282:247|270:172|218:176|218:176|171:182,1,636.999980560303,2|0,0:0|0:0,0:0:0:0:
142,39,79615,38,0,P|133:79|130:117,1,65,6|2,3:2|0:3,0:0:0:0:
14,213,79898,2,0,P|10:180|2:149,1,65,2|2,0:0|3:0,0:0:0:0:
45,67,80181,1,10,0:0:0:0:
187,180,80464,6,0,P|269:155|385:168,1,195,2|2,3:2|0:3,0:0:0:0:
434,99,81030,2,0,P|429:53|422:16,1,65,2|2,3:2|0:3,0:0:0:0:
502,161,81313,2,0,P|519:193|505:228,1,65,10|2,0:0|0:3,0:0:0:0:
434,99,81596,2,0,P|429:53|422:16,1,65,2|2,0:0|0:3,0:0:0:0:
298,191,81879,38,0,P|304:234|310:274,1,65,2|2,3:0|0:3,0:0:0:0:
367,381,82162,2,0,P|373:338|379:298,1,65,2|2,0:0|3:0,0:0:0:0:
442,252,82445,1,10,0:0:0:0:
342,35,82728,6,0,B|278:52|278:52|260:105|260:105|181:125,1,195,2|2,3:2|0:3,0:0:0:0:
142,44,83294,2,0,B|166:24|166:24|212:41,1,65,2|2,3:0|0:3,0:0:0:0:
343,118,83577,1,10,0:0:0:0:
66,342,83860,37,8,0:0:0:0:
20,251,84002,1,8,0:0:0:0:
151,308,84143,22,0,B|196:273|244:317|232:336|289:397|335:343,1,214.5,2|0,0:0|0:0,0:0:0:0:
