osu file format v14

[General]
AudioFilename: audio.mp3
AudioLeadIn: 0
PreviewTime:51808
Countdown: 0
SampleSet: Soft
StackLeniency: 0.4
Mode: 0
LetterboxInBreaks: 0
WidescreenStoryboard: 1

[Editor]
Bookmarks: 88813
DistanceSpacing: 1
BeatDivisor: 4
GridSize: 32
TimelineZoom: 1.3

[Metadata]
Title:HALF (TV Size)
TitleUnicode:HALF (TV Size)
Artist:QUEEN BEE
ArtistUnicode:女王蜂
Creator:KaedeharaKazuha
Version:ADVANCED
Source:東京喰種トーキョーグール:re
Tags:Addy2607 Kaedehara Kazuha Tokyo Ghoul Ghoul:re :re re anime season 1 3 one 1st first three third 3rd ending ed outro theme song japanese rock jrock j-rock Ziyoou-vachi 十 Jū Juu Ju Ten 10 AVU Avu-chan アヴ アヴちゃん YASHI-CHAN YASHI やし やしちゃん RURI RURI-CHAN ルリ ルリちゃん HIBARI HIBARI-CHAN ひばり ひばりちゃん
BeatmapID:3713531
BeatmapSetID:1758363

[Difficulty]
HPDrainRate:4
CircleSize:3.2
OverallDifficulty:5
ApproachRate:6
SliderMultiplier:2
SliderTickRate:1

[Events]
//Background and Video events
0,0,"BG2.jpg",0,0
Video,-700,"video.avi"
//Break Periods
//Storyboard Layer 0 (Background)
//Storyboard Layer 1 (Fail)
//Storyboard Layer 2 (Pass)
//Storyboard Layer 3 (Foreground)
//Storyboard Layer 4 (Overlay)
//Storyboard Sound Samples

[TimingPoints]
370,566.037735849057,4,2,1,50,1,0
370,-105.263157894737,4,2,1,50,0,0
2563,-105.263157894737,4,2,1,5,0,0
2634,-105.263157894737,4,2,1,60,0,0
4898,-100,4,2,1,70,0,0
13954,-105.263157894737,4,2,1,50,0,0
50181,-100,4,2,1,60,0,0
51313,-100,4,2,1,70,0,0
52445,-95.2380952380952,4,2,1,80,0,0
70558,-95.2380952380952,4,2,1,80,0,0
78483,-95.2380952380952,4,2,1,70,0,0
79615,-100,4,2,1,70,0,0
84143,-105.263157894737,4,2,1,60,0,0
88813,-105.263157894737,4,2,1,5,0,0

[Colours]
Combo1 : 18,254,201
Combo2 : 192,192,192
Combo3 : 78,78,78
Combo4 : 241,20,53

[HitObjects]
256,192,370,12,0,2068,0:0:0:0:
216,331,2634,6,0,P|155:343|121:354,1,94.9999974632264,2|0,3:2|0:0,0:0:0:0:
40,308,3200,2,0,P|28:247|17:213,1,94.9999974632264,2|0,3:2|0:0,0:0:0:0:
74,139,3766,2,0,P|135:127|169:116,1,94.9999974632264,2|0,3:2|0:0,0:0:0:0:
250,162,4332,2,0,P|262:223|273:257,1,94.9999974632264,2|0,3:2|0:0,0:0:0:0:
321,340,4898,38,0,P|377:324|430:330,1,100,6|2,3:2|0:0,0:0:0:0:
504,276,5464,1,10,0:0:0:0:
459,186,5747,2,0,L|470:76,1,100,2|2,3:2|0:3,0:0:0:0:
413,3,6313,1,2,3:2:0:0:
352,82,6596,1,10,0:0:0:0:
276,16,6879,2,0,P|242:22|215:27,1,50,2|2,0:0|0:3,0:0:0:0:
194,62,7162,38,0,P|129:58|82:53,1,100,2|2,3:0|0:0,0:0:0:0:
18,119,7728,1,10,0:0:0:0:
93,185,8011,2,0,P|209:192|294:201,1,200,2|2,3:2|3:2,0:0:0:0:
373,142,8860,2,0,L|365:84,2,50,10|2|2,0:0|0:3|0:3,0:0:0:0:
461,189,9426,6,0,P|513:243|505:270,1,100,2|2,3:2|0:0,0:0:0:0:
443,334,9992,1,10,0:0:0:0:
343,322,10275,2,0,P|291:317|238:314,1,100,2|2,3:2|0:3,0:0:0:0:
146,288,10841,1,2,3:2:0:0:
71,354,11124,1,10,0:0:0:0:
2,280,11407,2,0,P|5:235|6:216,1,50,2|2,0:0|0:3,0:0:0:0:
14,180,11690,38,0,P|88:185|120:187,1,100,2|2,3:0|0:0,0:0:0:0:
199,134,12256,1,10,0:0:0:0:
254,217,12539,2,0,P|338:209|464:198,1,200,2|2,3:2|3:0,0:0:0:0:
500,111,13388,1,10,0:0:0:0:
421,48,13671,2,0,L|427:-5,2,50,8|8|2,0:0|0:0|3:0,0:0:0:0:
347,108,14237,22,0,L|287:98,1,47.4999987316132,2|2,0:0|3:0,0:0:0:0:
255,117,14520,2,0,P|224:163|243:201,1,94.9999974632264,10|2,0:0|3:2,0:0:0:0:
319,242,15086,2,0,P|350:288|331:326,1,94.9999974632264,2|2,0:0|3:2,0:0:0:0:
249,358,15653,2,0,P|186:352|143:353,1,94.9999974632264,10|2,0:0|0:0,0:0:0:0:
63,378,16219,5,2,3:2:0:0:
4,302,16502,2,0,P|12:205|22:98,1,189.999994926453,2|2,0:0|3:0,0:0:0:0:
73,33,17351,1,2,0:3:0:0:
140,108,17634,1,2,3:2:0:0:
140,108,17917,1,10,0:0:0:0:
214,49,18200,2,0,L|264:57,1,47.4999987316132,2|2,0:0|0:3,0:0:0:0:
307,68,18483,37,2,3:0:0:0:
394,29,18766,2,0,L|444:21,1,47.4999987316132,2|2,0:0|3:2,0:0:0:0:
487,13,19049,2,0,P|477:74|469:123,1,94.9999974632264,10|2,0:0|3:2,0:0:0:0:
501,196,19615,2,0,P|527:248|501:293,1,94.9999974632264,2|2,0:0|3:2,0:0:0:0:
440,337,20181,2,0,L|330:326,1,94.9999974632264,10|2,0:0|0:0,0:0:0:0:
263,376,20747,5,2,3:0:0:0:
207,298,21030,2,0,L|216:246,1,47.4999987316132,2|2,0:0|3:0,0:0:0:0:
249,217,21313,2,0,L|230:112,1,94.9999974632264,10|2,0:0|0:3,0:0:0:0:
251,30,21879,2,0,B|206:48|206:48|166:19,1,94.9999974632264,2|2,0:0|3:2,0:0:0:0:
96,82,22445,2,0,B|58:54|58:54|13:72,1,94.9999974632264,10|2,0:0|0:0,0:0:0:0:
49,160,23011,37,2,3:0:0:0:
2,242,23294,2,0,L|11:297,2,47.4999987316132,2|2|10,0:0|3:2|0:0,0:0:0:0:
49,160,23860,1,2,3:2:0:0:
133,204,24143,2,0,L|242:186,1,94.9999974632264,2|2,0:0|3:2,0:0:0:0:
310,144,24709,2,0,L|419:162,1,94.9999974632264,10|2,0:0|0:0,0:0:0:0:
485,110,25275,5,2,3:2:0:0:
420,40,25558,2,0,L|249:11,1,142.49999619484,2|2,0:0|0:0,0:0:0:0:
233,2,26124,1,2,3:2:0:0:
161,64,26407,2,0,P|186:101|168:143,1,94.9999974632264,2|2,0:2|3:0,0:0:0:0:
104,212,26973,2,0,P|78:249|96:291,1,94.9999974632264,10|2,0:0|0:0,0:0:0:0:
163,358,27539,37,2,3:0:0:0:
244,309,27822,2,0,L|388:322,1,142.49999619484,2|2,0:0|0:2,0:0:0:0:
433,328,28388,1,2,3:2:0:0:
501,261,28671,2,0,L|509:163,1,94.9999974632264,2|2,0:0|3:2,0:0:0:0:
424,124,29237,2,0,L|415:221,1,94.9999974632264,10|2,0:0|0:0,0:0:0:0:
332,264,29803,5,2,3:0:0:0:
249,217,30086,2,0,L|105:204,1,142.49999619484,2|2,0:0|0:2,0:0:0:0:
60,198,30652,1,2,0:2:0:0:
42,104,30936,2,0,L|153:114,1,94.9999974632264,2|2,0:0|3:2,0:0:0:0:
219,63,31502,1,10,0:0:0:0:
219,63,31785,1,2,0:0:0:0:
302,108,32068,38,0,P|355:85|402:106,2,94.9999974632264,6|2|10,3:2|0:0|0:0,0:0:0:0:
257,192,32917,2,0,P|266:298|270:347,1,142.49999619484,2|2,3:2|0:3,0:0:0:0:
277,380,33483,2,0,P|207:374|176:371,1,94.9999974632264,2|10,3:2|0:0,0:0:0:0:
87,382,34049,2,0,P|78:276|74:227,1,142.49999619484,2|2,0:0|0:3,0:0:0:0:
69,192,34615,1,2,0:0:0:0:
6,120,34898,2,0,P|-9:68|18:36,1,94.9999974632264,10|2,0:0|3:2,0:0:0:0:
108,30,35464,2,0,P|174:35|226:40,1,94.9999974632264,2|2,0:0|3:2,0:0:0:0:
290,2,36030,1,10,0:0:0:0:
439,119,36596,6,0,P|467:165|451:211,2,94.9999974632264,2|2|10,3:2|0:0|0:0,0:0:0:0:
346,98,37445,2,0,P|275:113|203:130,1,142.49999619484,2|2,3:2|0:3,0:0:0:0:
161,141,38011,1,2,3:2:0:0:
88,201,38294,1,10,0:0:0:0:
88,201,38577,1,2,0:0:0:0:
24,130,38860,38,0,P|9:78|47:44,2,94.9999974632264,2|2|10,3:2|0:0|0:0,0:0:0:0:
88,201,39709,2,0,L|77:306,1,94.9999974632264,2|2,3:2|0:3,0:0:0:0:
156,349,40275,2,0,B|199:330|199:330|247:356,1,94.9999974632264,2|8,3:2|0:0,0:0:0:0:
333,328,40841,2,0,B|376:347|376:347|424:321,1,94.9999974632264,2|2,0:0|3:0,0:0:0:0:
465,241,41407,6,0,L|514:248,2,47.4999987316132,2|2|10,0:0|3:2|0:0,0:0:0:0:
389,183,41973,1,2,3:2:0:0:
299,215,42256,2,0,L|182:235,1,94.9999974632264,2|2,0:0|3:2,0:0:0:0:
116,198,42822,2,0,P|89:149|111:119,1,94.9999974632264,10|2,0:0|0:0,0:0:0:0:
179,59,43388,37,2,3:0:0:0:
265,98,43671,2,0,L|323:88,1,47.4999987316132,2|0,0:0|3:0,0:0:0:0:
343,54,43954,2,0,L|460:74,1,94.9999974632264,10|2,0:0|3:2,0:0:0:0:
500,140,44520,2,0,L|480:257,1,94.9999974632264,2|2,0:0|3:2,0:0:0:0:
405,286,45086,2,0,L|288:266,1,94.9999974632264,10|2,0:0|0:0,0:0:0:0:
221,301,45653,6,0,P|241:348|205:393,2,94.9999974632264,2|2|10,3:2|0:0|0:0,0:0:0:0:
186,212,46502,2,0,P|113:224|46:241,1,142.49999619484,2|2,3:2|0:3,0:0:0:0:
2,258,47068,1,2,3:2:0:0:
18,164,47351,1,10,0:0:0:0:
1,70,47634,38,0,P|74:58|141:41,1,142.49999619484,2|2,0:0|0:3,0:0:0:0:
185,24,48200,1,2,0:0:0:0:
260,81,48483,1,10,0:0:0:0:
212,163,48766,2,0,P|174:227|206:297,1,142.49999619484,2|2,3:2|0:3,0:0:0:0:
229,319,49332,1,2,3:2:0:0:
317,353,49615,2,0,L|430:340,1,94.9999974632264,10|2,0:0|0:0,0:0:0:0:
463,256,50181,6,0,L|542:265,2,50,8|8|8,3:2|0:0|0:0,0:0:0:0:
385,192,50747,2,0,L|305:201,2,50,8|8|8,3:2|0:0|0:0,0:0:0:0:
455,120,51313,2,0,L|534:129,2,50,8|8|8,3:2|0:0|0:0,0:0:0:0:
389,44,51879,2,0,L|220:63,1,150,10|8,3:2|0:0,0:0:0:0:
199,27,52445,21,6,3:2:0:0:
102,67,52728,2,0,P|73:73|40:75,1,52.4999983978272,2|0,0:0|3:0,0:0:0:0:
22,120,53011,2,0,P|34:178|39:244,1,104.999996795654,10|2,0:0|3:2,0:0:0:0:
16,326,53577,1,2,0:0:0:0:
103,384,53860,1,2,3:2:0:0:
180,312,54143,1,10,0:0:0:0:
147,212,54426,1,2,0:0:0:0:
200,121,54709,38,0,P|267:123|375:132,1,157.499995193482,2|0,3:2|3:0,0:0:0:0:
409,136,55275,1,8,0:0:0:0:
494,197,55558,2,0,P|519:251|500:287,1,104.999996795654,2|0,3:2|0:0,0:0:0:0:
426,362,56124,1,2,3:2:0:0:
348,291,56407,1,10,0:0:0:0:
348,291,56690,1,2,0:0:0:0:
262,351,56973,6,0,P|199:357|147:370,1,104.999996795654,2|2,3:2|0:0,0:0:0:0:
79,306,57539,1,10,0:0:0:0:
79,306,57822,1,2,3:2:0:0:
133,216,58105,2,0,P|207:209|302:188,1,157.499995193482,2|0,0:0|0:0,0:0:0:0:
339,181,58671,1,8,0:0:0:0:
415,252,58954,1,2,0:0:0:0:
495,184,59237,37,2,3:2:0:0:
440,94,59520,2,0,L|435:37,1,52.4999983978272,2|0,0:0|3:0,0:0:0:0:
393,10,59803,2,0,L|281:20,1,104.999996795654,10|2,0:0|3:2,0:0:0:0:
211,90,60370,1,2,0:0:0:0:
211,90,61502,5,6,3:2:0:0:
221,194,61785,2,0,L|279:183,1,52.4999983978272,2|0,0:0|3:0,0:0:0:0:
322,201,62068,2,0,P|358:238|340:297,1,104.999996795654,10|2,0:0|3:2,0:0:0:0:
289,373,62634,1,2,0:0:0:0:
201,314,62917,1,2,3:2:0:0:
117,378,63200,1,10,0:0:0:0:
34,312,63483,1,2,0:0:0:0:
90,223,63766,38,0,L|70:63,1,157.499995193482,2|0,3:2|3:0,0:0:0:0:
63,14,64332,1,8,0:0:0:0:
163,44,64615,2,0,B|208:68|208:68|264:34,1,104.999996795654,2|0,3:2|0:0,0:0:0:0:
346,90,65181,1,2,3:2:0:0:
409,7,65464,1,10,0:0:0:0:
409,7,65747,1,2,0:0:0:0:
490,72,66030,6,0,L|476:198,1,104.999996795654,2|2,3:2|0:0,0:0:0:0:
512,280,66596,1,10,0:0:0:0:
512,280,66879,1,2,3:2:0:0:
433,349,67162,2,0,P|367:325|271:348,1,157.499995193482,2|0,0:0|0:0,0:0:0:0:
239,369,67728,1,8,0:0:0:0:
159,300,68011,1,2,0:0:0:0:
207,206,68294,38,0,L|197:99,1,104.999996795654,2|2,3:2|0:0,0:0:0:0:
288,48,68860,2,0,L|298:155,1,104.999996795654,10|2,0:0|3:2,0:0:0:0:
394,192,69426,2,0,L|384:85,1,104.999996795654,2|0,0:0|3:0,0:0:0:0:
484,119,69992,2,0,L|489:172,1,52.4999983978272,10|2,0:0|0:0,0:0:0:0:
496,223,70275,1,2,0:0:0:0:
507,327,70558,5,6,3:2:0:0:
403,310,70841,2,0,L|341:303,1,52.4999983978272,2|0,0:0|3:0,0:0:0:0:
301,286,71124,2,0,P|279:237|306:194,1,104.999996795654,10|2,0:0|3:2,0:0:0:0:
381,126,71690,2,0,P|403:77|376:34,1,104.999996795654,2|2,0:0|3:2,0:0:0:0:
276,16,72256,2,0,P|209:24|156:32,1,104.999996795654,10|2,0:0|0:0,0:0:0:0:
70,7,72822,37,2,3:2:0:0:
7,91,73105,2,0,L|16:154,1,52.4999983978272,2|0,0:3|3:0,0:0:0:0:
25,194,73388,1,8,0:0:0:0:
11,298,73671,2,0,P|73:273|146:324,1,157.499995193482,0|0,3:0|0:0,0:0:0:0:
161,368,74237,1,2,3:2:0:0:
259,331,74520,1,10,0:0:0:0:
354,375,74803,1,2,0:0:0:0:
429,302,75086,6,0,L|421:188,1,104.999996795654,2|2,3:2|0:0,0:0:0:0:
349,120,75653,1,10,0:0:0:0:
273,192,75936,1,2,3:2:0:0:
196,120,76219,2,0,L|204:6,2,104.999996795654,2|0|8,0:0|3:0|0:0,0:0:0:0:
101,165,77068,2,0,L|110:233,1,52.4999983978272,2|0,0:0|0:0,0:0:0:0:
80,262,77351,38,0,P|61:317|103:359,1,104.999996795654,2|2,3:2|0:0,0:0:0:0:
189,369,77917,2,0,P|254:355|295:352,1,104.999996795654,10|2,0:0|3:2,0:0:0:0:
393,380,78483,1,2,0:0:0:0:
393,380,79615,6,0,L|383:254,1,100,6|2,3:2|0:0,0:0:0:0:
441,197,80181,1,10,0:0:0:0:
393,108,80464,2,0,L|293:115,1,100,2|2,3:2|0:3,0:0:0:0:
205,164,81030,1,2,3:2:0:0:
136,91,81313,1,10,0:0:0:0:
56,151,81596,2,0,L|62:214,1,50,2|2,0:0|0:3,0:0:0:0:
31,241,81879,38,0,P|11:300|48:332,1,100,2|2,3:0|0:0,0:0:0:0:
114,380,82445,1,10,0:0:0:0:
180,305,82728,2,0,P|297:287|388:283,1,200,2|2,3:2|3:0,0:0:0:0:
471,318,83577,1,10,0:0:0:0:
507,224,83860,2,0,L|498:148,1,50,8|8,0:0|0:0,0:0:0:0:
495,127,84143,21,2,0:0:0:0:
256,192,84426,12,0,88813,0:0:0:0:
