osu file format v14

[General]
AudioFilename: audio.mp3
AudioLeadIn: 0
PreviewTime: 57649
Countdown: 0
SampleSet: Soft
StackLeniency: 0.7
Mode: 0
LetterboxInBreaks: 0
WidescreenStoryboard: 1

[Editor]
Bookmarks: 1483,5482,10816,21482,31982,42649,53482,58816,69482,85482,87316
DistanceSpacing: 0.9
BeatDivisor: 4
GridSize: 4
TimelineZoom: 1

[Metadata]
Title:FUN FUN RE-BOOT
TitleUnicode:FUN FUN RE-BOOT
Artist:QUARTET*RE-BOOT!
ArtistUnicode:QUARTET☆RE-BOOT!
Creator:tomatas95
Version:Normal
Source:天使☆騒々 RE-BOOT!
Tags:eroge galgame yuzusoft visual novel vn video game angelic chaos imouto angelic*chaos famishin angelnote opening op 羽生みいな Miina Hanyu 井ノ原智 Satoshi Inohara 乃愛 Noa 天音 Amane 来海 Kurumi かぐ耶 Kaguya Tenshi☆Souzou RE-BOOT! Tenshi Souzou こぶいち Kobuichi むりりん Muririn ほかん Hokan 羽純りお Hazumi Rio Tanikaze Amane 谷風天音 Shirayuki Noa 白雪乃愛 Hoshikawa Kaguya 星河かぐ耶 Kohibari Kurumi 小雲雀来海 Haruka Sora 遥そら Sendai Eri 仙台エリ Fujita Akane 藤田茜 Kanako 夏和小 Setono Marie 瀬戸乃マリエ Taichi You 大地葉 Toda Megumi 戸田めぐみ Yanagi Hitomi 柳ひとみ reboot japanese gazimal share pop jpop j-pop
BeatmapID:4127956
BeatmapSetID:1985728

[Difficulty]
HPDrainRate:3
CircleSize:3
OverallDifficulty:4
ApproachRate:5.5
SliderMultiplier:1.1
SliderTickRate:1

[Events]
//Background and Video events
Video,0,"yuzusoftdaisuki.mp4"
0,0,"KurumiDate.jpg",0,0
//Break Periods
//Storyboard Layer 0 (Background)
//Storyboard Layer 1 (Fail)
//Storyboard Layer 2 (Pass)
//Storyboard Layer 3 (Foreground)
//Storyboard Layer 4 (Overlay)
//Storyboard Sound Samples

[TimingPoints]
1483,333.333333333333,4,2,1,10,1,0
1483,-125,4,2,1,10,0,0
2149,-125,4,2,1,20,0,0
2816,-125,4,2,1,30,0,0
3482,-125,4,2,1,40,0,0
3649,-125,4,2,1,45,0,0
4149,-125,4,2,1,50,0,0
4982,-125,4,2,3,40,0,0
5399,-125,4,2,3,5,0,0
5482,-111.111111111111,4,2,4,70,0,0
5649,-111.111111111111,4,2,3,70,0,0
5982,-111.111111111111,4,2,8,70,0,0
6149,-111.111111111111,4,2,3,70,0,0
7316,-111.111111111111,4,2,8,70,0,0
7649,-111.111111111111,4,2,3,70,0,0
7982,-111.111111111111,4,2,4,70,0,0
8482,-111.111111111111,4,2,3,70,0,0
8649,-111.111111111111,4,2,1,75,0,0
9482,-111.111111111111,4,2,3,5,0,0
9816,-111.111111111111,4,2,3,30,0,0
10316,-111.111111111111,4,2,3,40,0,0
10482,-111.111111111111,4,2,3,50,0,0
10732,-111.111111111111,4,2,3,5,0,0
10816,-100,4,2,4,75,0,0
11149,-100,4,2,3,70,0,0
11982,-100,4,2,3,75,0,0
12149,-100,4,2,3,70,0,0
13316,-100,4,2,1,75,0,0
13482,-100,4,2,3,70,0,0
15982,-100,4,2,3,75,0,0
16149,-100,4,2,3,70,0,0
17316,-100,4,2,1,75,0,0
17482,-100,4,2,3,70,0,0
17982,-100,4,2,3,75,0,0
18149,-100,4,2,3,70,0,0
18816,-100,4,2,4,75,0,0
18982,-100,4,2,3,70,0,0
19816,-100,4,2,3,65,0,0
19982,-100,4,2,3,70,0,0
20316,-100,4,2,8,75,0,0
20816,-100,4,2,3,5,0,0
21482,-111.111111111111,4,2,3,60,0,0
23982,-111.111111111111,4,2,3,65,0,0
24149,-111.111111111111,4,2,3,60,0,0
25316,-111.111111111111,4,2,8,65,0,0
25649,-111.111111111111,4,2,3,60,0,0
25982,-111.111111111111,4,2,8,65,0,0
26315,-111.111111111111,4,2,3,60,0,0
26649,-111.111111111111,4,2,3,65,0,0
27149,-111.111111111111,4,2,3,60,0,0
29316,-111.111111111111,4,2,3,65,0,0
29482,-111.111111111111,4,2,3,60,0,0
30649,-111.111111111111,4,2,8,65,0,0
30815,-111.111111111111,4,2,3,60,0,0
31316,-111.111111111111,4,2,8,65,0,0
31482,-111.111111111111,4,2,3,60,0,0
31816,-111.111111111111,4,2,8,65,0,0
31982,-100,4,2,3,65,0,0
33316,-100,4,2,3,70,0,0
33482,-100,4,2,3,65,0,0
34649,-100,4,2,3,70,0,0
34815,-100,4,2,3,65,0,0
35982,-100,4,2,8,70,0,0
36148,-100,4,2,3,65,0,0
36649,-100,4,2,8,70,0,0
36815,-100,4,2,3,65,0,0
36982,-100,4,2,3,55,0,0
37316,-100,4,2,3,70,0,0
37649,-100,4,2,3,65,0,0
38649,-100,4,2,8,70,0,0
38982,-100,4,2,3,60,0,0
39482,-100,4,2,3,65,0,0
39982,-100,4,2,3,70,0,0
40316,-100,4,2,1,65,0,0
41816,-100,4,2,3,65,0,0
42649,-111.111111111111,4,2,3,65,0,0
42982,-111.111111111111,4,2,3,60,0,0
43982,-111.111111111111,4,2,3,65,0,0
44149,-111.111111111111,4,2,3,60,0,0
45316,-111.111111111111,4,2,3,65,0,0
45483,-111.111111111111,4,2,3,60,0,0
46649,-111.111111111111,4,2,3,65,0,0
46816,-111.111111111111,4,2,3,60,0,0
47982,-111.111111111111,4,2,3,65,0,0
48316,-111.111111111111,4,2,3,60,0,0
49316,-111.111111111111,4,2,3,65,0,0
49483,-111.111111111111,4,2,3,60,0,0
50816,-100,4,2,3,70,0,0
53482,-100,4,2,4,75,0,0
53816,-100,4,2,3,70,0,0
54816,-100,4,2,4,75,0,0
55150,-100,4,2,3,70,0,0
56149,-100,4,2,4,75,0,0
56316,-100,4,2,4,70,0,0
56649,-100,4,2,4,75,0,0
56816,-100,4,2,4,70,0,0
57149,-100,4,2,4,75,0,0
57816,-100,4,2,1,30,0,0
58316,-100,4,2,1,45,0,0
58482,-100,4,2,1,50,0,0
58732,-100,4,2,1,5,0,0
58816,-90.9090909090909,4,2,4,80,0,1
59149,-90.9090909090909,4,2,3,80,0,1
61399,-90.9090909090909,4,2,1,80,0,1
61482,-90.9090909090909,4,2,3,80,0,1
62316,-90.9090909090909,4,2,1,80,0,1
62816,-90.9090909090909,4,2,3,80,0,1
64066,-90.9090909090909,4,2,1,80,0,1
64149,-90.9090909090909,4,2,3,80,0,1
66733,-90.9090909090909,4,2,1,80,0,1
66816,-90.9090909090909,4,2,4,80,0,1
67149,-90.9090909090909,4,2,3,80,0,1
67649,-90.9090909090909,4,2,1,80,0,1
68149,-90.9090909090909,4,2,3,80,0,1
69149,-90.9090909090909,4,2,3,80,0,0
69482,-90.9090909090909,4,2,4,80,0,1
69816,-90.9090909090909,4,2,3,80,0,1
72066,-90.9090909090909,4,2,1,80,0,1
72149,-90.9090909090909,4,2,4,80,0,1
72482,-90.9090909090909,4,2,3,80,0,1
74733,-90.9090909090909,4,2,1,80,0,1
74816,-90.9090909090909,4,2,3,80,0,1
75149,-90.9090909090909,4,2,3,75,0,1
75316,-90.9090909090909,4,2,3,80,0,1
75649,-90.9090909090909,4,2,3,75,0,1
75982,-90.9090909090909,4,2,4,80,0,1
76482,-90.9090909090909,4,2,3,80,0,1
78149,-90.9090909090909,4,2,1,70,0,1
78482,-90.9090909090909,4,2,1,75,0,1
78816,-90.9090909090909,4,2,1,80,0,1
79482,-90.9090909090909,4,2,1,85,0,1
80066,-90.9090909090909,4,2,1,5,0,1
80149,-90.9090909090909,4,2,4,70,0,0
80482,-90.9090909090909,4,2,3,70,0,0
81316,-90.9090909090909,4,2,3,75,0,0
81649,-90.9090909090909,4,2,3,70,0,0
82649,-90.9090909090909,4,2,4,75,0,0
82982,-90.9090909090909,4,2,3,75,0,0
84066,-90.9090909090909,4,2,1,75,0,0
84149,-90.9090909090909,4,2,3,75,0,0
85149,-90.9090909090909,4,2,8,75,0,0
85232,-90.9090909090909,4,2,1,75,0,0
85482,-100,4,2,7,80,0,0
85649,-100,4,2,4,80,0,0
85982,-100,4,2,7,80,0,0
86149,-100,4,2,4,80,0,0
86316,-100,4,2,1,80,0,0
86482,-100,4,2,7,80,0,0
86649,-100,4,2,4,80,0,0
87316,-100,4,2,4,80,0,0

[Colours]
Combo1 : 253,179,166
Combo2 : 235,250,188
Combo3 : 251,191,251
Combo4 : 141,238,243

[HitObjects]
256,192,1483,12,0,4149,0:0:0:0:
338,111,5149,5,14,0:2:0:0:
422,81,5482,2,0,P|424:55|438:20,2,49.4999984893799,4|0|10,3:2|3:0|0:0,0:0:0:0:
449,115,5982,2,0,P|433:162|426:211,1,98.9999969787599,6|8,3:2|0:0,0:0:0:0:
424,255,6482,1,2,0:0:0:0:
445,341,6816,2,0,L|513:352,2,49.4999984893799,4|0|8,3:2|0:0|0:0,0:0:0:0:
403,357,7316,2,0,L|293:339,1,98.9999969787599,6|8,3:2|0:0,0:0:0:0:
264,347,7816,1,2,0:0:0:0:
264,347,7982,6,0,P|269:301|291:190,1,148.49999546814,6|0,3:2|3:0,0:0:0:0:
296,156,8649,1,10,3:2:0:0:
219,109,8982,1,10,3:2:0:0:
145,160,9316,1,10,3:2:0:0:
341,355,10482,2,0,L|406:350,1,49.4999984893799,12|0,0:0|0:0,0:0:0:0:
439,343,10816,6,0,P|440:297|457:223,1,110,4|8,3:2|0:0,0:0:0:0:
458,135,11482,2,0,L|520:145,2,55,2|2|8,3:2|3:2|0:0,0:0:0:0:
439,86,11982,2,0,L|327:67,1,110,6|0,3:2|0:0,0:0:0:0:
299,29,12482,1,8,0:0:0:0:
203,54,12816,2,0,P|198:27|187:-11,2,55,2|2|8,3:2|3:2|0:0,0:0:0:0:
228,96,13316,6,0,P|211:155|200:216,1,110,4|0,3:2|0:0,0:0:0:0:
229,244,13816,1,8,0:0:0:0:
216,342,14149,2,0,L|278:352,2,55,0|2|8,3:0|3:2|0:0,0:0:0:0:
166,359,14649,2,0,L|54:340,1,110,2|0,3:2|0:0,0:0:0:0:
8,332,15149,1,8,0:0:0:0:
70,255,15482,2,0,L|132:265,2,55,0|0|10,3:0|3:0|0:0,0:0:0:0:
25,233,15982,6,0,P|19:178|9:124,1,110,4|0,3:2|0:0,0:0:0:0:
9,74,16482,1,8,0:0:0:0:
106,54,16816,2,0,P|108:26|113:0,2,55,2|0|8,3:2|3:0|0:0,0:0:0:0:
106,103,17316,2,0,L|227:119,1,110,4|0,3:2|0:0,0:0:0:0:
268,113,17816,1,8,0:0:0:0:
268,113,17982,2,0,P|280:171|247:234,1,110,4|0,3:2|3:0,0:0:0:0:
239,261,18482,1,8,0:0:0:0:
230,359,18816,6,0,P|202:354|175:351,2,55,4|0|8,3:2|3:2|0:0,0:0:0:0:
278,369,19316,1,2,3:2:0:0:
358,311,19649,1,2,3:2:0:0:
438,369,19982,2,0,P|444:321|458:252,1,110,4|8,3:2|0:0,0:0:0:0:
504,241,20482,1,8,0:0:0:0:
504,241,20649,1,12,3:2:0:0:
471,20,21482,6,0,P|421:15|373:4,2,98.9999969787599,2|8|0,3:2|0:0|3:0,0:0:0:0:
508,45,22316,1,2,3:2:0:0:
457,118,22649,2,0,P|408:107|359:102,1,98.9999969787599,2|0,3:2|0:0,0:0:0:0:
316,116,23149,1,10,0:0:0:0:
235,77,23482,2,0,L|243:18,2,49.4999984893799,2|0|8,3:2|3:2|0:0,0:0:0:0:
210,114,23982,6,0,P|198:165|222:227,1,98.9999969787599,2|0,3:2|0:0,0:0:0:0:
216,253,24482,1,10,0:0:0:0:
198,340,24816,2,0,L|257:348,2,49.4999984893799,2|0|8,3:2|3:0|0:0,0:0:0:0:
163,368,25316,2,0,P|115:354|57:376,1,98.9999969787599,6|0,3:2|0:0,0:0:0:0:
10,300,25982,2,0,P|46:265|56:204,1,98.9999969787599,6|0,3:2|0:0,0:0:0:0:
52,179,26482,1,8,0:0:0:0:
52,179,26649,6,0,L|33:62,1,98.9999969787599,4|0,3:2|0:0,0:0:0:0:
37,36,27149,1,10,0:0:0:0:
125,48,27482,2,0,L|115:-10,2,49.4999984893799,2|0|8,3:2|3:0|0:0,0:0:0:0:
132,91,27982,2,0,P|176:76|239:103,1,98.9999969787599,2|0,3:2|0:0,0:0:0:0:
261,116,28482,1,10,0:0:0:0:
224,197,28816,2,0,L|168:204,2,49.4999984893799,2|0|8,3:2|3:0|0:0,0:0:0:0:
258,225,29316,6,0,L|361:212,1,98.9999969787599,2|0,3:2|0:0,0:0:0:0:
395,232,29816,1,8,0:0:0:0:
484,213,30149,2,0,P|490:242|497:272,2,49.4999984893799,2|0|8,3:2|3:0|0:0,0:0:0:0:
476,168,30649,2,0,P|465:119|494:67,1,98.9999969787599,6|0,3:2|0:0,0:0:0:0:
408,28,31316,2,0,P|371:62|311:62,1,98.9999969787599,6|0,3:2|0:0,0:0:0:0:
281,52,31816,1,8,0:0:0:0:
281,52,31982,6,0,L|168:40,1,110,6|0,3:2|0:0,0:0:0:0:
122,33,32482,1,8,0:0:0:0:
27,41,32816,1,2,3:2:0:0:
27,41,32982,2,0,P|36:79|39:111,1,55,0|8,3:0|0:0,0:0:0:0:
65,136,33316,2,0,P|49:201|44:256,1,110,2|0,3:2|0:0,0:0:0:0:
33,292,33816,1,10,0:0:0:0:
125,326,34149,2,0,P|116:364|113:396,2,55,2|0|8,3:2|3:0|0:0,0:0:0:0:
142,279,34649,6,0,L|256:297,1,110,2|0,3:2|0:0,0:0:0:0:
295,275,35149,1,10,0:0:0:0:
247,194,35482,1,2,3:2:0:0:
247,194,35649,2,0,L|192:185,1,55,0|8,3:0|0:0,0:0:0:0:
143,183,35982,2,0,P|132:133|170:69,1,110,4|0,3:2|0:0,0:0:0:0:
187,43,36482,1,8,0:0:0:0:
187,43,36649,1,4,3:2:0:0:
281,72,36982,2,0,P|310:76|347:65,1,55,2|10,0:0|0:0,0:0:0:0:
371,37,37316,6,0,P|420:22|486:55,1,110,6|0,3:2|0:0,0:0:0:0:
508,77,37816,1,8,0:0:0:0:
462,165,38149,2,0,L|395:172,2,55,2|0|8,3:2|3:0|0:0,0:0:0:0:
501,194,38649,2,0,P|487:243|479:313,1,110,4|0,3:2|0:0,0:0:0:0:
472,350,39149,1,8,0:0:0:0:
383,305,39482,2,0,P|379:277|372:251,2,55,2|0|8,3:2|3:0|0:0,0:0:0:0:
370,352,39982,6,0,P|321:334|266:350,1,110,6|0,3:2|0:0,0:0:0:0:
219,361,40482,1,10,0:0:0:0:
119,360,40816,2,0,P|89:365|61:357,2,55,2|2|10,3:2|3:2|0:0,0:0:0:0:
134,312,41316,2,0,P|136:267|150:187,1,110,2|2,3:2|0:0,0:0:0:0:
160,155,41816,1,10,0:0:0:0:
223,78,42149,1,2,3:2:0:0:
157,12,42482,1,8,0:0:0:0:
157,12,42649,6,0,L|41:27,1,98.9999969787599,6|0,3:2|0:0,0:0:0:0:
17,40,43149,1,2,0:0:0:0:
57,119,43482,2,0,P|52:147|49:185,1,49.4999984893799,8|2,0:0|0:0,0:0:0:0:
0,242,43982,2,0,P|8:288|13:351,1,98.9999969787599,2|8,3:2|0:0,0:0:0:0:
48,366,44482,1,2,0:0:0:0:
111,303,44816,1,10,0:0:0:0:
183,363,45149,1,0,0:0:0:0:
183,363,45316,6,0,L|296:347,1,98.9999969787599,2|8,3:2|0:0,0:0:0:0:
317,267,45982,2,0,L|204:251,1,98.9999969787599,2|2,3:2|0:0,0:0:0:0:
180,245,46482,1,2,0:0:0:0:
180,245,46649,2,0,P|185:196|200:133,1,98.9999969787599,2|8,3:2|0:0,0:0:0:0:
206,104,47149,1,2,0:0:0:0:
253,29,47482,1,10,0:0:0:0:
343,56,47816,1,10,0:0:0:0:
343,56,47982,6,0,P|386:70|450:50,1,98.9999969787599,4|8,3:2|0:0,0:0:0:0:
484,52,48482,1,2,0:0:0:0:
484,52,48649,2,0,L|476:-8,2,49.4999984893799,0|10|2,3:0|0:0|0:0,0:0:0:0:
486,141,49316,2,0,L|502:262,1,98.9999969787599,2|8,3:2|0:0,0:0:0:0:
499,283,49816,1,2,0:0:0:0:
436,346,50149,1,10,0:0:0:0:
350,322,50482,1,8,0:0:0:0:
328,235,50816,6,0,L|311:112,1,110,6|8,3:2|0:0,0:0:0:0:
309,76,51316,2,0,P|254:95|193:65,1,110,2|0,0:0|3:0,0:0:0:0:
162,55,51816,1,10,0:0:0:0:
162,55,51982,2,0,P|110:38|60:57,1,110,2|0,3:2|3:0,0:0:0:0:
35,100,52482,1,10,0:0:0:0:
92,180,52816,1,2,3:2:0:0:
35,261,53149,1,10,0:0:0:0:
92,340,53482,6,0,L|210:328,1,110,6|8,3:2|0:0,0:0:0:0:
246,350,53982,2,0,L|364:338,1,110,2|0,3:2|3:0,0:0:0:0:
399,361,54482,1,8,0:0:0:0:
484,309,54816,2,0,P|481:260|465:197,1,110,6|8,3:2|0:0,0:0:0:0:
495,160,55316,2,0,P|498:111|514:48,1,110,2|0,3:2|3:0,0:0:0:0:
480,14,55816,1,8,0:0:0:0:
388,51,56149,6,0,P|336:71|271:33,1,110,10|0,0:0|3:0,0:0:0:0:
245,79,56649,2,0,P|288:114|287:189,1,110,10|0,0:0|3:0,0:0:0:0:
293,214,57149,1,10,0:0:0:0:
201,250,57482,1,14,0:0:0:0:
17,52,58816,6,0,P|28:111|41:175,1,121.000003692627,4|8,3:2|0:0,0:0:0:0:
47,228,59316,2,0,P|98:205|173:240,1,121.000003692627,2|2,0:0|3:2,0:0:0:0:
199,188,59816,1,8,0:0:0:0:
199,188,59982,2,0,P|153:155|146:72,1,121.000003692627,2|0,3:2|3:0,0:0:0:0:
139,40,60482,1,10,0:0:0:0:
247,47,60816,2,0,L|318:36,1,60.5000018463135,2|0,3:2|3:0,0:0:0:0:
360,27,61149,1,10,0:0:0:0:
467,11,61482,6,0,P|476:63|487:135,1,121.000003692627,6|8,3:2|0:0,0:0:0:0:
490,185,61982,2,0,P|433:163|375:197,1,121.000003692627,2|0,0:0|3:0,0:0:0:0:
332,209,62482,2,0,L|349:275,1,60.5000018463135,10|0,0:0|0:0,0:0:0:0:
358,322,62816,1,2,3:2:0:0:
253,290,63149,1,10,0:0:0:0:
168,354,63482,2,0,L|108:343,1,60.5000018463135,2|0,3:2|3:0,0:0:0:0:
53,346,63816,1,8,0:0:0:0:
41,237,64149,6,0,P|46:181|8:121,1,121.000003692627,6|8,3:2|0:0,0:0:0:0:
41,78,64649,2,0,P|86:110|157:107,1,121.000003692627,2|2,0:0|3:2,0:0:0:0:
208,109,65149,1,8,0:0:0:0:
208,109,65316,2,0,L|225:244,1,121.000003692627,2|0,3:2|3:0,0:0:0:0:
233,282,65816,1,10,0:0:0:0:
324,222,66149,2,0,L|316:161,1,60.5000018463135,2|0,3:2|3:0,0:0:0:0:
302,109,66482,1,10,0:0:0:0:
344,8,66816,6,0,P|398:30|460:1,1,121.000003692627,6|8,3:2|0:0,0:0:0:0:
507,11,67316,2,0,P|498:47|482:146,1,121.000003692627,2|2,3:2|3:2,0:0:0:0:
439,161,67816,2,0,P|443:179|451:228,1,60.5000018463135,10|2,0:2|3:2,0:0:0:0:
464,274,68149,1,2,3:2:0:0:
394,357,68482,1,10,0:0:0:0:
314,282,68816,2,0,P|309:252|302:222,1,60.5000018463135,2|0,3:2|3:0,0:0:0:0:
292,168,69149,1,10,0:0:0:0:
323,63,69482,6,0,P|268:55|195:47,1,121.000003692627,6|8,3:2|0:0,0:0:0:0:
150,34,69982,1,2,0:2:0:0:
45,66,70316,1,2,3:2:0:0:
21,173,70649,2,0,L|38:296,1,121.000003692627,2|0,3:2|3:0,0:0:0:0:
49,346,71149,2,0,P|108:330|170:359,1,121.000003692627,10|2,0:0|3:2,0:0:0:0:
214,369,71649,1,0,3:0:0:0:
214,369,71816,1,10,0:0:0:0:
239,263,72149,6,0,L|222:143,1,121.000003692627,6|8,3:2|0:0,0:0:0:0:
204,91,72649,1,2,0:0:0:0:
272,6,72982,1,2,3:2:0:0:
344,87,73316,2,0,P|389:110|470:80,1,121.000003692627,6|0,3:2|3:0,0:0:0:0:
509,95,73816,2,0,P|498:133|492:169,1,60.5000018463135,8|0,0:0|0:0,0:0:0:0:
462,198,74149,2,0,P|473:236|479:272,1,60.5000018463135,2|0,3:2|3:0,0:0:0:0:
499,306,74482,1,10,0:0:0:0:
395,341,74816,6,0,P|342:323|278:342,1,121.000003692627,6|8,3:2|0:0,0:0:0:0:
229,358,75316,2,0,P|176:376|112:357,1,121.000003692627,6|0,3:2|3:0,0:0:0:0:
65,336,75816,1,8,0:0:0:0:
65,336,75982,2,0,L|44:196,1,121.000003692627,4|0,3:2|0:0,0:0:0:0:
42,161,76482,1,8,0:0:0:0:
64,54,76816,2,0,P|32:63|-1:61,2,60.5000018463135,2|0|10,3:2|3:0|0:0,0:0:0:0:
118,47,77316,6,0,B|150:69|150:69|146:173,1,121.000003692627,4|0,3:2|0:0,0:0:0:0:
147,205,77816,1,8,0:0:0:0:
209,293,78149,2,0,L|278:283,1,60.5000018463135,2|2,3:2|3:2,0:0:0:0:
313,314,78482,1,10,0:0:0:0:
427,309,78816,2,0,P|418:337|414:367,2,60.5000018463135,2|2|10,3:2|0:0|0:0,0:0:0:0:
478,285,79316,1,0,3:0:0:0:
478,285,79482,1,10,0:0:0:0:
480,175,79816,1,10,0:0:0:0:
420,83,80149,6,0,P|369:101|298:74,1,121.000003692627,6|0,3:2|0:0,0:0:0:0:
264,47,80649,1,2,3:2:0:0:
155,54,80982,1,2,3:2:0:0:
107,152,81316,2,0,P|94:211|83:270,1,121.000003692627,6|8,3:2|0:0,0:0:0:0:
196,265,81982,1,0,3:0:0:0:
196,265,82149,2,0,P|201:236|209:201,2,60.5000018463135,10|0|2,0:0|3:0|3:2,0:0:0:0:
189,319,82649,6,0,P|251:307|304:341,1,121.000003692627,4|0,3:2|0:0,0:0:0:0:
342,367,83149,1,8,0:0:0:0:
448,345,83482,2,0,L|455:285,1,60.5000018463135,0|0,3:0|3:0,0:0:0:0:
430,236,83816,2,0,L|437:176,1,60.5000018463135,8|2,0:0|3:3,0:0:0:0:
469,131,84149,2,0,P|408:121|326:103,1,121.000003692627,4|8,3:2|0:0,0:0:0:0:
282,23,84816,2,0,P|252:29|222:34,1,60.5000018463135,0|0,3:0|3:0,0:0:0:0:
170,50,85149,1,14,0:0:0:0:
71,38,85482,6,0,L|92:168,1,110,6|0,3:2|3:0,0:0:0:0:
48,176,85982,2,0,L|69:306,1,110,6|2,3:2|3:3,0:0:0:0:
97,329,86482,1,14,0:0:0:0:
97,329,86649,1,8,0:2:0:0:
