osu file format v14

[General]
AudioFilename: audio.mp3
AudioLeadIn: 0
PreviewTime: 57649
Countdown: 0
SampleSet: Soft
StackLeniency: 0.3
Mode: 0
LetterboxInBreaks: 0
WidescreenStoryboard: 1

[Editor]
Bookmarks: 1483,5482,10816,21482,31982,42649,53482,58816,69482,85482,87316
DistanceSpacing: 0.3
BeatDivisor: 4
GridSize: 4
TimelineZoom: 1

[Metadata]
Title:FUN FUN RE-BOOT
TitleUnicode:FUN FUN RE-BOOT
Artist:QUARTET*RE-BOOT!
ArtistUnicode:QUARTET☆RE-BOOT!
Creator:tomatas95
Version:Hard
Source:天使☆騒々 RE-BOOT!
Tags:eroge galgame yuzusoft visual novel vn video game angelic chaos imouto angelic*chaos famishin angelnote opening op 羽生みいな Miina Hanyu 井ノ原智 Satoshi Inohara 乃愛 Noa 天音 Amane 来海 Kurumi かぐ耶 Kaguya Tenshi☆Souzou RE-BOOT! Tenshi Souzou こぶいち Kobuichi むりりん Muririn ほかん Hokan 羽純りお Hazumi Rio Tanikaze Amane 谷風天音 Shirayuki Noa 白雪乃愛 Hoshikawa Kaguya 星河かぐ耶 Kohibari Kurumi 小雲雀来海 Haruka Sora 遥そら Sendai Eri 仙台エリ Fujita Akane 藤田茜 Kanako 夏和小 Setono Marie 瀬戸乃マリエ Taichi You 大地葉 Toda Megumi 戸田めぐみ Yanagi Hitomi 柳ひとみ reboot japanese gazimal share pop jpop j-pop
BeatmapID:4127953
BeatmapSetID:1985728

[Difficulty]
HPDrainRate:3.8
CircleSize:3.3
OverallDifficulty:6
ApproachRate:8
SliderMultiplier:1.3
SliderTickRate:1

[Events]
//Background and Video events
Video,0,"yuzusoftdaisuki.mp4"
0,0,"FumikaSenseiDesu.jpg",0,0
//Break Periods
//Storyboard Layer 0 (Background)
//Storyboard Layer 1 (Fail)
//Storyboard Layer 2 (Pass)
//Storyboard Layer 3 (Foreground)
//Storyboard Layer 4 (Overlay)
//Storyboard Sound Samples

[TimingPoints]
1483,333.333333333333,4,2,1,10,1,0
1483,-142.857142857143,4,2,1,10,0,0
2149,-142.857142857143,4,2,1,20,0,0
2816,-142.857142857143,4,2,1,30,0,0
3482,-142.857142857143,4,2,1,40,0,0
3649,-142.857142857143,4,2,1,45,0,0
4149,-142.857142857143,4,2,1,50,0,0
4982,-142.857142857143,4,2,3,40,0,0
5399,-142.857142857143,4,2,3,5,0,0
5482,-111.111111111111,4,2,4,70,0,0
5649,-111.111111111111,4,2,3,70,0,0
5982,-111.111111111111,4,2,8,70,0,0
6149,-111.111111111111,4,2,3,70,0,0
7316,-111.111111111111,4,2,8,70,0,0
7649,-111.111111111111,4,2,3,70,0,0
7982,-111.111111111111,4,2,4,70,0,0
8482,-111.111111111111,4,2,3,70,0,0
8649,-111.111111111111,4,2,1,75,0,0
9482,-111.111111111111,4,2,3,5,0,0
9816,-111.111111111111,4,2,3,30,0,0
10316,-111.111111111111,4,2,3,40,0,0
10482,-111.111111111111,4,2,3,50,0,0
10732,-111.111111111111,4,2,3,5,0,0
10816,-100,4,2,4,75,0,0
11149,-100,4,2,3,70,0,0
11982,-100,4,2,3,75,0,0
12149,-100,4,2,3,70,0,0
13316,-100,4,2,1,75,0,0
13482,-100,4,2,3,70,0,0
15982,-100,4,2,3,75,0,0
16149,-100,4,2,3,70,0,0
17316,-100,4,2,1,75,0,0
17482,-100,4,2,3,70,0,0
17982,-100,4,2,3,75,0,0
18149,-100,4,2,3,70,0,0
18816,-100,4,2,4,75,0,0
18982,-100,4,2,3,70,0,0
19816,-100,4,2,3,65,0,0
19982,-100,4,2,3,70,0,0
20316,-100,4,2,8,75,0,0
20816,-100,4,2,3,5,0,0
21482,-125,4,2,3,60,0,0
23982,-125,4,2,3,65,0,0
24149,-125,4,2,3,60,0,0
25316,-125,4,2,8,65,0,0
25649,-125,4,2,3,60,0,0
25982,-125,4,2,8,65,0,0
26315,-125,4,2,3,60,0,0
26649,-125,4,2,3,65,0,0
27149,-125,4,2,3,60,0,0
29316,-125,4,2,3,65,0,0
29482,-125,4,2,3,60,0,0
30649,-125,4,2,8,65,0,0
30815,-125,4,2,3,60,0,0
31316,-125,4,2,8,65,0,0
31482,-125,4,2,3,60,0,0
31816,-125,4,2,8,65,0,0
31982,-111.111111111111,4,2,3,65,0,0
33316,-111.111111111111,4,2,3,70,0,0
33482,-111.111111111111,4,2,3,65,0,0
34649,-111.111111111111,4,2,3,70,0,0
34815,-111.111111111111,4,2,3,65,0,0
35982,-111.111111111111,4,2,8,70,0,0
36148,-111.111111111111,4,2,3,65,0,0
36649,-111.111111111111,4,2,8,70,0,0
36815,-111.111111111111,4,2,3,65,0,0
36982,-111.111111111111,4,2,3,55,0,0
37316,-111.111111111111,4,2,3,70,0,0
37649,-111.111111111111,4,2,3,65,0,0
38649,-111.111111111111,4,2,8,70,0,0
38982,-111.111111111111,4,2,3,60,0,0
39482,-111.111111111111,4,2,3,65,0,0
39982,-111.111111111111,4,2,3,70,0,0
40316,-111.111111111111,4,2,1,65,0,0
41816,-111.111111111111,4,2,3,65,0,0
42649,-125,4,2,3,65,0,0
42982,-125,4,2,3,60,0,0
43982,-125,4,2,3,65,0,0
44149,-125,4,2,3,60,0,0
45316,-125,4,2,3,65,0,0
45483,-125,4,2,3,60,0,0
46649,-125,4,2,3,65,0,0
46816,-125,4,2,3,60,0,0
47982,-125,4,2,3,65,0,0
48316,-125,4,2,3,60,0,0
49316,-125,4,2,3,65,0,0
49483,-125,4,2,3,60,0,0
50816,-100,4,2,3,70,0,0
53482,-100,4,2,4,75,0,0
53816,-100,4,2,3,70,0,0
54816,-100,4,2,4,75,0,0
55150,-100,4,2,3,70,0,0
56149,-100,4,2,4,75,0,0
56316,-100,4,2,4,70,0,0
56649,-100,4,2,4,75,0,0
56816,-100,4,2,4,70,0,0
57149,-100,4,2,4,75,0,0
57816,-100,4,2,1,30,0,0
58316,-125,4,2,1,45,0,0
58482,-125,4,2,1,50,0,0
58732,-125,4,2,1,5,0,0
58816,-90.9090909090909,4,2,4,80,0,1
59149,-90.9090909090909,4,2,3,80,0,1
61399,-90.9090909090909,4,2,1,80,0,1
61482,-90.9090909090909,4,2,3,80,0,1
62316,-90.9090909090909,4,2,1,80,0,1
62816,-90.9090909090909,4,2,3,80,0,1
64066,-90.9090909090909,4,2,1,80,0,1
64149,-90.9090909090909,4,2,3,80,0,1
66733,-90.9090909090909,4,2,1,80,0,1
66816,-90.9090909090909,4,2,4,80,0,1
67149,-90.9090909090909,4,2,3,80,0,1
67649,-90.9090909090909,4,2,1,80,0,1
68149,-90.9090909090909,4,2,3,80,0,1
69149,-90.9090909090909,4,2,3,80,0,0
69482,-90.9090909090909,4,2,4,80,0,1
69816,-90.9090909090909,4,2,3,80,0,1
72066,-90.9090909090909,4,2,1,80,0,1
72149,-90.9090909090909,4,2,4,80,0,1
72482,-90.9090909090909,4,2,3,80,0,1
74733,-90.9090909090909,4,2,1,80,0,1
74816,-90.9090909090909,4,2,3,80,0,1
75149,-90.9090909090909,4,2,3,75,0,1
75316,-90.9090909090909,4,2,3,80,0,1
75649,-90.9090909090909,4,2,3,75,0,1
75982,-90.9090909090909,4,2,4,80,0,1
76482,-90.9090909090909,4,2,3,80,0,1
78149,-90.9090909090909,4,2,1,70,0,1
78482,-90.9090909090909,4,2,1,75,0,1
78816,-90.9090909090909,4,2,1,80,0,1
79482,-90.9090909090909,4,2,1,85,0,1
80066,-90.9090909090909,4,2,1,5,0,1
80149,-100,4,2,4,70,0,0
80482,-100,4,2,3,70,0,0
81316,-100,4,2,3,75,0,0
81649,-100,4,2,3,70,0,0
82649,-100,4,2,4,75,0,0
82982,-100,4,2,3,75,0,0
84066,-100,4,2,1,75,0,0
84149,-100,4,2,3,75,0,0
85149,-100,4,2,8,75,0,0
85232,-100,4,2,1,75,0,0
85482,-90.9090909090909,4,2,7,80,0,0
85649,-90.9090909090909,4,2,4,80,0,0
85982,-90.9090909090909,4,2,7,80,0,0
86149,-90.9090909090909,4,2,4,80,0,0
86316,-90.9090909090909,4,2,1,80,0,0
86482,-90.9090909090909,4,2,7,80,0,0
86649,-90.9090909090909,4,2,4,80,0,0
87316,-100,4,2,4,80,0,0

[Colours]
Combo1 : 253,179,166
Combo2 : 235,250,188
Combo3 : 251,191,251
Combo4 : 141,238,243

[HitObjects]
256,192,1483,12,0,4149,0:0:0:0:
376,36,4982,5,0,3:0:0:0:
376,36,5149,2,0,L|387:100,1,45.4999986114502,12|0,0:0|0:0,0:0:0:0:
477,75,5482,6,0,L|467:17,2,58.4999982147217,4|0|10,3:2|3:0|0:0,0:0:0:0:
436,153,5982,2,0,L|455:268,1,116.999996429443,6|8,3:2|0:0,0:0:0:0:
359,303,6482,2,0,L|349:245,1,58.4999982147217,2|0,0:0|3:2,0:0:0:0:
295,158,6816,2,0,P|331:164|354:157,2,58.4999982147217,4|0|8,3:2|0:0|0:0,0:0:0:0:
259,80,7316,2,0,P|211:61|142:91,1,116.999996429443,6|8,3:2|0:0,0:0:0:0:
206,151,7816,1,2,0:0:0:0:
232,236,7982,6,0,B|187:254|151:220|151:220|114:187|67:205,1,175.499994644165,6|0,3:2|3:0,0:0:0:0:
32,123,8649,1,10,3:2:0:0:
97,289,8982,1,10,3:2:0:0:
206,151,9316,1,10,3:2:0:0:
206,151,10316,5,0,3:0:0:0:
206,151,10482,2,0,L|274:142,1,58.4999982147217,12|0,0:0|0:0,0:0:0:0:
338,182,10816,6,0,P|346:137|298:67,2,130,4|8|2,3:2|0:0|3:2,0:0:0:0:
265,232,11649,1,2,3:2:0:0:
265,232,11816,1,8,0:0:0:0:
345,271,11982,6,0,P|404:282|486:299,1,130,6|0,3:2|0:0,0:0:0:0:
491,210,12482,2,0,P|459:203|427:197,1,65,8|0,0:0|0:0,0:0:0:0:
338,183,12816,1,2,3:2:0:0:
395,113,12982,1,2,3:2:0:0:
395,113,13149,1,8,0:0:0:0:
363,29,13316,6,0,P|303:51|239:26,1,130,4|0,3:2|0:0,0:0:0:0:
158,12,13816,2,0,L|147:90,1,65,8|0,0:0|0:0,0:0:0:0:
55,64,14149,2,0,L|64:0,2,65,0|2|8,3:0|3:2|0:0,0:0:0:0:
94,148,14649,6,0,P|84:204|73:278,1,130,2|0,3:2|0:0,0:0:0:0:
154,327,15149,2,0,P|158:294|164:262,1,65,8|0,0:0|0:0,0:0:0:0:
254,266,15482,2,0,P|258:233|264:201,1,65,0|0,3:0|3:0,0:0:0:0:
221,121,15816,1,10,0:0:0:0:
268,43,15982,6,0,P|328:37|409:30,1,130,4|0,3:2|0:0,0:0:0:0:
376,118,16482,2,0,P|343:121|311:123,1,65,8|0,0:0|0:0,0:0:0:0:
221,121,16816,1,2,3:2:0:0:
263,201,16982,1,0,3:0:0:0:
221,281,17149,1,8,0:0:0:0:
263,361,17316,6,0,L|416:346,1,130,4|0,3:2|0:0,0:0:0:0:
486,350,17816,1,8,0:0:0:0:
440,267,17982,2,0,P|444:221|466:123,1,130,4|0,3:2|3:0,0:0:0:0:
485,52,18482,1,8,0:0:0:0:
315,107,18816,6,0,P|307:71|324:25,2,65,4|0|8,3:2|3:2|0:0,0:0:0:0:
397,74,19316,1,2,3:2:0:0:
233,19,19649,1,2,3:2:0:0:
277,185,19982,6,0,P|209:194|145:203,1,130,4|8,3:2|0:0,0:0:0:0:
39,159,20482,1,8,0:0:0:0:
56,274,20649,1,12,3:2:0:0:
102,51,21482,6,0,L|0:66,2,104,2|8|0,3:2|0:0|3:0,0:0:0:0:
171,104,22316,2,0,L|222:96,1,52,2|8,3:2|0:0,0:0:0:0:
300,129,22649,2,0,P|306:77|271:29,1,104,2|0,3:2|0:0,0:0:0:0:
365,0,23149,2,0,P|407:31|466:24,1,104,10|2,0:0|3:2,0:0:0:0:
423,118,23649,2,0,P|397:131|380:161,1,52,0|8,3:2|0:0,0:0:0:0:
458,198,23982,6,0,P|467:248|480:323,1,104,2|0,3:2|0:0,0:0:0:0:
387,288,24482,2,0,P|382:262|377:236,1,52,10|0,0:0|0:0,0:0:0:0:
300,273,24816,2,0,P|304:298|309:324,2,52,2|0|8,3:2|3:0|0:0,0:0:0:0:
306,186,25316,2,0,P|252:181|196:174,1,104,6|0,3:2|0:0,0:0:0:0:
127,120,25816,1,8,0:0:0:0:
127,120,25982,2,0,L|113:234,1,104,6|0,3:2|0:0,0:0:0:0:
101,325,26482,1,8,0:0:0:0:
189,278,26649,6,0,L|201:174,1,104,4|0,3:2|0:0,0:0:0:0:
288,212,27149,2,0,L|281:263,1,52,10|0,0:0|0:0,0:0:0:0:
297,351,27482,2,0,P|267:345|239:350,2,52,2|0|8,3:2|3:0|0:0,0:0:0:0:
385,348,27982,2,0,P|430:364|495:336,1,104,2|0,3:2|0:0,0:0:0:0:
434,279,28482,2,0,P|429:249|421:218,1,52,10|0,0:0|0:0,0:0:0:0:
489,170,28816,1,2,3:2:0:0:
489,170,28982,2,0,P|494:140|502:109,1,52,0|8,3:0|0:0,0:0:0:0:
486,38,29316,6,0,L|382:50,1,104,2|0,3:2|0:0,0:0:0:0:
303,28,29816,2,0,P|298:53|304:78,1,52,8|0,0:0|0:0,0:0:0:0:
213,82,30149,2,0,P|214:56|205:32,2,52,2|0|8,3:2|3:0|0:0,0:0:0:0:
262,159,30649,2,0,P|270:216|280:272,1,104,6|0,3:2|0:0,0:0:0:0:
297,353,31149,1,8,0:0:0:0:
208,324,31316,2,0,P|151:332|95:342,1,104,6|0,3:2|0:0,0:0:0:0:
17,357,31816,1,8,0:0:0:0:
47,273,31982,6,0,P|55:226|13:165,1,116.999996429443,6|0,3:2|0:0,0:0:0:0:
7,86,32482,2,0,L|81:97,1,58.4999982147217,8|0,0:0|0:0,0:0:0:0:
76,12,32816,2,0,L|2:1,2,58.4999982147217,2|0|8,3:2|3:0|0:0,0:0:0:0:
141,63,33316,2,0,L|264:81,1,116.999996429443,2|0,3:2|0:0,0:0:0:0:
211,159,33816,2,0,L|153:150,1,58.4999982147217,10|0,0:0|0:0,0:0:0:0:
97,214,34149,1,2,3:2:0:0:
97,214,34316,2,0,P|105:251|110:295,1,58.4999982147217,0|8,3:0|0:0,0:0:0:0:
172,337,34649,6,0,P|223:324|288:351,1,116.999996429443,2|0,3:2|0:0,0:0:0:0:
365,379,35149,2,0,P|370:342|363:315,1,58.4999982147217,10|0,0:0|0:0,0:0:0:0:
387,237,35482,2,0,P|414:247|436:266,2,58.4999982147217,2|0|8,3:2|3:0|0:0,0:0:0:0:
303,261,35982,2,0,P|297:200|281:120,1,116.999996429443,4|0,3:2|0:0,0:0:0:0:
285,47,36482,1,8,0:0:0:0:
201,97,36649,1,4,3:2:0:0:
371,95,36982,2,0,L|381:17,1,58.4999982147217,2|10,0:0|0:0,0:0:0:0:
471,19,37316,6,0,L|456:135,1,116.999996429443,6|0,3:2|0:0,0:0:0:0:
472,223,37816,2,0,P|439:224|411:211,1,58.4999982147217,8|0,0:0|0:0,0:0:0:0:
402,311,38149,2,0,P|430:308|457:319,2,58.4999982147217,2|0|8,3:2|3:0|0:0,0:0:0:0:
340,254,38649,2,0,P|284:263|212:274,1,116.999996429443,4|0,3:2|0:0,0:0:0:0:
158,329,39149,2,0,P|141:297|145:251,1,58.4999982147217,8|2,0:0|0:0,0:0:0:0:
94,203,39482,2,0,P|71:220|56:246,2,58.4999982147217,2|0|8,3:2|3:0|0:0,0:0:0:0:
178,199,39982,6,0,P|183:153|196:57,1,116.999996429443,6|0,3:2|0:0,0:0:0:0:
207,0,40482,1,10,0:0:0:0:
27,20,40816,2,0,P|23:48|19:78,2,58.4999982147217,2|2|10,3:2|3:2|0:0,0:0:0:0:
112,1,41316,2,0,P|104:59|97:118,1,116.999996429443,2|2,3:2|0:0,0:0:0:0:
118,205,41816,2,0,P|148:213|178:207,1,58.4999982147217,10|0,0:0|0:0,0:0:0:0:
56,268,42149,2,0,P|25:276|-4:270,1,58.4999982147217,2|0,3:2|3:0,0:0:0:0:
118,335,42482,1,8,0:0:0:0:
118,335,42649,6,0,P|170:323|219:336,1,104,6|0,3:2|0:0,0:0:0:0:
286,285,43149,2,0,L|297:234,2,52,2|0|8,0:0|3:0|0:0,0:0:0:0:
294,369,43649,1,2,0:0:0:0:
475,356,43982,6,0,P|428:347|369:338,1,104,2|8,3:2|0:0,0:0:0:0:
391,251,44482,2,0,P|437:259|496:268,2,104,2|10|0,0:0|0:0|0:0,0:0:0:0:
297,234,45316,6,0,P|303:186|269:127,1,104,2|8,3:2|0:0,0:0:0:0:
341,65,45816,1,2,0:0:0:0:
341,65,45982,2,0,P|382:95|433:98,1,104,2|2,3:2|0:0,0:0:0:0:
465,187,46482,1,2,0:0:0:0:
465,187,46649,2,0,P|419:207|390:250,1,104,2|8,3:2|0:0,0:0:0:0:
400,337,47149,2,0,L|527:353,2,104,2|10|10,0:0|0:0|0:0,0:0:0:0:
319,302,47982,6,0,L|192:318,1,104,4|8,3:2|0:0,0:0:0:0:
227,227,48482,2,0,L|278:220,2,52,2|0|10,0:0|3:0|0:0,0:0:0:0:
146,261,48982,1,2,0:0:0:0:
31,161,49316,2,0,P|82:153|133:144,1,104,2|8,3:2|0:0,0:0:0:0:
116,53,49816,2,0,P|64:60|13:69,2,104,2|10|8,0:0|0:0|0:0,0:0:0:0:
303,137,50816,6,0,L|284:8,1,130,6|8,3:2|0:0,0:0:0:0:
198,26,51316,2,0,L|216:154,1,130,2|0,0:0|3:0,0:0:0:0:
190,237,51816,1,10,0:0:0:0:
242,310,51982,2,0,P|291:290|369:324,1,130,2|0,3:2|3:0,0:0:0:0:
448,350,52482,2,0,P|451:316|430:264,1,65,10|0,0:0|0:0,0:0:0:0:
512,227,52816,2,0,P|484:207|428:199,1,65,2|0,3:2|3:0,0:0:0:0:
440,106,53149,2,0,P|409:120|374:164,1,65,10|0,0:0|0:0,0:0:0:0:
378,229,53482,6,0,P|317:219|246:208,1,130,6|8,3:2|0:0,0:0:0:0:
245,296,53982,2,0,P|184:286|113:275,1,130,2|0,3:2|3:0,0:0:0:0:
44,322,54482,1,8,0:0:0:0:
25,170,54816,2,0,P|36:103|-10:44,1,130,6|8,3:2|0:0,0:0:0:0:
88,9,55316,2,0,P|140:52|214:41,1,130,2|0,3:2|3:0,0:0:0:0:
287,23,55816,1,8,0:0:0:0:
410,158,56149,6,0,P|405:106|388:19,1,130,10|0,0:0|3:0,0:0:0:0:
488,24,56649,2,0,P|493:76|510:163,1,130,10|0,0:0|3:0,0:0:0:0:
463,240,57149,5,10,0:0:0:0:
410,158,57316,1,0,3:0:0:0:
375,292,57482,1,14,0:0:0:0:
171,213,58316,5,0,3:0:0:0:
171,213,58482,2,0,L|185:279,1,52,10|0,0:0|0:0,0:0:0:0:
99,350,58816,6,0,L|69:210,1,143.000004364014,4|8,3:2|0:0,0:0:0:0:
24,120,59316,2,0,P|59:125|103:103,1,71.5000021820069,2|0,0:0|3:2,0:0:0:0:
81,13,59649,2,0,P|45:7|1:29,1,71.5000021820069,2|8,3:2|0:0,0:0:0:0:
161,53,59982,6,0,P|226:46|318:37,1,143.000004364014,2|0,3:2|3:0,0:0:0:0:
397,3,60482,2,0,P|405:44|415:87,1,71.5000021820069,10|0,0:0|0:0,0:0:0:0:
429,204,60816,5,2,3:2:0:0:
338,117,60982,1,0,3:0:0:0:
309,241,61149,1,10,0:0:0:0:
309,241,61482,6,0,P|250:214|173:250,1,143.000004364014,6|8,3:2|0:0,0:0:0:0:
246,311,61982,2,0,P|305:338|382:302,1,143.000004364014,2|2,0:0|3:2,0:0:0:0:
468,292,62482,1,10,0:2:0:0:
403,220,62649,1,2,0:2:0:0:
438,133,62816,6,0,L|521:126,1,71.5000021820069,2|0,3:2|0:0,0:0:0:0:
494,34,63149,2,0,L|411:41,1,71.5000021820069,10|0,0:0|0:0,0:0:0:0:
341,130,63482,5,2,3:2:0:0:
281,11,63649,1,0,3:0:0:0:
208,123,63816,1,8,0:0:0:0:
208,123,64149,6,0,P|217:177|237:279,1,143.000004364014,6|8,3:2|0:0,0:0:0:0:
280,343,64649,2,0,L|358:331,1,71.5000021820069,0|0,0:0|3:0,0:0:0:0:
187,343,64982,2,0,L|109:355,1,71.5000021820069,2|8,3:2|0:0,0:0:0:0:
1,268,65316,6,0,P|61:282|122:204,1,143.000004364014,2|0,3:2|3:0,0:0:0:0:
44,198,65816,2,0,P|38:159|30:111,1,71.5000021820069,10|0,0:0|0:0,0:0:0:0:
77,25,66149,5,2,3:2:0:0:
120,148,66316,1,0,3:0:0:0:
206,50,66482,1,10,0:0:0:0:
206,50,66816,6,0,L|356:33,1,143.000004364014,6|8,3:2|0:0,0:0:0:0:
448,37,67316,2,0,P|437:97|431:211,1,143.000004364014,2|2,3:2|3:2,0:0:0:0:
485,262,67816,1,10,0:2:0:0:
485,262,67982,1,2,3:2:0:0:
385,268,68149,6,0,L|313:276,1,71.5000021820069,2|0,3:2|0:0,0:0:0:0:
250,350,68482,2,0,L|178:342,1,71.5000021820069,10|0,0:0|0:0,0:0:0:0:
61,331,68816,5,2,3:2:0:0:
134,230,68982,1,0,3:0:0:0:
11,218,69149,1,10,0:0:0:0:
11,218,69482,6,0,P|16:172|31:69,1,143.000004364014,6|8,3:2|0:0,0:0:0:0:
107,13,69982,2,0,P|139:26|188:20,1,71.5000021820069,2|0,0:2|3:0,0:0:0:0:
190,124,70316,2,0,P|222:111|271:117,1,71.5000021820069,2|8,3:2|0:0,0:0:0:0:
375,125,70649,6,0,P|364:195|356:266,1,143.000004364014,2|0,3:2|3:0,0:0:0:0:
457,257,71149,2,0,P|461:221|466:186,1,71.5000021820069,10|0,0:0|0:0,0:0:0:0:
477,52,71482,5,2,3:2:0:0:
375,125,71649,1,0,3:0:0:0:
362,0,71816,1,10,0:0:0:0:
362,0,72149,6,0,P|300:31|220:18,1,143.000004364014,6|8,3:2|0:0,0:0:0:0:
138,75,72649,2,0,P|133:40|129:5,1,71.5000021820069,2|0,0:0|3:0,0:0:0:0:
28,15,72982,2,0,P|33:50|38:86,1,71.5000021820069,2|8,3:2|0:0,0:0:0:0:
10,200,73316,6,0,P|77:189|155:179,1,143.000004364014,6|0,3:2|3:0,0:0:0:0:
228,115,73816,2,0,P|261:120|300:125,1,71.5000021820069,8|0,0:0|0:0,0:0:0:0:
360,209,74149,5,2,3:2:0:0:
428,95,74316,1,0,3:0:0:0:
492,210,74482,1,10,0:0:0:0:
492,210,74816,6,0,P|478:274|461:364,1,143.000004364014,6|8,3:2|0:0,0:0:0:0:
369,360,75316,2,0,P|331:350|287:362,1,71.5000021820069,6|0,3:2|0:0,0:0:0:0:
227,288,75649,2,0,P|189:297|145:285,1,71.5000021820069,0|8,3:0|0:0,0:0:0:0:
41,207,75982,6,0,P|58:276|70:346,1,143.000004364014,4|0,3:2|0:0,0:0:0:0:
157,291,76482,2,0,P|148:256|142:221,1,71.5000021820069,8|0,0:0|0:0,0:0:0:0:
188,120,76816,5,2,3:2:0:0:
261,218,76982,1,0,3:0:0:0:
310,106,77149,1,10,0:0:0:0:
382,204,77316,6,0,P|446:211|509:140,1,143.000004364014,4|0,3:2|0:0,0:0:0:0:
424,130,77816,2,0,P|417:95|405:43,1,71.5000021820069,8|0,0:0|0:0,0:0:0:0:
319,0,78149,1,2,3:2:0:0:
319,0,78316,1,2,3:2:0:0:
222,45,78482,1,10,0:0:0:0:
310,106,78648,1,2,0:0:0:0:
222,167,78816,6,0,L|132:178,1,71.5000021820069,2|2,3:2|0:0,0:0:0:0:
144,269,79149,2,0,L|54:280,1,71.5000021820069,10|0,0:0|3:0,0:0:0:0:
1,191,79482,5,10,0:0:0:0:
90,107,79649,1,0,3:0:0:0:
1,23,79816,1,10,0:0:0:0:
1,23,80149,6,0,L|142:6,1,130,6|0,3:2|0:0,0:0:0:0:
221,6,80649,2,0,P|230:45|231:84,1,65,2|8,3:2|0:0,0:0:0:0:
306,129,80982,2,0,P|297:168|296:207,1,65,2|0,3:2|0:0,0:0:0:0:
255,291,81316,6,0,P|195:270|126:301,2,130,6|8|0,3:2|0:0|3:0,0:0:0:0:
331,351,82149,2,0,P|364:357|395:347,1,65,10|0,0:0|3:0,0:0:0:0:
481,308,82482,1,2,3:2:0:0:
417,231,82649,6,0,P|424:180|442:83,1,130,4|0,3:2|0:0,0:0:0:0:
337,130,83149,2,0,P|331:161|326:194,2,65,8|0|0,0:0|0:0|3:0,0:0:0:0:
362,29,83649,1,0,3:0:0:0:
262,58,83816,2,0,P|225:61|174:64,1,65,8|2,0:0|3:3,0:0:0:0:
95,127,84149,6,0,P|107:63|119:0,2,130,4|8|0,3:2|0:0|3:0,0:0:0:0:
51,249,84982,1,0,3:0:0:0:
178,226,85149,1,14,0:0:0:0:
178,226,85482,6,0,B|231:218|231:218|248:198|248:198|319:185,1,143.000004364014,6|0,3:2|3:0,0:0:0:0:
340,64,85982,2,0,B|287:72|287:72|270:92|270:92|199:105,1,143.000004364014,6|2,3:2|3:3,0:0:0:0:
95,127,86482,5,14,0:0:0:0:
178,226,86649,1,8,0:2:0:0:
