osu file format v14

[General]
AudioFilename: audio.mp3
AudioLeadIn: 0
PreviewTime: 57649
Countdown: 0
SampleSet: Soft
StackLeniency: 0.7
Mode: 0
LetterboxInBreaks: 0
WidescreenStoryboard: 1

[Editor]
Bookmarks: 1483,5482,10816,21482,31982,42649,53482,58816,69482,82649,85482,87316
DistanceSpacing: 0.9
BeatDivisor: 4
GridSize: 4
TimelineZoom: 1

[Metadata]
Title:FUN FUN RE-BOOT
TitleUnicode:FUN FUN RE-BOOT
Artist:QUARTET*RE-BOOT!
ArtistUnicode:QUARTET☆RE-BOOT!
Creator:tomatas95
Version:Easy
Source:天使☆騒々 RE-BOOT!
Tags:eroge galgame yuzusoft visual novel vn video game angelic chaos imouto angelic*chaos famishin angelnote opening op 羽生みいな Miina Hanyu 井ノ原智 Satoshi Inohara 乃愛 Noa 天音 Amane 来海 Kurumi かぐ耶 Kaguya Tenshi☆Souzou RE-BOOT! Tenshi Souzou こぶいち Kobuichi むりりん Muririn ほかん Hokan 羽純りお Hazumi Rio Tanikaze Amane 谷風天音 Shirayuki Noa 白雪乃愛 Hoshikawa Kaguya 星河かぐ耶 Kohibari Kurumi 小雲雀来海 Haruka Sora 遥そら Sendai Eri 仙台エリ Fujita Akane 藤田茜 Kanako 夏和小 Setono Marie 瀬戸乃マリエ Taichi You 大地葉 Toda Megumi 戸田めぐみ Yanagi Hitomi 柳ひとみ reboot japanese gazimal share pop jpop j-pop
BeatmapID:4127951
BeatmapSetID:1985728

[Difficulty]
HPDrainRate:2
CircleSize:2.5
OverallDifficulty:2
ApproachRate:3
SliderMultiplier:0.999999999999999
SliderTickRate:1

[Events]
//Background and Video events
Video,0,"yuzusoftdaisuki.mp4"
0,0,"OrieCute.jpg",0,0
//Break Periods
//Storyboard Layer 0 (Background)
//Storyboard Layer 1 (Fail)
//Storyboard Layer 2 (Pass)
//Storyboard Layer 3 (Foreground)
//Storyboard Layer 4 (Overlay)
//Storyboard Sound Samples

[TimingPoints]
1483,333.333333333333,4,2,1,10,1,0
1483,-111.111111111111,4,2,1,10,0,0
2149,-111.111111111111,4,2,1,20,0,0
2816,-111.111111111111,4,2,1,30,0,0
3482,-111.111111111111,4,2,1,40,0,0
3649,-111.111111111111,4,2,1,45,0,0
4149,-111.111111111111,4,2,1,50,0,0
4982,-111.111111111111,4,2,3,40,0,0
5399,-111.111111111111,4,2,3,5,0,0
5482,-100,4,2,4,70,0,0
5649,-100,4,2,3,70,0,0
5982,-100,4,2,8,70,0,0
6149,-100,4,2,3,70,0,0
7316,-100,4,2,8,70,0,0
7649,-100,4,2,3,70,0,0
7982,-100,4,2,4,70,0,0
8482,-100,4,2,3,70,0,0
8649,-100,4,2,1,75,0,0
9482,-100,4,2,3,5,0,0
9816,-100,4,2,3,30,0,0
10316,-100,4,2,3,40,0,0
10482,-100,4,2,3,50,0,0
10732,-100,4,2,3,5,0,0
10816,-100,4,2,4,75,0,0
11149,-100,4,2,3,70,0,0
11982,-100,4,2,3,75,0,0
12149,-100,4,2,3,70,0,0
13316,-100,4,2,1,75,0,0
13482,-100,4,2,3,70,0,0
15982,-100,4,2,3,75,0,0
16149,-100,4,2,3,70,0,0
17316,-100,4,2,1,75,0,0
17482,-100,4,2,3,70,0,0
17982,-100,4,2,3,75,0,0
18149,-100,4,2,3,70,0,0
18816,-100,4,2,4,75,0,0
18982,-100,4,2,3,70,0,0
19816,-100,4,2,3,65,0,0
19982,-100,4,2,3,70,0,0
20316,-100,4,2,8,75,0,0
20816,-100,4,2,3,5,0,0
21482,-100,4,2,3,60,0,0
23982,-100,4,2,3,65,0,0
24149,-100,4,2,3,60,0,0
25316,-100,4,2,8,65,0,0
25649,-100,4,2,3,60,0,0
25982,-100,4,2,8,65,0,0
26315,-100,4,2,3,60,0,0
26649,-100,4,2,3,65,0,0
27149,-100,4,2,3,60,0,0
29316,-100,4,2,3,65,0,0
29482,-100,4,2,3,60,0,0
30649,-100,4,2,8,65,0,0
30815,-100,4,2,3,60,0,0
31316,-100,4,2,8,65,0,0
31482,-100,4,2,3,60,0,0
31816,-100,4,2,8,65,0,0
31982,-100,4,2,3,65,0,0
33316,-100,4,2,3,70,0,0
33482,-100,4,2,3,65,0,0
34649,-100,4,2,3,70,0,0
34815,-100,4,2,3,65,0,0
35982,-100,4,2,8,70,0,0
36148,-100,4,2,3,65,0,0
36649,-100,4,2,8,70,0,0
36815,-100,4,2,3,65,0,0
36982,-100,4,2,3,55,0,0
37316,-100,4,2,3,70,0,0
37649,-100,4,2,3,65,0,0
38649,-100,4,2,8,70,0,0
38982,-100,4,2,3,60,0,0
39482,-100,4,2,3,65,0,0
39982,-100,4,2,3,70,0,0
40316,-100,4,2,1,65,0,0
41816,-100,4,2,3,65,0,0
42649,-100,4,2,3,65,0,0
42982,-100,4,2,3,60,0,0
43982,-100,4,2,3,65,0,0
44149,-100,4,2,3,60,0,0
45316,-100,4,2,3,65,0,0
45483,-100,4,2,3,60,0,0
46649,-100,4,2,3,65,0,0
46816,-100,4,2,3,60,0,0
47982,-100,4,2,3,65,0,0
48316,-100,4,2,3,60,0,0
49316,-100,4,2,3,65,0,0
49483,-100,4,2,3,60,0,0
50816,-100,4,2,3,70,0,0
53482,-100,4,2,4,75,0,0
53816,-100,4,2,3,70,0,0
54816,-100,4,2,4,75,0,0
55150,-100,4,2,3,70,0,0
56149,-100,4,2,4,75,0,0
56316,-100,4,2,4,70,0,0
56649,-100,4,2,4,75,0,0
56816,-100,4,2,4,70,0,0
57149,-100,4,2,4,75,0,0
57816,-100,4,2,1,30,0,0
58316,-100,4,2,1,45,0,0
58482,-100,4,2,1,50,0,0
58732,-100,4,2,1,5,0,0
58816,-100,4,2,4,80,0,1
59149,-100,4,2,3,80,0,1
61399,-100,4,2,1,80,0,1
61482,-100,4,2,3,80,0,1
62316,-100,4,2,1,80,0,1
62816,-100,4,2,3,80,0,1
64066,-100,4,2,1,80,0,1
64149,-100,4,2,3,80,0,1
66733,-100,4,2,1,80,0,1
66816,-100,4,2,4,80,0,1
67149,-100,4,2,3,80,0,1
67649,-100,4,2,1,80,0,1
68149,-100,4,2,3,80,0,1
69149,-100,4,2,3,80,0,0
69482,-100,4,2,4,80,0,1
69816,-100,4,2,3,80,0,1
72066,-100,4,2,1,80,0,1
72149,-100,4,2,4,80,0,1
72482,-100,4,2,3,80,0,1
74733,-100,4,2,1,80,0,1
74816,-100,4,2,3,80,0,1
75149,-100,4,2,3,75,0,1
75316,-100,4,2,3,80,0,1
75649,-100,4,2,3,75,0,1
75982,-100,4,2,4,80,0,1
76482,-100,4,2,3,80,0,1
78149,-100,4,2,1,70,0,1
78482,-100,4,2,1,75,0,1
78816,-100,4,2,1,80,0,1
79482,-100,4,2,1,85,0,1
80066,-100,4,2,1,5,0,1
80149,-100,4,2,4,70,0,0
80482,-100,4,2,3,70,0,0
81316,-100,4,2,3,75,0,0
81649,-100,4,2,3,70,0,0
82649,-100,4,2,4,75,0,0
82982,-100,4,2,3,75,0,0
84066,-100,4,2,1,75,0,0
84149,-100,4,2,3,75,0,0
85149,-100,4,2,8,75,0,0
85232,-100,4,2,1,75,0,0
85482,-100,4,2,7,80,0,0
85649,-100,4,2,4,80,0,0
85982,-100,4,2,7,80,0,0
86149,-100,4,2,4,80,0,0
86316,-100,4,2,1,80,0,0
86482,-100,4,2,7,80,0,0
86649,-100,4,2,4,80,0,0
87316,-100,4,2,4,80,0,0

[Colours]
Combo1 : 253,179,166
Combo2 : 235,250,188
Combo3 : 251,191,251
Combo4 : 141,238,243

[HitObjects]
256,192,1483,12,0,4149,0:0:0:0:
401,71,5482,6,0,B|338:62|338:62|321:44|321:44|251:36,2,150,4|6|2,3:2|3:2|0:0,0:0:0:0:
480,112,6816,2,0,P|471:166|462:277,1,150,4|6,3:2|3:2,0:0:0:0:
472,350,7649,1,8,0:0:0:0:
383,336,7982,6,0,B|340:296|284:326|284:326|242:379|198:353,1,200,6|10,3:2|3:2,0:0:0:0:
202,266,8982,1,10,3:2:0:0:
259,196,9316,1,10,3:2:0:0:
9,65,10816,6,0,B|47:81|78:52|78:52|110:23|150:39,1,150,4|0,3:2|0:0,0:0:0:0:
230,77,11649,1,2,3:2:0:0:
304,131,11982,2,0,P|320:84|275:-1,2,150,6|8|2,3:2|0:0|3:2,0:0:0:0:
223,171,13316,6,0,P|255:208|352:208,2,150,4|8|2,3:2|0:0|3:2,0:0:0:0:
228,80,14649,2,0,P|179:89|128:171,1,150,2|8,3:2|0:0,0:0:0:0:
165,252,15482,1,0,3:0:0:0:
246,359,15982,6,0,P|319:348|401:337,1,150,4|8,3:2|0:0,0:0:0:0:
484,344,16816,1,2,3:2:0:0:
488,209,17316,2,0,P|482:166|507:109,1,99.9999999999999,4|0,3:2|0:0,0:0:0:0:
425,67,17982,2,0,P|377:125|292:115,1,150,4|8,3:2|0:0,0:0:0:0:
340,40,18816,6,0,P|275:33|179:24,1,150,4|2,3:2|3:2,0:0:0:0:
102,6,19649,1,2,3:2:0:0:
33,63,19982,1,4,3:2:0:0:
50,151,20316,2,0,B|41:195|41:195|43:212|43:212|33:263,1,99.9999999999999,8|12,0:0|3:2,0:0:0:0:
235,352,21482,6,0,P|229:304|219:236,1,99.9999999999999,2|8,3:2|0:0,0:0:0:0:
307,222,22149,2,0,P|317:296|327:370,2,150,0|2|10,3:0|3:2|0:0,0:0:0:0:
234,168,23482,1,2,3:2:0:0:
315,60,23982,6,0,B|353:76|384:47|384:47|416:18|456:34,1,150,2|10,3:2|0:0,0:0:0:0:
441,122,24816,1,2,3:2:0:0:
507,239,25316,2,0,P|496:290|517:345,1,99.9999999999999,6|0,3:2|0:0,0:0:0:0:
423,359,25982,2,0,P|384:323|326:314,1,99.9999999999999,6|0,3:2|0:0,0:0:0:0:
251,336,26649,6,0,P|204:358|117:316,2,150,4|10|0,3:2|0:0|3:0,0:0:0:0:
192,267,27982,2,0,P|201:201|220:97,1,150,2|10,3:2|0:0,0:0:0:0:
204,29,28816,1,2,3:2:0:0:
69,16,29316,6,0,P|59:81|41:186,1,150,2|8,3:2|0:0,0:0:0:0:
3,243,30149,1,2,3:2:0:0:
85,349,30649,2,0,P|129:338|190:357,1,99.9999999999999,6|0,3:2|0:0,0:0:0:0:
256,301,31316,2,0,P|300:312|361:293,1,99.9999999999999,6|0,3:2|0:0,0:0:0:0:
404,225,31982,6,0,P|442:298|414:371,2,150,6|8|0,3:2|0:0|3:0,0:0:0:0:
364,143,33316,2,0,P|446:146|495:207,2,150,2|10|0,3:2|0:0|3:0,0:0:0:0:
311,215,34649,6,0,P|237:227|162:238,1,150,2|10,3:2|0:0,0:0:0:0:
87,287,35482,1,2,3:2:0:0:
33,163,35982,2,0,P|30:127|15:54,1,99.9999999999999,4|0,3:2|0:0,0:0:0:0:
96,20,36649,2,0,P|128:35|199:58,1,99.9999999999999,4|2,3:2|0:0,0:0:0:0:
190,146,37316,6,0,L|355:125,1,150,6|8,3:2|0:0,0:0:0:0:
381,48,38149,1,2,3:2:0:0:
493,122,38649,2,0,P|484:163|472:288,1,150,4|8,3:2|0:0,0:0:0:0:
444,358,39482,1,2,3:2:0:0:
309,362,39982,6,0,L|154:338,1,150,6|10,3:2|0:0,0:0:0:0:
176,250,40816,2,0,L|324:272,2,150,2|2|10,3:2|3:2|0:0,0:0:0:0:
90,277,42149,1,2,3:2:0:0:
20,161,42649,6,0,B|-64:93|-21:-7|51:-28|102:9|112:67|81:87,1,300,6|2,3:2|0:0,0:0:0:0:
115,167,43982,2,0,L|263:144,1,150,2|2,3:2|0:0,0:0:0:0:
295,59,44816,1,10,0:0:0:0:
426,30,45316,6,0,B|460:74|433:126|433:126|406:179|441:227,1,200,2|2,3:2|3:2,0:0:0:0:
474,300,46316,1,2,0:0:0:0:
395,343,46649,2,0,P|326:366|257:322,1,150,2|2,3:2|0:0,0:0:0:0:
334,275,47482,1,10,0:0:0:0:
250,168,47982,6,0,B|285:142|295:87|288:29|221:6|221:6|169:42|178:90,1,300,4|2,3:2|0:0,0:0:0:0:
158,178,49316,2,0,B|120:194|89:165|89:165|57:136|17:152,1,150,2|2,3:2|0:0,0:0:0:0:
41,238,50149,1,10,0:0:0:0:
1,318,50482,1,8,0:0:0:0:
82,356,50816,6,0,L|249:331,1,150,6|2,3:2|0:0,0:0:0:0:
288,265,51649,1,0,3:0:0:0:
224,201,51982,2,0,P|217:146|195:37,1,150,2|10,3:2|0:0,0:0:0:0:
276,7,52816,1,2,3:2:0:0:
340,69,53149,1,10,0:0:0:0:
396,139,53482,6,0,P|422:100|401:-2,2,150,6|2|8,3:2|3:2|0:0,0:0:0:0:
367,223,54816,2,0,P|413:226|492:157,2,150,6|2|8,3:2|3:2|0:0,0:0:0:0:
278,240,56149,6,0,P|297:281|397:315,2,150,10|10|10,0:0|0:0|0:0,0:0:0:0:
299,152,57482,1,14,0:0:0:0:
16,26,58816,6,0,P|29:87|45:184,1,150,4|2,3:2|0:0,0:0:0:0:
43,263,59649,1,2,3:2:0:0:
25,351,59982,2,0,B|63:367|94:338|94:338|126:309|166:325,1,150,2|10,3:2|0:0,0:0:0:0:
248,355,60816,1,2,3:2:0:0:
317,296,61149,1,10,0:0:0:0:
301,207,61482,6,0,P|283:157|336:68,2,150,6|2|10,3:2|0:0|0:2,0:0:0:0:
374,154,62816,1,2,3:2:0:0:
403,239,63149,2,0,L|386:345,2,99.9999999999999,10|2|8,0:0|3:2|0:0,0:0:0:0:
487,208,64149,6,0,L|512:49,1,150,6|0,3:2|0:0,0:0:0:0:
440,3,64982,1,2,3:2:0:0:
376,67,65316,2,0,P|320:59|213:44,1,150,2|10,3:2|0:0,0:0:0:0:
144,10,66149,1,2,3:2:0:0:
71,63,66482,1,10,0:0:0:0:
81,153,66816,6,0,P|91:209|109:311,2,150,6|2|10,3:2|3:2|0:2,0:0:0:0:
154,100,68149,1,2,3:2:0:0:
210,170,68482,2,0,P|249:163|320:150,1,99.9999999999999,10|2,0:0|3:2,0:0:0:0:
383,102,69149,1,10,0:0:0:0:
458,151,69482,6,0,B|450:202|450:202|457:231|457:231|441:302,1,150,6|2,3:2|0:2,0:0:0:0:
390,372,70316,1,2,3:2:0:0:
319,316,70649,2,0,L|167:334,1,150,2|10,3:2|0:0,0:0:0:0:
84,360,71482,1,2,3:2:0:0:
17,299,71816,1,10,0:0:0:0:
35,211,72149,6,0,P|38:136|5:70,1,150,6|2,3:2|0:0,0:0:0:0:
77,17,72982,1,2,3:2:0:0:
154,62,73316,2,0,P|139:134|161:205,1,150,6|8,3:2|0:0,0:0:0:0:
246,174,74149,2,0,P|232:125|250:73,1,99.9999999999999,2|10,3:2|0:0,0:0:0:0:
321,127,74816,6,0,L|473:113,1,150,6|6,3:2|3:2,0:0:0:0:
510,193,75649,1,0,3:0:0:0:
489,280,75982,2,0,L|337:294,1,150,4|8,3:2|0:0,0:0:0:0:
270,349,76816,1,2,3:2:0:0:
224,221,77316,6,0,B|189:158|250:102|250:102|281:51|244:-25|147:-4|141:61,1,350,4|10,3:2|0:0,0:0:0:0:
122,149,78816,2,0,B|75:131|75:131|28:154,1,99.9999999999999,2|10,3:2|0:0,0:0:0:0:
77,229,79482,1,10,0:0:0:0:
25,302,79816,1,10,0:0:0:0:
103,345,80149,6,0,B|141:361|172:332|172:332|204:303|244:319,1,150,6|2,3:2|3:2,0:0:0:0:
314,370,80982,1,2,3:2:0:0:
391,323,81316,2,0,P|398:253|420:164,1,150,6|0,3:2|0:0,0:0:0:0:
448,91,82149,1,10,0:0:0:0:
321,45,82649,6,0,B|244:-50|126:0|101:85|145:145|213:156|227:131,1,350,4|8,3:2|0:0,0:0:0:0:
317,133,84149,2,0,B|346:178|315:225|315:225|285:274|315:322,1,200,4|0,3:2|3:0,0:0:0:0:
233,360,85149,1,14,0:0:0:0:
155,313,85482,6,0,L|-6:333,1,150,6|6,3:2|3:2,0:0:0:0:
65,210,86482,2,0,L|114:203,1,50,14|8,0:0|0:2,0:0:0:0:
