osu file format v14

[General]
AudioFilename: audio.mp3
AudioLeadIn: 0
PreviewTime: 57732
Countdown: 0
SampleSet: Soft
StackLeniency: 0.4
Mode: 0
LetterboxInBreaks: 0
WidescreenStoryboard: 1

[Editor]
DistanceSpacing: 1.3
BeatDivisor: 4
GridSize: 32
TimelineZoom: 1.8

[Metadata]
Title:FUN FUN RE-BOOT
TitleUnicode:FUN FUN RE-BOOT
Artist:QUARTET*RE-BOOT!
ArtistUnicode:QUARTET☆RE-BOOT!
Creator:Natsume Shizuku
Version:nano's Hard!
Source:天使☆騒々 RE-BOOT!
Tags:KennethBBG nantokanaru eringiRa 白雪乃愛 谷風天音 小雲雀来海 星河かぐ耶 shirayuki noa tanikaze amane kohibari kurumi hoshikawa kaguya visual novel vn eroge yuzusoft op opening video game vgm pop angelic chaos angelic*chaos 天使*囂囂 天使*嚣嚣 female vocal jpop j-pop japanese tenshi souzou reboot
BeatmapID:4082226
BeatmapSetID:1961925

[Difficulty]
HPDrainRate:4
CircleSize:3.8
OverallDifficulty:6
ApproachRate:8
SliderMultiplier:1.5
SliderTickRate:1

[Events]
//Background and Video events
0,0,"amane.png",0,0
//Break Periods
//Storyboard Layer 0 (Background)
//Storyboard Layer 1 (Fail)
//Storyboard Layer 2 (Pass)
//Storyboard Layer 3 (Foreground)
//Storyboard Layer 4 (Overlay)
//Storyboard Sound Samples

[TimingPoints]
2816,333.333333333333,4,2,1,70,1,0
5149,-133.333333333333,4,2,1,70,0,0
5483,-100,4,2,1,70,0,0
10482,-133.333333333333,4,2,1,70,0,0
10815,-133.333333333333,4,2,1,90,0,0
10816,-100,4,2,1,90,0,0
21482,-133.333333333333,4,2,1,50,0,0
23982,-114.942528735632,4,2,1,50,0,0
24482,-133.333333333333,4,2,1,50,0,0
25316,-114.942528735632,4,2,1,50,0,0
27149,-133.333333333333,4,2,1,50,0,0
29316,-114.942528735632,4,2,1,50,0,0
29816,-133.333333333333,4,2,1,50,0,0
30649,-114.942528735632,4,2,1,50,0,0
31982,-114.942528735632,4,2,1,60,0,0
42649,-125,4,2,1,55,0,0
50815,-125,4,2,1,65,0,0
50816,-114.942528735632,4,2,1,65,0,0
53482,-114.942528735632,4,2,1,70,0,0
56149,-114.942528735632,4,2,1,80,0,0
58815,-100,4,2,1,90,0,1
62315,-100,4,2,2,90,0,1
62815,-100,4,2,1,90,0,1
67649,-100,4,2,2,90,0,1
68232,-100,4,2,1,90,0,1
77316,-100,4,2,1,90,0,1
80149,-111.111111111111,4,2,1,90,0,0
82649,-100,4,2,1,90,0,1
86649,-117.647058823529,4,2,1,90,0,0
87149,-117.647058823529,4,2,1,5,0,0

[Colours]
Combo1 : 222,163,248
Combo2 : 253,179,235

[HitObjects]
7,80,4982,5,0,3:2:0:0:
80,31,5149,2,0,P|124:44|175:54,1,84.3750032186509,10|0,0:2|0:0,0:0:0:0:
194,36,5483,6,0,P|216:76|213:106,1,75,2|2,3:2|0:2,0:0:0:0:
141,169,5816,1,10,0:2:0:0:
227,212,5982,2,0,P|286:200|388:191,1,150,6|10,3:2|2:2,0:0:0:0:
441,119,6482,2,0,P|463:157|461:212,1,75,2|2,0:2|3:2,0:0:0:0:
410,268,6816,1,6,0:2:0:0:
493,326,6982,1,2,0:2:0:0:
493,326,7149,1,10,2:2:0:0:
401,361,7316,6,0,P|359:338|228:328,1,150,6|10,3:2|0:2,0:0:0:0:
174,371,7816,1,10,0:2:0:0:
88,324,7982,6,0,B|84:256|148:265|142:188,1,150,6|0,3:2|0:0,0:0:0:0:
95,103,8482,1,0,3:2:0:0:
160,30,8649,6,0,L|204:37,1,37.5,8|0,2:2|0:0,0:0:0:0:
327,101,8982,2,0,L|364:95,1,37.5,8|0,2:2|0:0,0:0:0:0:
492,23,9316,5,8,2:2:0:0:
492,23,10316,5,0,3:2:0:0:
492,23,10399,1,0,3:2:0:0:
492,23,10482,2,0,P|518:64|503:111,1,84.3750032186509,4|0,3:2|0:0,0:0:0:0:
471,125,10816,6,0,P|448:150|451:201,1,75,10|2,0:2|0:2,0:0:0:0:
512,267,11149,1,0,3:2:0:0:
512,267,11316,1,2,0:2:0:0:
427,314,11482,2,0,L|337:297,1,75,0|0,3:2|0:0,0:0:0:0:
282,368,11816,1,8,2:2:0:0:
217,295,11982,6,0,P|154:264|76:294,1,150,6|2,3:2|0:2,0:0:0:0:
25,367,12482,1,2,3:2:0:0:
25,367,12649,1,2,0:2:0:0:
3,271,12816,2,0,P|14:212|18:167,1,75,0|0,3:2|3:2,0:0:0:0:
29,100,13149,1,8,0:2:0:0:
120,133,13316,6,0,P|193:126|258:67,1,150,6|2,3:2|0:2,0:0:0:0:
327,17,13816,1,10,0:2:0:0:
327,17,13982,1,0,0:0:0:0:
385,95,14149,2,0,P|379:130|372:177,1,75,0|0,3:2|3:2,0:0:0:0:
297,230,14482,1,10,2:2:0:0:
363,301,14649,6,0,P|438:255|502:265,1,150,0|0,3:2|0:0,0:0:0:0:
506,165,15149,2,0,P|492:130|448:117,1,75,10|0,0:2|0:0,0:0:0:0:
367,82,15482,2,0,P|329:79|298:114,1,75,2|0,3:2|3:2,0:0:0:0:
238,178,15816,1,10,2:2:0:0:
181,98,15982,6,0,P|129:116|27:146,1,150,6|0,3:2|0:0,0:0:0:0:
4,233,16482,2,0,P|1:275|31:314,1,75,8|0,0:2|0:0,0:0:0:0:
99,355,16816,1,2,3:2:0:0:
177,297,16982,2,0,P|230:309|257:319,1,75,0|8,3:2|2:2,0:0:0:0:
332,368,17316,6,0,P|383:322|381:228,1,150,4|0,3:2|0:0,0:0:0:0:
308,187,17816,1,8,0:2:0:0:
213,210,17982,6,0,P|169:183|172:85,1,150,4|2,3:2|3:2,0:0:0:0:
240,28,18482,1,10,0:2:0:0:
240,28,18649,1,2,0:2:0:0:
328,69,18816,2,0,P|375:78|406:88,1,75,4|0,3:2|0:0,0:0:0:0:
495,110,19149,1,8,0:2:0:0:
432,184,19316,5,0,3:2:0:0:
508,363,19649,1,0,3:2:0:0:
320,310,19982,6,0,P|281:297|238:293,1,75,6|0,3:2|0:0,0:0:0:0:
157,330,20316,1,10,0:2:0:0:
157,330,20483,1,10,0:2:0:0:
82,267,20649,1,6,3:2:0:0:
82,267,21482,6,0,P|158:243|191:231,1,112.500004291535,2|10,3:2|0:2,0:0:0:0:
254,178,21982,1,0,0:0:0:0:
254,178,22149,2,0,P|298:190|321:195,1,56.2500021457673,2|2,3:2|3:2,0:0:0:0:
379,238,22482,1,8,0:2:0:0:
342,314,22649,2,0,P|278:329|252:371,1,112.500004291535,2|0,3:2|0:0,0:0:0:0:
175,333,23149,2,0,P|136:345|112:353,1,56.2500021457673,10|0,0:2|0:0,0:0:0:0:
43,317,23482,1,2,3:2:0:0:
99,253,23649,1,2,3:2:0:0:
99,253,23982,6,0,P|115:220|84:126,1,130.5000010952,2|0,3:2|0:0,0:0:0:0:
33,72,24482,2,0,P|49:29|52:0,1,56.2500021457673,10|0,0:2|0:0,0:0:0:0:
134,5,24816,1,2,3:2:0:0:
199,57,24982,1,2,3:2:0:0:
199,57,25316,6,0,P|244:52|335:35,1,130.5000010952,6|0,3:2|0:0,0:0:0:0:
407,93,25816,1,8,0:2:0:0:
472,23,25982,6,0,P|497:44|504:146,1,130.5000010952,4|0,3:2|0:0,0:0:0:0:
457,203,26482,1,8,0:2:0:0:
499,276,26649,6,0,P|433:295|354:323,1,130.5000010952,6|0,3:2|0:0,0:0:0:0:
305,364,27149,2,0,P|248:356|237:356,1,56.2500021457673,10|0,0:2|0:0,0:0:0:0:
188,304,27482,1,2,3:2:0:0:
188,304,27649,2,0,P|159:306|132:311,1,56.2500021457673,2|8,3:2|0:2,0:0:0:0:
68,367,27982,2,0,P|29:334|29:269,1,112.500004291535,2|0,3:2|0:0,0:0:0:0:
77,208,28482,2,0,P|118:198|141:188,1,56.2500021457673,10|0,0:2|0:0,0:0:0:0:
214,225,28816,1,2,3:2:0:0:
267,160,28982,1,2,3:2:0:0:
267,160,29316,6,0,P|304:177|320:265,1,130.5000010952,2|0,3:2|0:0,0:0:0:0:
281,331,29816,2,0,P|315:341|341:341,1,56.2500021457673,10|0,0:2|0:0,0:0:0:0:
413,374,30149,1,2,3:2:0:0:
485,330,30316,2,0,P|469:298|467:265,1,56.2500021457673,2|8,3:2|0:2,0:0:0:0:
437,195,30649,6,0,P|454:153|464:65,1,130.5000010952,6|0,3:2|0:0,0:0:0:0:
388,5,31149,1,8,0:2:0:0:
313,68,31316,6,0,P|264:77|167:96,1,130.5000010952,4|0,3:2|0:0,0:0:0:0:
114,23,31816,1,8,0:2:0:0:
51,97,31982,6,0,B|46:135|68:160|82:148|104:173|100:219,1,130.5000010952,6|2,3:2|0:2,0:0:0:0:
50,287,32482,2,0,P|63:331|66:357,1,65.2500005475998,10|2,0:2|0:2,0:0:0:0:
159,374,32816,1,2,3:2:0:0:
159,374,32982,2,0,P|164:330|176:304,1,65.2500005475998,2|8,0:2|0:2,0:0:0:0:
226,236,33316,2,0,P|273:229|328:296,1,130.5000010952,2|0,3:2|0:0,0:0:0:0:
386,360,33816,1,10,2:2:0:0:
386,360,34149,6,0,P|440:346|456:344,1,65.2500005475998,2|2,3:2|3:2,0:0:0:0:
508,275,34482,1,8,2:2:0:0:
433,222,34649,2,0,P|398:180|410:97,1,130.5000010952,2|0,3:2|0:0,0:0:0:0:
341,40,35149,2,0,P|285:24|260:21,1,65.2500005475998,10|0,2:2|0:0,0:0:0:0:
193,4,35482,1,2,3:2:0:0:
193,4,35649,2,0,P|161:10|130:21,1,65.2500005475998,2|8,2:2|2:2,0:0:0:0:
38,26,35982,6,0,P|78:33|104:111,1,130.5000010952,6|0,3:2|0:0,0:0:0:0:
51,183,36482,1,8,2:2:0:0:
129,241,36649,6,0,P|189:227|280:207,1,130.5000010952,4|2,3:2|2:2,0:0:0:0:
316,143,37149,1,10,2:2:0:0:
386,201,37316,6,0,B|422:254|422:254|408:322,1,130.5000010952,6|0,3:2|0:0,0:0:0:0:
328,362,37816,2,0,P|286:347|259:346,1,65.2500005475998,10|0,2:2|0:0,0:0:0:0:
177,369,38149,1,2,3:2:0:0:
177,369,38316,1,2,2:2:0:0:
109,308,38482,1,10,2:2:0:0:
32,357,38649,6,0,P|11:304|26:233,1,130.5000010952,6|2,3:2|2:2,0:0:0:0:
102,184,39149,2,0,P|145:191|168:206,1,65.2500005475998,10|2,2:2|2:2,0:0:0:0:
240,260,39482,1,2,3:2:0:0:
240,260,39649,1,2,3:2:0:0:
324,225,39816,1,10,2:2:0:0:
264,155,39982,6,0,P|277:91|303:31,1,130.5000010952,6|0,3:2|0:0,0:0:0:0:
394,20,40482,2,0,P|425:29|453:44,1,65.2500005475998,8|0,2:2|0:0,0:0:0:0:
507,119,40816,1,0,3:2:0:0:
507,119,40982,2,0,P|487:158|485:193,1,65.2500005475998,0|8,3:2|2:2,0:0:0:0:
493,269,41316,6,0,P|444:242|358:238,1,130.5000010952,0|0,3:2|0:0,0:0:0:0:
306,300,41816,2,0,P|252:314|225:315,1,65.2500005475998,10|0,2:2|0:0,0:0:0:0:
174,253,42149,2,0,P|120:239|93:238,1,65.2500005475998,2|0,3:2|3:2,0:0:0:0:
43,300,42482,1,10,2:2:0:0:
10,214,42649,6,0,P|27:170|33:88,1,120,6|2,3:2|2:2,0:0:0:0:
89,27,43149,2,0,P|120:16|151:17,1,60,2|2,2:2|3:2,0:0:0:0:
208,89,43482,1,10,2:2:0:0:
208,89,43649,2,0,P|261:95|295:104,1,60,2|0,2:2|0:0,0:0:0:0:
336,38,43982,6,0,P|372:83|433:94,1,120,2|10,3:2|2:2,0:0:0:0:
502,149,44482,2,0,P|506:181|505:218,1,60,2|2,2:2|3:2,0:0:0:0:
443,273,44815,1,10,2:2:0:0:
290,369,45149,1,2,2:2:0:0:
223,307,45316,6,0,P|170:296|106:325,1,120,2|8,3:2|2:2,0:0:0:0:
39,373,45816,1,2,2:2:0:0:
39,373,45982,2,0,P|64:340|44:246,1,120,2|2,3:2|2:2,0:0:0:0:
24,186,46482,1,2,2:2:0:0:
24,186,46649,2,0,P|40:123|53:58,1,120,2|8,3:2|2:2,0:0:0:0:
139,49,47149,6,0,P|174:40|200:31,1,60,2|0,2:2|3:2,0:0:0:0:
271,82,47482,2,0,P|299:91|328:98,1,60,10|0,2:2|3:2,0:0:0:0:
402,46,47816,1,10,2:2:0:0:
476,96,47982,6,0,P|496:133|467:216,1,120,6|2,3:2|3:2,0:0:0:0:
401,253,48482,2,0,P|356:244|325:243,1,60,2|2,2:2|3:2,0:0:0:0:
264,196,48816,1,10,2:2:0:0:
264,196,48982,2,0,P|215:204|182:212,1,60,2|0,2:2|0:0,0:0:0:0:
118,177,49316,6,0,P|93:237|109:286,1,120,2|8,3:2|2:2,0:0:0:0:
178,344,49816,2,0,P|219:344|254:358,1,60,2|0,2:2|0:0,0:0:0:0:
323,375,50149,2,0,P|362:367|392:358,1,60,10|0,2:2|3:2,0:0:0:0:
438,291,50482,1,10,2:2:0:0:
438,291,50816,6,0,P|430:238|409:158,1,130.5000010952,6|10,3:2|2:2,0:0:0:0:
456,76,51316,2,0,P|418:109|328:119,1,130.5000010952,2|2,2:2|3:2,0:0:0:0:
268,55,51816,1,10,2:2:0:0:
268,55,51982,2,0,P|201:42|125:34,1,130.5000010952,2|0,3:2|3:2,0:0:0:0:
140,133,52482,6,0,P|152:168|158:205,1,65.2500005475998,10|0,2:2|0:0,0:0:0:0:
87,264,52816,2,0,P|50:257|14:243,1,65.2500005475998,2|2,3:2|3:2,0:0:0:0:
0,153,53149,2,0,P|23:124|53:100,1,65.2500005475998,10|0,2:2|0:0,0:0:0:0:
140,133,53482,6,0,P|174:144|284:174,1,130.5000010952,6|10,3:2|2:2,0:0:0:0:
334,239,53982,2,0,P|301:275|311:360,1,130.5000010952,0|0,3:2|3:2,0:0:0:0:
402,368,54482,1,8,2:2:0:0:
402,368,54816,6,0,P|435:332|425:247,1,130.5000010952,6|8,3:2|2:2,0:0:0:0:
496,182,55316,2,0,P|437:165|360:121,1,130.5000010952,2|0,3:2|3:2,0:0:0:0:
317,53,55816,1,8,2:2:0:0:
317,53,56149,6,0,P|229:75|169:93,1,130.5000010952,10|0,2:2|3:2,0:0:0:0:
96,111,56649,2,0,P|151:113|190:186,1,130.5000010952,10|0,2:2|3:2,0:0:0:0:
137,254,57149,6,0,P|155:288|165:324,1,65.2500005475998,10|0,2:2|3:2,0:0:0:0:
249,359,57482,2,0,L|394:345,1,130.5000010952,6|0,3:2|0:0,0:0:0:0:
378,346,58315,5,0,3:2:0:0:
453,283,58482,2,0,P|481:239|469:183,1,97.8750008213997,10|0,2:2|0:0,0:0:0:0:
449,145,58815,6,0,P|423:178|308:180,1,150,6|10,3:2|2:2,0:0:0:0:
270,105,59315,1,2,2:2:0:0:
188,159,59482,2,0,P|146:137|93:119,1,75,0|2,3:2|3:2,0:0:0:0:
78,47,59815,1,10,2:2:0:0:
21,126,59982,6,0,P|33:157|56:284,1,150,2|0,3:2|3:2,0:0:0:0:
145,308,60482,2,0,P|195:311|230:328,1,75,10|0,2:2|0:0,0:0:0:0:
305,372,60815,1,2,3:2:0:0:
305,372,60982,1,0,3:2:0:0:
387,319,61149,2,0,P|376:277|374:234,1,75,10|0,2:2|0:0,0:0:0:0:
329,158,61482,6,0,P|354:199|463:225,1,150,6|10,3:2|2:2,0:0:0:0:
508,152,61982,1,2,2:2:0:0:
464,64,62149,2,0,P|420:70|373:69,1,75,0|2,3:2|3:2,0:0:0:0:
312,10,62482,1,10,2:2:0:0:
251,87,62649,1,2,0:0:0:0:
174,27,62815,6,0,P|113:21|4:1,1,150,0|10,3:2|2:2,0:0:0:0:
10,102,63315,1,0,0:0:0:0:
10,102,63482,2,0,P|25:150|31:187,1,75,2|0,3:2|3:2,0:0:0:0:
140,178,63815,2,0,P|128:214|121:251,1,75,10|0,2:2|0:0,0:0:0:0:
32,293,64149,6,0,P|80:283|168:338,1,150,6|10,3:2|2:2,0:0:0:0:
256,367,64649,1,2,2:2:0:0:
327,301,64815,2,0,P|314:254|308:217,1,75,0|2,3:2|3:2,0:0:0:0:
370,151,65149,1,8,2:2:0:0:
445,211,65315,6,0,P|505:195|520:111,1,150,2|0,3:2|3:2,0:0:0:0:
463,39,65815,2,0,P|416:25|381:27,1,75,10|0,2:2|0:0,0:0:0:0:
313,86,66149,1,2,3:2:0:0:
313,86,66315,1,0,3:2:0:0:
233,29,66482,2,0,P|213:70|224:103,1,75,10|0,2:2|0:0,0:0:0:0:
249,189,66815,6,0,B|176:201|187:158|103:172,1,150,6|10,3:2|2:2,0:0:0:0:
14,131,67315,1,2,2:2:0:0:
0,227,67482,2,0,P|17:270|22:303,1,75,0|2,3:2|3:2,0:0:0:0:
79,376,67815,1,10,2:2:0:0:
146,305,67982,1,2,0:0:0:0:
223,364,68149,6,0,P|277:352|375:345,1,150,2|10,3:2|2:2,0:0:0:0:
456,295,68649,1,0,0:0:0:0:
456,295,68815,2,0,P|473:248|468:220,1,75,2|0,3:2|0:0,0:0:0:0:
385,172,69149,2,0,P|390:136|398:97,1,75,10|0,2:2|0:0,0:0:0:0:
448,14,69482,6,0,P|403:56|298:57,1,150,6|10,3:2|2:2,0:0:0:0:
233,15,69982,2,0,P|188:9|144:1,1,75,2|0,2:2|3:2,0:0:0:0:
80,62,70315,1,2,3:2:0:0:
80,62,70482,1,8,2:2:0:0:
156,122,70649,6,0,P|181:169|142:253,1,150,2|0,3:2|3:2,0:0:0:0:
46,243,71149,2,0,P|59:286|71:325,1,75,10|0,2:2|0:0,0:0:0:0:
150,367,71482,1,2,3:2:0:0:
150,367,71649,1,0,3:2:0:0:
235,321,71815,2,0,P|285:313|331:363,1,112.5,10|0,2:2|0:0,0:0:0:0:
368,380,72149,6,0,P|389:328|409:237,1,150,6|10,3:2|2:2,0:0:0:0:
337,170,72649,2,0,P|289:192|255:197,1,75,2|0,2:2|3:2,0:0:0:0:
191,257,72982,2,0,P|132:241|110:215,1,75,2|8,3:2|0:0,0:0:0:0:
50,166,73315,6,0,P|56:115|70:14,1,150,6|0,3:2|3:2,0:0:0:0:
164,3,73815,2,0,P|212:8|238:19,1,75,8|0,2:2|0:0,0:0:0:0:
302,97,74149,1,2,3:2:0:0:
302,97,74315,1,0,0:0:0:0:
375,33,74482,2,0,P|396:73|391:110,1,75,8|0,2:2|0:0,0:0:0:0:
349,196,74815,6,0,P|397:141|470:145,1,150,6|0,3:2|3:2,0:0:0:0:
502,237,75315,2,0,P|485:286|484:316,1,75,10|0,2:2|0:0,0:0:0:0:
397,356,75649,2,0,P|334:338|295:334,1,75,2|8,3:2|2:2,0:0:0:0:
234,374,75982,6,0,P|192:325|98:310,1,150,6|0,3:2|0:0,0:0:0:0:
33,366,76482,1,8,2:2:0:0:
33,366,76649,1,0,0:0:0:0:
5,272,76815,2,0,P|12:230|12:197,1,75,2|2,3:2|3:2,0:0:0:0:
67,116,77149,1,10,2:2:0:0:
144,174,77315,6,0,B|225:186|218:136|300:148,1,150,6|0,3:2|0:0,0:0:0:0:
365,206,77815,2,0,P|351:249|341:289,1,75,8|0,2:2|0:0,0:0:0:0:
281,354,78149,1,0,3:2:0:0:
281,354,78315,1,0,3:2:0:0:
374,382,78482,2,0,P|415:370|453:367,1,75,8|0,2:2|0:0,0:0:0:0:
498,284,78815,5,0,3:2:0:0:
498,284,78982,1,0,0:0:0:0:
434,210,79149,2,0,P|443:173|450:133,1,75,8|0,2:2|3:2,0:0:0:0:
475,45,79482,1,10,2:2:0:0:
475,45,79649,1,0,3:2:0:0:
384,80,79815,2,0,P|326:67|292:62,1,75,10|0,2:2|0:0,0:0:0:0:
236,16,80149,6,0,P|191:38|96:69,1,134.999995880127,6|2,3:2|2:2,0:0:0:0:
38,115,80649,2,0,P|24:155|20:190,1,67.4999979400635,2|8,3:2|2:2,0:0:0:0:
80,243,80982,1,2,3:2:0:0:
80,243,81315,6,0,P|142:261|211:303,1,134.999995880127,6|8,3:2|2:2,0:0:0:0:
368,380,81982,1,0,3:2:0:0:
368,380,82065,1,0,3:2:0:0:
368,380,82149,2,0,P|381:340|394:316,1,67.4999979400635,2|0,3:2|3:2,0:0:0:0:
474,285,82482,1,10,2:2:0:0:
424,212,82649,6,0,P|356:193|275:143,1,150,6|0,3:2|0:0,0:0:0:0:
236,70,83149,2,0,P|180:81|135:88,1,75,8|0,2:2|0:0,0:0:0:0:
73,57,83482,1,0,3:2:0:0:
73,57,83649,1,2,3:2:0:0:
19,138,83815,2,0,P|35:182|36:216,1,75,8|0,2:2|0:0,0:0:0:0:
6,303,84149,6,0,P|42:247|124:240,1,150,6|8,3:2|2:2,0:0:0:0:
187,308,84649,1,0,0:0:0:0:
187,308,84815,1,0,3:2:0:0:
261,371,84982,1,2,2:2:0:0:
351,334,85149,2,0,P|400:319|441:319,1,75,8|0,2:2|3:2,0:0:0:0:
489,240,85482,6,0,P|438:225|399:206,1,75,10|0,2:2|3:2,0:0:0:0:
378,124,85815,1,0,3:2:0:0:
450,58,85982,6,0,P|467:103|465:138,1,75,10|0,2:2|0:0,0:0:0:0:
419,217,86315,1,0,3:2:0:0:
419,217,86399,1,0,3:2:0:0:
419,217,86482,1,10,2:2:0:0:
378,124,86649,6,0,B|306:104|265:162|268:165|273:172|211:239|148:206,1,255.000004863739,6|0,3:2|0:0,0:0:0:0:
