osu file format v14

[General]
AudioFilename: audio.mp3
AudioLeadIn: 0
PreviewTime: 57732
Countdown: 0
SampleSet: Soft
StackLeniency: 0.5
Mode: 0
LetterboxInBreaks: 0
WidescreenStoryboard: 1

[Editor]
DistanceSpacing: 0.3
BeatDivisor: 4
GridSize: 8
TimelineZoom: 1.8

[Metadata]
Title:FUN FUN RE-BOOT
TitleUnicode:FUN FUN RE-BOOT
Artist:QUARTET*RE-BOOT!
ArtistUnicode:QUARTET☆RE-BOOT!
Creator:Natsume Shizuku
Version:eringiRa's Insane!
Source:天使☆騒々 RE-BOOT!
Tags:KennethBBG nantokanaru eringiRa 白雪乃愛 谷風天音 小雲雀来海 星河かぐ耶 shirayuki noa tanikaze amane kohibari kurumi hoshikawa kaguya visual novel vn eroge yuzusoft op opening video game vgm pop angelic chaos angelic*chaos 天使*囂囂 天使*嚣嚣 female vocal jpop j-pop japanese tenshi souzou reboot
BeatmapID:4087020
BeatmapSetID:1961925

[Difficulty]
HPDrainRate:4
CircleSize:4
OverallDifficulty:7.5
ApproachRate:9
SliderMultiplier:1.66
SliderTickRate:1

[Events]
//Background and Video events
0,0,"noa.png",0,0
//Break Periods
//Storyboard Layer 0 (Background)
//Storyboard Layer 1 (Fail)
//Storyboard Layer 2 (Pass)
//Storyboard Layer 3 (Foreground)
//Storyboard Layer 4 (Overlay)
//Storyboard Sound Samples

[TimingPoints]
2816,333.333333333333,4,2,1,70,1,0
5149,-90.9090909090909,4,2,1,70,0,0
5982,-100,4,2,1,70,0,0
10482,-76.9230769230769,4,2,1,70,0,0
10815,-100,4,2,1,70,0,0
21482,-111.111111111111,4,2,1,50,0,0
31982,-111.111111111111,4,2,1,60,0,0
42649,-133.333333333333,4,2,1,55,0,0
50815,-100,4,2,1,65,0,0
53482,-100,4,2,1,70,0,0
56149,-100,4,2,1,80,0,0
57149,-76.9230769230769,4,2,1,80,0,0
58482,-111.111111111111,4,2,1,80,0,0
58815,-90.9090909090909,4,2,1,90,0,1
62315,-90.9090909090909,4,2,2,90,0,1
62815,-90.9090909090909,4,2,1,90,0,1
67649,-90.9090909090909,4,2,2,90,0,1
68482,-90.9090909090909,4,2,1,90,0,1
86649,-111.111111111111,4,2,1,90,0,0
87315,-111.111111111111,4,2,1,5,0,0

[Colours]
Combo1 : 187,187,255
Combo2 : 251,226,162
Combo3 : 151,223,251

[HitObjects]
196,22,4982,5,0,3:2:0:0:
91,174,5149,2,0,P|45:154|-1:137,1,91.300002786255,10|0,0:2|0:0,0:0:0:0:
256,95,5482,5,2,3:2:0:0:
105,22,5649,1,2,0:2:0:0:
207,180,5816,1,10,0:2:0:0:
296,27,5982,2,0,B|340:44|338:94|338:94|368:59|423:69,1,166,6|10,3:2|2:2,0:0:0:0:
410,67,6482,1,2,0:2:0:0:
499,22,6649,1,2,3:2:0:0:
390,151,6816,5,6,0:2:0:0:
327,1,6982,1,2,0:2:0:0:
486,99,7149,1,10,2:2:0:0:
313,196,7316,2,0,P|265:180|210:164,1,83,6|0,3:2|0:0,0:0:0:0:
25,179,7649,5,10,0:2:0:0:
169,80,7816,1,10,0:2:0:0:
39,6,7982,6,0,P|52:55|70:112,1,83,6|0,3:2|0:0,0:0:0:0:
145,278,8316,5,0,0:0:0:0:
225,136,8482,1,0,3:2:0:0:
39,189,8649,6,0,L|57:244,1,41.5,8|0,2:2|0:0,0:0:0:0:
244,246,8982,6,0,L|226:301,1,41.5,8|0,2:2|0:0,0:0:0:0:
80,366,9316,6,0,L|67:326,1,41.5,8|0,2:2|0:0,0:0:0:0:
217,168,10316,5,0,3:2:0:0:
217,168,10399,1,0,3:2:0:0:
217,168,10482,6,0,B|248:115|307:163|307:163|301:214|366:225,1,161.849992591095,4|0,3:2|0:0,0:0:0:0:
399,140,10815,6,0,P|357:234|328:308,1,166,10|0,0:2|3:2,0:0:0:0:
333,292,11316,1,2,0:2:0:0:
485,218,11482,1,0,3:2:0:0:
309,105,11649,1,0,0:0:0:0:
393,225,11816,1,8,2:2:0:0:
234,353,11982,6,0,P|201:315|85:305,1,166,6|2,3:2|0:2,0:0:0:0:
20,168,12482,2,0,P|62:181|124:194,1,83,2|2,3:2|0:2,0:0:0:0:
232,47,12816,5,0,3:2:0:0:
274,220,12982,1,0,3:2:0:0:
124,116,13149,1,8,0:2:0:0:
340,18,13316,6,0,B|296:69|303:103|303:103|340:129|341:180,1,166,6|2,3:2|0:2,0:0:0:0:
456,243,13816,2,0,P|465:183|479:134,1,83,10|0,0:2|0:0,0:0:0:0:
419,371,14149,5,0,3:2:0:0:
276,211,14316,1,0,3:2:0:0:
378,257,14482,1,10,2:2:0:0:
239,372,14649,2,0,P|187:367|187:260,1,166,0|0,3:2|0:0,0:0:0:0:
17,161,15149,2,0,P|33:197|44:249,1,83,10|0,0:2|0:0,0:0:0:0:
188,100,15482,5,2,3:2:0:0:
31,42,15649,1,0,3:2:0:0:
109,189,15816,1,10,2:2:0:0:
269,72,15982,6,0,P|250:31|135:30,1,166,6|0,3:2|0:0,0:0:0:0:
274,185,16482,2,0,P|319:165|362:151,1,83,8|0,0:2|0:0,0:0:0:0:
468,50,16816,5,2,3:2:0:0:
389,9,16982,1,0,3:2:0:0:
491,129,17149,1,8,2:2:0:0:
326,225,17316,6,0,P|280:188|301:88,1,166,4|0,3:2|0:0,0:0:0:0:
429,185,17816,1,8,0:2:0:0:
325,319,17982,6,0,P|273:297|169:282,1,124.5,4|0,3:2|0:0,0:0:0:0:
195,293,18316,1,2,3:2:0:0:
57,179,18482,2,0,P|84:200|105:261,1,83,10|2,0:2|0:2,0:0:0:0:
95,342,18816,6,0,P|113:288|174:164,1,166,4|8,3:2|0:2,0:0:0:0:
90,66,19316,6,0,P|34:86|-5:108,1,83,0|0,3:2|0:0,0:0:0:0:
234,91,19649,5,0,3:2:0:0:
141,0,19816,1,8,0:2:0:0:
236,103,19982,2,0,P|288:88|377:66,1,124.5,6|0,3:2|0:0,0:0:0:0:
368,77,20316,5,10,0:2:0:0:
465,10,20482,1,10,0:2:0:0:
416,168,20649,1,6,3:2:0:0:
416,168,21482,6,0,P|390:178|329:212,1,74.699997720337,2|0,3:2|0:0,0:0:0:0:
475,230,21815,2,0,P|406:258|341:295,1,149.399995440674,10|2,0:2|3:2,0:0:0:0:
236,365,22316,1,2,3:2:0:0:
179,287,22482,1,8,0:2:0:0:
247,375,22649,6,0,P|255:317|282:212,1,149.399995440674,2|0,3:2|0:0,0:0:0:0:
196,114,23149,1,10,0:2:0:0:
196,114,23482,1,2,3:2:0:0:
304,69,23649,2,0,P|292:130|283:174,1,74.699997720337,2|8,3:2|0:2,0:0:0:0:
116,71,23982,6,0,P|142:23|238:39,1,149.399995440674,2|0,3:2|0:0,0:0:0:0:
125,157,24482,2,0,P|69:138|28:125,1,74.699997720337,10|0,0:2|0:0,0:0:0:0:
54,133,24816,1,2,3:2:0:0:
115,245,24982,2,0,P|171:226|212:213,1,74.699997720337,2|8,3:2|0:2,0:0:0:0:
366,154,25316,6,0,B|283:128|336:77|239:61,1,149.399995440674,6|0,3:2|0:0,0:0:0:0:
191,108,25816,1,8,0:2:0:0:
350,25,25982,2,0,P|323:81|281:192,1,149.399995440674,4|0,3:2|0:0,0:0:0:0:
327,228,26482,1,8,0:2:0:0:
467,369,26649,6,0,P|450:324|350:330,1,149.399995440674,6|0,3:2|0:0,0:0:0:0:
466,226,27149,2,0,P|470:274|445:299,1,74.699997720337,10|0,0:2|0:0,0:0:0:0:
290,162,27482,1,2,3:2:0:0:
373,126,27649,2,0,P|358:63|347:23,1,74.699997720337,2|8,3:2|0:2,0:0:0:0:
266,55,27982,6,0,B|249:2|194:-6|154:22|154:22|171:62,1,149.399995440674,2|0,3:2|0:0,0:0:0:0:
80,157,28482,2,0,B|67:116|67:116|92:74,1,74.699997720337,10|0,0:2|0:0,0:0:0:0:
175,179,28816,1,2,3:2:0:0:
101,245,28982,2,0,P|59:235|5:225,1,74.699997720337,2|8,3:2|0:2,0:0:0:0:
26,375,29316,6,0,P|76:358|198:321,1,149.399995440674,2|0,3:2|0:0,0:0:0:0:
260,237,29816,2,0,P|271:282|287:326,1,74.699997720337,10|0,0:2|0:0,0:0:0:0:
280,308,30149,1,2,3:2:0:0:
398,236,30316,2,0,P|386:200|377:164,1,74.699997720337,2|8,3:2|0:2,0:0:0:0:
311,43,30649,6,0,B|225:66|282:103|182:123,1,149.399995440674,6|0,3:2|0:0,0:0:0:0:
30,152,31149,1,8,0:2:0:0:
66,16,31316,2,0,P|82:53|119:172,1,149.399995440674,4|0,3:2|0:0,0:0:0:0:
151,222,31816,1,8,0:2:0:0:
17,364,31982,6,0,P|34:327|149:333,1,149.399995440674,6|2,3:2|0:2,0:0:0:0:
259,197,32482,2,0,P|244:250|236:288,1,74.699997720337,10|2,0:2|0:2,0:0:0:0:
331,372,32816,1,2,3:2:0:0:
422,243,32982,1,2,0:2:0:0:
328,280,33149,1,8,0:2:0:0:
485,341,33315,6,0,P|472:282|455:184,1,149.399995440674,2|0,3:2|0:0,0:0:0:0:
361,78,33816,2,0,P|322:92|276:105,1,74.699997720337,10|0,2:2|0:0,0:0:0:0:
116,15,34149,1,2,3:2:0:0:
179,167,34316,2,0,P|190:115|197:72,1,74.699997720337,2|8,3:2|2:2,0:0:0:0:
12,209,34649,6,0,P|60:191|108:269,1,149.399995440674,2|0,3:2|0:0,0:0:0:0:
226,367,35149,2,0,P|238:310|255:264,1,74.699997720337,10|0,2:2|0:0,0:0:0:0:
327,151,35482,5,2,3:2:0:0:
408,314,35649,1,2,2:2:0:0:
262,224,35816,1,8,2:2:0:0:
427,145,35982,6,0,P|410:203|384:301,1,149.399995440674,6|0,3:2|0:0,0:0:0:0:
474,255,36482,1,8,2:2:0:0:
324,142,36649,2,0,P|265:119|238:105,1,74.699997720337,4|0,3:2|0:0,0:0:0:0:
133,126,36982,5,2,2:2:0:0:
211,43,37149,1,10,2:2:0:0:
12,10,37316,6,0,P|27:56|60:166,1,149.399995440674,6|0,3:2|0:0,0:0:0:0:
187,231,37816,2,0,P|219:197|216:146,1,74.699997720337,10|0,2:2|0:0,0:0:0:0:
19,227,38149,1,2,3:2:0:0:
107,319,38316,2,0,P|147:336|182:364,1,74.699997720337,2|10,2:2|2:2,0:0:0:0:
341,288,38649,6,0,L|307:137,1,149.399995440674,6|2,3:2|2:2,0:0:0:0:
437,33,39149,2,0,P|448:64|421:110,1,74.699997720337,10|2,2:2|2:2,0:0:0:0:
270,6,39482,5,2,3:2:0:0:
361,60,39649,1,2,3:2:0:0:
213,177,39816,1,10,2:2:0:0:
192,95,39982,6,0,P|247:95|296:176,1,149.399995440674,6|0,3:2|0:0,0:0:0:0:
130,261,40482,1,8,2:2:0:0:
130,261,40816,2,0,P|115:210|100:177,1,74.699997720337,0|0,3:2|3:2,0:0:0:0:
42,248,41149,1,8,2:2:0:0:
161,353,41316,6,0,B|237:318|230:394|324:353,1,149.399995440674,0|0,3:2|0:0,0:0:0:0:
418,225,41816,2,0,P|379:255|385:298,1,74.699997720337,10|0,2:2|0:0,0:0:0:0:
479,366,42149,2,0,P|466:315|460:279,1,74.699997720337,2|0,3:2|3:2,0:0:0:0:
317,208,42482,1,10,2:2:0:0:
460,157,42649,6,0,B|413:141|413:141|401:118|401:118|334:98,1,124.500004749298,6|2,3:2|2:2,0:0:0:0:
244,13,43149,2,0,P|255:54|266:93,1,62.2500023746491,2|2,2:2|3:2,0:0:0:0:
159,126,43482,1,10,2:2:0:0:
159,126,43649,2,0,P|167:96|175:65,1,62.2500023746491,2|0,2:2|0:0,0:0:0:0:
26,170,43982,6,0,P|69:164|118:230,1,124.500004749298,2|10,3:2|2:2,0:0:0:0:
198,270,44482,2,0,P|182:319|173:350,1,62.2500023746491,2|2,2:2|3:2,0:0:0:0:
250,379,44816,2,0,P|262:332|292:242,1,124.500004749298,10|2,2:2|2:2,0:0:0:0:
392,197,45316,6,0,P|351:198|326:119,1,124.500004749298,2|8,3:2|2:2,0:0:0:0:
320,130,45816,1,2,2:2:0:0:
391,47,45982,2,0,P|417:57|459:66,1,62.2500023746491,2|10,3:2|2:2,0:0:0:0:
252,11,46316,5,2,2:2:0:0:
315,58,46482,1,2,2:2:0:0:
199,165,46649,2,0,P|188:129|149:47,1,124.500004749298,2|8,3:2|2:2,0:0:0:0:
46,156,47149,2,0,P|78:142|119:130,1,62.2500023746491,2|0,2:2|3:2,0:0:0:0:
279,242,47482,5,10,2:2:0:0:
199,165,47649,1,0,3:2:0:0:
157,290,47816,1,10,2:2:0:0:
261,371,47982,6,0,P|301:341|398:337,1,124.500004749298,6|2,3:2|3:2,0:0:0:0:
458,273,48482,2,0,P|451:232|451:199,2,62.2500023746491,2|2|10,2:2|3:2|2:2,0:0:0:0:
321,172,48982,2,0,P|366:156|403:140,1,62.2500023746491,2|0,2:2|0:0,0:0:0:0:
272,80,49316,6,0,P|243:43|166:56,1,124.500004749298,2|8,3:2|2:2,0:0:0:0:
76,33,49816,2,0,P|96:78|103:107,1,62.2500023746491,2|0,2:2|0:0,0:0:0:0:
195,139,50149,2,0,P|175:184|168:213,1,62.2500023746491,10|0,2:2|3:2,0:0:0:0:
53,190,50482,2,0,P|73:235|80:264,1,62.2500023746491,10|0,2:2|0:0,0:0:0:0:
46,365,50815,6,0,P|96:331|224:321,1,166,6|10,3:2|2:2,0:0:0:0:
349,197,51316,2,0,P|329:252|318:297,1,83,2|0,2:2|3:2,0:0:0:0:
443,186,51649,5,2,3:2:0:0:
306,99,51816,1,10,2:2:0:0:
408,43,51982,2,0,P|443:37|503:12,1,83,2|0,3:2|0:0,0:0:0:0:
272,14,52316,5,0,3:2:0:0:
195,161,52482,2,0,P|180:113|164:72,1,83,10|0,2:2|0:0,0:0:0:0:
61,157,52816,5,2,3:2:0:0:
229,243,52982,1,2,3:2:0:0:
80,328,53149,2,0,P|52:292|71:240,1,83,10|0,2:2|0:0,0:0:0:0:
179,381,53482,6,0,P|190:325|228:207,1,166,6|10,3:2|2:2,0:0:0:0:
375,139,53982,6,0,B|334:134|309:86|309:86|327:141|299:180,1,166,0|0,3:2|3:2,0:0:0:0:
393,34,54482,1,8,2:2:0:0:
393,34,54816,6,0,P|323:65|233:125,1,166,6|8,3:2|2:2,0:0:0:0:
95,11,55316,2,0,P|121:62|139:109,1,83,2|0,3:2|0:0,0:0:0:0:
19,224,55649,1,0,3:2:0:0:
176,157,55816,2,0,P|214:183|224:231,1,83,8|0,2:2|0:0,0:0:0:0:
62,370,56149,6,0,B|38:354|26:327|41:294|41:294|40:334|90:370,1,166,10|0,2:2|3:2,0:0:0:0:
202,296,56649,6,0,B|226:280|238:253|223:220|223:220|224:260|174:296,1,166,10|0,2:2|3:2,0:0:0:0:
2,149,57149,6,0,P|56:159|157:226,1,161.849992591095,10|0,2:2|0:0,0:0:0:0:
140,227,57482,6,0,P|168:213|197:199,1,53.9499975303651,6|0,3:2|0:0,0:0:0:0:
404,31,58316,5,0,3:2:0:0:
459,108,58482,2,0,P|425:72|362:81,1,112.049996580505,10|0,0:0|0:0,0:0:0:0:
296,19,58816,6,0,P|330:87|368:204,1,182.60000557251,6|10,3:2|2:2,0:0:0:0:
267,346,59316,2,0,P|309:314|367:288,1,91.300002786255,2|0,2:2|3:2,0:0:0:0:
496,352,59649,2,0,P|450:319|428:267,1,91.300002786255,2|10,3:2|2:2,0:0:0:0:
277,142,59982,6,0,P|258:195|154:189,1,136.950004179382,2|0,3:2|0:0,0:0:0:0:
171,197,60316,1,0,3:2:0:0:
58,37,60482,2,0,P|73:86|85:134,1,91.300002786255,10|0,2:2|0:0,0:0:0:0:
4,317,60816,5,2,3:2:0:0:
97,204,60982,1,0,3:2:0:0:
175,370,61149,2,0,P|221:345|275:328,1,91.300002786255,10|0,2:2|0:0,0:0:0:0:
484,277,61482,6,0,P|466:233|384:234,1,136.950004179382,6|0,3:2|0:0,0:0:0:0:
381,245,61816,1,10,2:2:0:0:
497,112,61982,2,0,P|452:94|410:79,1,91.300002786255,2|0,2:2|3:2,0:0:0:0:
227,164,62316,5,2,3:2:0:0:
328,0,62482,1,10,2:2:0:0:
188,82,62649,1,2,0:0:0:0:
325,205,62815,2,0,P|359:171|353:123,1,91.300002786255,0|0,3:2|0:0,0:0:0:0:
159,13,63149,2,0,P|177:68|188:117,1,91.300002786255,10|0,2:2|0:0,0:0:0:0:
109,181,63482,5,2,3:2:0:0:
244,256,63649,1,0,3:2:0:0:
113,363,63816,2,0,P|78:343|25:330,1,91.300002786255,10|0,2:2|0:0,0:0:0:0:
199,189,64149,6,0,P|243:173|310:296,1,182.60000557251,6|10,3:2|2:2,0:0:0:0:
446,347,64649,2,0,P|457:294|471:245,1,91.300002786255,2|0,2:2|3:2,0:0:0:0:
370,148,64982,2,0,P|318:159|308:205,1,91.300002786255,2|8,3:2|2:2,0:0:0:0:
482,89,65316,6,0,P|431:75|332:27,1,136.950004179382,2|0,3:2|0:0,0:0:0:0:
346,29,65649,1,0,3:2:0:0:
218,149,65815,2,0,P|231:198|246:253,1,91.300002786255,10|0,2:2|0:0,0:0:0:0:
119,167,66149,5,2,3:2:0:0:
243,58,66316,1,0,3:2:0:0:
75,10,66482,2,0,P|43:44|54:89,1,91.300002786255,10|0,2:2|0:0,0:0:0:0:
3,193,66816,6,0,P|68:182|147:265,1,182.60000557251,6|10,3:2|2:2,0:0:0:0:
263,366,67316,1,2,2:2:0:0:
263,366,67399,1,0,3:0:0:0:
263,366,67482,1,0,3:2:0:0:
425,277,67649,1,2,3:2:0:0:
293,210,67815,2,0,P|314:262|331:312,1,91.300002786255,10|2,2:2|0:0,0:0:0:0:
458,164,68149,6,0,P|385:130|388:60,1,136.950004179382,2|0,3:2|0:0,0:0:0:0:
365,54,68482,2,0,P|315:32|275:11,1,91.300002786255,10|0,2:2|0:0,0:0:0:0:
174,13,68816,5,2,3:2:0:0:
299,126,68982,1,0,0:0:0:0:
159,9,69149,2,0,P|140:76|127:112,1,91.300002786255,10|0,2:2|0:0,0:0:0:0:
19,172,69482,6,0,B|59:146|113:186|119:229|119:229|89:246|78:284,1,182.60000557251,6|10,3:2|2:2,0:0:0:0:
232,359,69982,2,0,P|180:332|134:312,1,91.300002786255,2|0,2:2|3:2,0:0:0:0:
301,238,70316,5,2,3:2:0:0:
349,370,70482,1,8,2:2:0:0:
220,223,70649,2,0,P|254:169|370:193,1,182.60000557251,2|0,3:2|3:2,0:0:0:0:
453,128,71149,2,0,P|436:79|450:37,1,91.300002786255,10|0,2:2|0:0,0:0:0:0:
295,7,71482,6,0,P|268:52|165:38,1,136.950004179382,2|0,3:2|0:0,0:0:0:0:
169,85,71816,2,0,P|116:61|72:54,1,91.300002786255,10|0,2:2|0:0,0:0:0:0:
9,251,72149,6,0,B|93:230|35:193|155:170,1,136.950004179382,6|0,3:2|0:0,0:0:0:0:
137,179,72482,1,10,2:2:0:0:
225,320,72649,2,0,P|172:302|164:261,1,91.300002786255,2|0,2:2|3:2,0:0:0:0:
299,167,72982,2,0,P|283:217|271:267,1,91.300002786255,2|8,3:2|2:2,0:0:0:0:
417,363,73316,6,0,B|415:254|490:316|501:180,1,182.60000557251,6|0,3:2|3:2,0:0:0:0:
317,85,73816,2,0,P|362:104|375:172,1,91.300002786255,8|0,2:2|0:0,0:0:0:0:
233,178,74149,5,2,3:2:0:0:
145,22,74316,1,0,0:0:0:0:
43,159,74482,2,0,P|91:140|144:123,1,91.300002786255,8|0,2:2|0:0,0:0:0:0:
15,290,74816,2,0,B|37:237|104:254|104:254|113:310|171:332,1,182.60000557251,6|0,3:2|3:2,0:0:0:0:
255,183,75316,2,0,P|239:240|226:287,1,91.300002786255,10|0,2:2|0:0,0:0:0:0:
330,370,75649,5,2,3:2:0:0:
466,227,75816,1,8,2:2:0:0:
414,380,75982,2,0,P|392:310|349:188,1,182.60000557251,6|0,3:2|0:0,0:0:0:0:
478,84,76482,2,0,P|435:104|397:135,1,91.300002786255,8|0,2:2|0:0,0:0:0:0:
182,16,76816,5,2,3:2:0:0:
324,94,76982,1,2,3:2:0:0:
151,199,77149,1,10,2:2:0:0:
275,6,77316,6,0,P|257:50|228:196,1,182.60000557251,6|0,3:2|0:0,0:0:0:0:
82,243,77816,2,0,P|58:201|75:153,1,91.300002786255,8|0,2:2|0:0,0:0:0:0:
79,353,78149,5,0,3:2:0:0:
187,241,78316,1,0,3:2:0:0:
236,380,78482,2,0,P|283:360|345:341,1,91.300002786255,8|0,2:2|0:0,0:0:0:0:
452,253,78816,6,0,B|492:228|474:161|474:161|419:144|428:90,1,182.60000557251,0|8,3:2|2:2,0:0:0:0:
266,19,79316,1,0,3:2:0:0:
266,19,79399,1,0,3:0:0:0:
266,19,79482,1,10,2:2:0:0:
333,173,79649,1,0,3:2:0:0:
187,74,79816,2,0,P|119:91|73:125,1,91.300002786255,10|0,2:2|0:0,0:0:0:0:
26,183,80149,6,0,P|78:182|97:277,1,136.950004179382,6|0,3:2|0:0,0:0:0:0:
104,263,80482,1,2,2:2:0:0:
207,372,80649,1,2,3:2:0:0:
282,321,80816,1,8,2:2:0:0:
214,207,80982,2,0,P|191:268|179:311,1,91.300002786255,2|0,3:2|0:0,0:0:0:0:
363,197,81316,6,0,B|294:168|331:141|219:109,1,136.950004179382,6|0,3:2|0:0,0:0:0:0:
234,126,81649,1,8,2:2:0:0:
381,90,81816,2,0,P|436:66|479:50,1,91.300002786255,0|0,0:0|3:2,0:0:0:0:
476,62,82066,1,0,3:2:0:0:
487,69,82149,1,2,3:2:0:0:
322,0,82316,2,0,P|285:40|293:97,1,91.300002786255,0|10,3:2|2:2,0:0:0:0:
473,198,82649,6,0,P|382:215|293:272,1,182.60000557251,6|0,3:2|0:0,0:0:0:0:
173,170,83149,2,0,P|159:113|146:66,1,91.300002786255,8|0,2:2|0:0,0:0:0:0:
108,4,83482,5,0,3:2:0:0:
246,63,83649,1,2,3:2:0:0:
83,197,83816,2,0,P|40:166|51:109,1,91.300002786255,8|0,2:2|0:0,0:0:0:0:
21,296,84149,6,0,B|76:265|115:320|115:320|101:369|185:384,1,182.60000557251,6|8,3:2|2:2,0:0:0:0:
282,274,84649,1,0,3:0:0:0:
282,274,84732,1,0,3:0:0:0:
282,274,84816,1,0,3:2:0:0:
164,195,84982,1,2,2:2:0:0:
273,363,85149,2,0,P|332:336|374:322,1,91.300002786255,8|0,2:2|3:2,0:0:0:0:
365,316,85399,1,0,3:2:0:0:
374,306,85482,5,10,2:2:0:0:
476,210,85649,2,0,P|461:265|452:322,1,91.300002786255,0|0,3:2|3:2,0:0:0:0:
364,60,85982,5,10,2:2:0:0:
277,231,86149,1,0,0:0:0:0:
427,141,86316,1,0,3:2:0:0:
427,141,86399,1,0,3:2:0:0:
427,141,86482,1,10,2:2:0:0:
233,28,86649,6,0,B|118:49|202:104|74:138|74:138|123:114|134:50,1,298.799990881348,6|0,3:2|0:0,0:0:0:0:
