osu file format v14

[General]
AudioFilename: audio.mp3
AudioLeadIn: 0
PreviewTime: 57732
Countdown: 0
SampleSet: Soft
StackLeniency: 0.7
Mode: 0
LetterboxInBreaks: 0
WidescreenStoryboard: 1

[Editor]
DistanceSpacing: 1
BeatDivisor: 4
GridSize: 8
TimelineZoom: 1.8

[Metadata]
Title:FUN FUN RE-BOOT
TitleUnicode:FUN FUN RE-BOOT
Artist:QUARTET*RE-BOOT!
ArtistUnicode:QUARTET☆RE-BOOT!
Creator:Natsume Shizuku
Version:Normal!
Source:天使☆騒々 RE-BOOT!
Tags:KennethBBG nantokanaru eringiRa 白雪乃愛 谷風天音 小雲雀来海 星河かぐ耶 shirayuki noa tanikaze amane kohibari kurumi hoshikawa kaguya visual novel vn eroge yuzusoft op opening video game vgm pop angelic chaos angelic*chaos 天使*囂囂 天使*嚣嚣 female vocal jpop j-pop japanese tenshi souzou reboot
BeatmapID:4077185
BeatmapSetID:1961925

[Difficulty]
HPDrainRate:3
CircleSize:3
OverallDifficulty:4
ApproachRate:5.5
SliderMultiplier:0.999999999999999
SliderTickRate:1

[Events]
//Background and Video events
0,0,"orie.jpg",0,0
//Break Periods
//Storyboard Layer 0 (Background)
//Storyboard Layer 1 (Fail)
//Storyboard Layer 2 (Pass)
//Storyboard Layer 3 (Foreground)
//Storyboard Layer 4 (Overlay)
//Storyboard Sound Samples

[TimingPoints]
2816,333.333333333333,4,2,1,70,1,0
10815,-100,4,2,1,90,0,0
21482,-100,4,2,1,50,0,0
31982,-100,4,2,1,60,0,0
42649,-100,4,2,1,55,0,0
50815,-100,4,2,1,65,0,0
53482,-100,4,2,1,70,0,0
56149,-100,4,2,1,80,0,0
58815,-100,4,2,1,90,0,0

[Colours]
Combo1 : 198,140,140
Combo2 : 138,249,147
Combo3 : 232,160,252

[HitObjects]
59,323,5149,5,10,0:2:0:0:
120,244,5482,2,0,L|104:181,2,50,2|2|10,3:2|0:2|0:2,0:0:0:0:
165,264,5982,2,0,P|221:245|239:204,1,99.9999999999999,6|10,3:2|2:2,0:0:0:0:
213,119,6649,1,2,3:2:0:0:
213,119,6815,2,0,L|197:56,2,50,6|2|10,0:2|0:2|2:2,0:0:0:0:
263,121,7315,2,0,P|312:100|371:94,1,99.9999999999999,6|10,3:2|0:2,0:0:0:0:
384,52,7815,1,10,0:2:0:0:
384,52,7982,1,6,3:2:0:0:
512,140,8482,5,0,3:2:0:0:
512,140,8649,1,8,2:2:0:0:
474,233,8982,1,8,2:2:0:0:
441,327,9315,1,8,2:2:0:0:
92,361,10482,1,4,3:2:0:0:
22,289,10815,6,0,P|5:235|37:187,1,99.9999999999999,10|0,0:2|3:2,0:0:0:0:
86,121,11482,2,0,L|67:65,2,50,0|0|8,3:2|0:0|2:2,0:0:0:0:
134,136,11982,2,0,P|188:122|247:98,1,99.9999999999999,6|2,3:2|0:2,0:0:0:0:
274,127,12482,1,2,3:2:0:0:
367,163,12815,2,0,L|386:107,2,50,0|0|8,3:2|3:2|0:2,0:0:0:0:
395,204,13315,6,0,P|408:244|380:291,1,99.9999999999999,6|2,3:2|0:2,0:0:0:0:
331,279,13815,1,10,0:2:0:0:
260,350,14149,1,0,3:2:0:0:
260,350,14315,2,0,P|228:333|196:328,1,50,0|10,3:2|2:2,0:0:0:0:
165,341,14649,2,0,P|116:329|67:303,1,99.9999999999999,0|0,3:2|0:0,0:0:0:0:
43,265,15149,1,10,0:2:0:0:
91,177,15482,1,2,3:2:0:0:
192,196,15815,1,10,2:2:0:0:
192,196,15982,6,0,P|241:184|290:158,1,99.9999999999999,6|0,3:2|0:0,0:0:0:0:
328,186,16482,1,8,0:2:0:0:
408,244,16815,2,0,P|418:280|428:301,2,50,2|0|8,3:2|3:2|2:2,0:0:0:0:
449,215,17315,1,4,3:2:0:0:
509,136,17649,2,0,P|499:100|489:79,1,50,0|8,0:0|0:2,0:0:0:0:
449,66,17982,2,0,P|398:78|345:101,1,99.9999999999999,4|2,3:2|3:2,0:0:0:0:
307,78,18482,1,10,0:2:0:0:
222,25,18815,6,0,L|205:79,1,50,4|0,3:2|0:0,0:0:0:0:
165,97,19149,1,8,0:2:0:0:
165,97,19315,1,0,3:2:0:0:
77,48,19649,1,0,3:2:0:0:
13,125,19982,2,0,P|22:170|74:205,1,99.9999999999999,6|10,3:2|0:2,0:0:0:0:
116,200,20482,1,10,0:2:0:0:
116,200,20649,1,6,3:2:0:0:
283,14,21482,6,0,P|311:53|305:102,1,99.9999999999999,2|10,3:2|0:2,0:0:0:0:
212,141,22149,2,0,P|182:128|152:122,2,50,2|2|8,3:2|3:2|0:2,0:0:0:0:
243,180,22649,1,2,3:2:0:0:
388,142,23149,1,10,0:2:0:0:
466,80,23482,2,0,P|479:50|485:20,2,50,2|2|8,3:2|3:2|0:2,0:0:0:0:
504,112,23982,6,0,P|501:187|439:243,1,150,2|10,3:2|0:2,0:0:0:0:
367,183,24815,2,0,P|359:154|354:120,2,50,2|2|8,3:2|3:2|0:2,0:0:0:0:
355,231,25315,2,0,P|304:239|250:268,1,99.9999999999999,6|0,3:2|0:0,0:0:0:0:
230,300,25815,1,8,0:2:0:0:
230,300,25982,2,0,P|162:288|82:245,1,150,4|8,3:2|0:2,0:0:0:0:
42,265,26649,6,0,P|31:191|84:140,1,150,6|10,3:2|0:2,0:0:0:0:
161,83,27482,2,0,P|148:53|139:25,2,50,2|2|8,3:2|3:2|0:2,0:0:0:0:
208,102,27982,1,2,3:2:0:0:
335,22,28482,1,10,0:2:0:0:
406,92,28815,2,0,P|436:79|464:70,2,50,2|2|8,3:2|3:2|0:2,0:0:0:0:
374,130,29315,6,0,P|401:203|424:281,1,150,2|10,3:2|0:2,0:0:0:0:
344,336,30149,2,0,P|333:376|324:397,2,50,2|2|8,3:2|3:2|0:2,0:0:0:0:
324,289,30649,2,0,P|287:272|231:302,1,99.9999999999999,6|0,3:2|0:0,0:0:0:0:
204,334,31149,1,8,0:2:0:0:
204,334,31315,2,0,P|161:356|70:309,1,150,4|8,3:2|0:2,0:0:0:0:
56,269,31982,6,0,P|71:214|92:161,1,99.9999999999999,6|2,3:2|0:2,0:0:0:0:
114,132,32482,1,10,0:2:0:0:
25,100,32815,1,2,3:2:0:0:
25,100,32982,2,0,P|16:65|7:42,1,50,2|8,0:2|0:2,0:0:0:0:
42,13,33315,2,0,P|92:10|146:44,1,99.9999999999999,2|0,3:2|0:0,0:0:0:0:
184,23,33815,1,10,2:2:0:0:
250,105,34149,1,2,3:2:0:0:
250,105,34316,2,0,P|241:140|232:163,1,50,2|8,3:2|2:2,0:0:0:0:
267,192,34649,6,0,P|317:195|371:161,1,99.9999999999999,2|0,3:2|0:0,0:0:0:0:
409,182,35149,1,10,2:2:0:0:
432,84,35482,1,2,3:2:0:0:
432,84,35649,2,0,P|419:47|408:26,1,50,2|8,2:2|2:2,0:0:0:0:
369,15,35982,2,0,P|287:32|223:63,1,150,6|8,3:2|2:2,0:0:0:0:
188,27,36649,1,4,3:2:0:0:
126,105,36982,2,0,P|136:136|144:160,1,50,2|10,2:2|2:2,0:0:0:0:
136,202,37315,6,0,P|175:243|230:247,1,99.9999999999999,6|0,3:2|0:0,0:0:0:0:
263,232,37815,1,10,2:2:0:0:
321,315,38149,2,0,L|310:374,2,50,2|2|10,3:2|2:2|2:2,0:0:0:0:
365,289,38649,2,0,P|410:310|460:301,1,99.9999999999999,6|2,3:2|2:2,0:0:0:0:
493,266,39149,1,10,2:2:0:0:
428,190,39482,2,0,L|439:131,2,50,2|2|10,3:2|3:2|2:2,0:0:0:0:
379,203,39982,6,0,P|332:187|274:181,1,99.9999999999999,6|0,3:2|0:0,0:0:0:0:
246,216,40482,1,8,2:2:0:0:
184,144,40815,1,0,3:2:0:0:
184,144,40982,2,0,P|194:106|199:84,1,50,0|8,3:2|2:2,0:0:0:0:
235,64,41315,2,0,P|292:46|342:45,1,99.9999999999999,0|0,3:2|0:0,0:0:0:0:
365,7,41815,1,10,2:2:0:0:
449,60,42149,2,0,L|432:109,1,50,2|0,3:2|3:2,0:0:0:0:
388,124,42482,1,10,2:2:0:0:
388,124,42649,6,0,P|356:196|411:235,1,150,6|2,3:2|2:2,0:0:0:0:
490,281,43482,2,0,P|499:247|508:224,2,50,10|2|0,2:2|2:2|0:0,0:0:0:0:
456,318,43982,2,0,P|377:329|316:375,1,150,2|2,3:2|2:2,0:0:0:0:
239,311,44815,2,0,P|249:269|273:207,1,99.9999999999999,10|2,2:2|2:2,0:0:0:0:
296,174,45315,6,0,P|280:109|249:26,1,150,2|2,3:2|2:2,0:0:0:0:
201,41,45982,2,0,P|152:38|114:74,1,99.9999999999999,2|2,3:2|2:2,0:0:0:0:
94,116,46482,1,2,2:2:0:0:
94,116,46649,2,0,P|118:180|128:224,1,99.9999999999999,2|8,3:2|2:2,0:0:0:0:
94,249,47149,1,2,2:2:0:0:
149,332,47482,2,0,P|183:320|204:317,1,50,10|0,2:2|3:2,0:0:0:0:
244,346,47815,1,10,2:2:0:0:
244,346,47982,1,6,3:2:0:0:
317,278,48315,6,0,P|306:237|296:217,2,50,2|2|2,3:2|2:2|3:2,0:0:0:0:
361,301,48815,2,0,P|372:342|382:362,1,50,10|2,2:2|2:2,0:0:0:0:
458,293,49315,2,0,P|487:254|479:206,1,99.9999999999999,2|8,3:2|2:2,0:0:0:0:
433,184,49815,1,2,2:2:0:0:
498,108,50149,2,0,L|481:43,1,50,10|0,2:2|3:2,0:0:0:0:
439,39,50482,1,10,2:2:0:0:
343,68,50815,6,0,P|293:53|231:43,1,99.9999999999999,6|10,3:2|2:2,0:0:0:0:
202,70,51315,2,0,P|152:55|90:45,1,99.9999999999999,2|2,2:2|3:2,0:0:0:0:
65,74,51815,1,10,2:2:0:0:
65,74,51982,1,2,3:2:0:0:
132,156,52315,1,0,3:2:0:0:
132,156,52482,1,10,2:2:0:0:
67,232,52815,2,0,L|82:281,1,50,2|2,3:2|3:2,0:0:0:0:
47,316,53149,1,10,2:2:0:0:
125,378,53482,6,0,P|175:379|218:344,1,99.9999999999999,6|10,3:2|2:2,0:0:0:0:
263,352,53982,2,0,P|288:309|280:254,1,99.9999999999999,0|0,3:2|3:2,0:0:0:0:
239,236,54482,1,8,2:2:0:0:
214,139,54815,2,0,P|260:153|305:176,1,99.9999999999999,6|8,3:2|2:2,0:0:0:0:
327,131,55315,2,0,P|362:96|405:70,1,99.9999999999999,2|0,3:2|3:2,0:0:0:0:
445,99,55815,1,8,2:2:0:0:
458,198,56149,5,10,2:2:0:0:
381,261,56482,1,0,3:2:0:0:
381,261,56649,1,10,2:2:0:0:
416,360,56982,1,0,3:2:0:0:
416,360,57149,1,10,2:2:0:0:
493,296,57482,1,6,3:2:0:0:
255,358,58815,6,0,B|243:315|243:315|260:280|245:242,1,99.9999999999999,6|10,3:2|2:2,0:0:0:0:
214,219,59315,1,2,2:2:0:0:
120,277,59649,2,0,P|88:264|61:252,1,50,2|10,3:2|2:2,0:0:0:0:
19,266,59982,2,0,P|-5:223|20:166,1,99.9999999999999,2|0,3:2|3:2,0:0:0:0:
53,144,60482,1,10,2:2:0:0:
61,34,60815,2,0,P|83:43|107:53,1,50,2|0,3:2|3:2,0:0:0:0:
158,74,61149,1,10,2:2:0:0:
138,182,61482,6,0,P|160:191|184:201,1,50,6|0,3:2|0:0,0:0:0:0:
226,245,61815,1,10,2:2:0:0:
226,245,61982,2,0,P|278:235|330:214,1,99.9999999999999,2|0,2:2|3:2,0:0:0:0:
334,164,62482,2,0,P|346:130|354:108,1,50,10|0,2:2|0:0,0:0:0:0:
393,82,62815,1,0,3:2:0:0:
476,153,63149,2,0,P|485:210|452:254,1,99.9999999999999,10|2,2:2|3:2,0:0:0:0:
413,253,63649,1,0,3:2:0:0:
413,253,63815,1,10,2:2:0:0:
342,338,64149,6,0,P|295:349|241:377,1,99.9999999999999,6|10,3:2|2:2,0:0:0:0:
198,349,64649,1,2,2:2:0:0:
93,315,64982,2,0,L|103:261,1,50,2|8,3:2|2:2,0:0:0:0:
151,241,65315,2,0,P|195:218|244:207,1,99.9999999999999,2|0,3:2|3:2,0:0:0:0:
284,169,65815,1,10,2:2:0:0:
378,111,66149,2,0,L|368:57,1,50,2|0,3:2|3:2,0:0:0:0:
321,33,66482,1,10,2:2:0:0:
224,86,66815,6,0,P|189:73|160:65,1,50,6|0,3:2|0:0,0:0:0:0:
134,42,67149,1,10,2:2:0:0:
134,42,67315,2,0,P|81:60|35:70,1,99.9999999999999,2|0,2:2|3:2,0:0:0:0:
11,118,67815,2,0,P|24:150|28:180,1,50,10|0,2:2|0:0,0:0:0:0:
1,214,68149,1,2,3:2:0:0:
110,222,68482,1,10,2:2:0:0:
66,322,68815,1,2,3:2:0:0:
158,381,69149,1,10,2:2:0:0:
206,282,69482,6,0,P|257:262|314:255,1,99.9999999999999,6|10,3:2|2:2,0:0:0:0:
350,281,69982,1,2,2:2:0:0:
365,172,70315,2,0,P|353:133|340:107,1,50,2|8,3:2|2:2,0:0:0:0:
360,70,70649,2,0,P|415:58|452:89,1,99.9999999999999,2|0,3:2|3:2,0:0:0:0:
448,136,71149,1,10,2:2:0:0:
506,229,71482,1,2,3:2:0:0:
429,307,71815,1,10,2:2:0:0:
338,244,72149,6,0,P|282:263|240:300,1,99.9999999999999,6|10,3:2|2:2,0:0:0:0:
197,271,72649,1,2,2:2:0:0:
127,355,72982,2,0,L|72:340,1,50,2|8,3:2|2:2,0:0:0:0:
33,373,73315,2,0,P|19:316|4:257,1,99.9999999999999,6|0,3:2|3:2,0:0:0:0:
36,228,73815,1,8,2:2:0:0:
93,134,74149,2,0,L|74:73,1,50,2|0,3:2|0:0,0:0:0:0:
101,36,74482,1,8,2:2:0:0:
203,75,74815,5,6,3:2:0:0:
292,10,75149,1,0,3:2:0:0:
292,10,75315,1,10,2:2:0:0:
389,62,75649,2,0,L|376:112,1,50,2|8,3:2|2:2,0:0:0:0:
346,156,75982,2,0,B|294:154|294:154|247:181,1,99.9999999999999,6|0,3:2|0:0,0:0:0:0:
199,162,76482,1,8,2:2:0:0:
116,234,76815,2,0,L|129:284,1,50,2|2,3:2|3:2,0:0:0:0:
175,321,77149,1,10,2:2:0:0:
175,321,77315,6,0,P|222:304|287:291,1,99.9999999999999,6|0,3:2|0:0,0:0:0:0:
315,324,77815,1,8,2:2:0:0:
393,246,78149,2,0,P|385:213|372:191,1,50,0|0,3:2|3:2,0:0:0:0:
393,146,78482,1,8,2:2:0:0:
297,92,78815,2,0,P|255:76|238:72,2,50,0|0|8,3:2|0:0|2:2,0:0:0:0:
344,62,79315,1,0,3:2:0:0:
344,62,79482,2,0,P|386:46|403:42,1,50,10|0,2:2|3:2,0:0:0:0:
424,1,79815,1,10,2:2:0:0:
493,86,80149,6,0,P|495:145|470:181,1,99.9999999999999,6|2,3:2|2:2,0:0:0:0:
428,192,80649,1,2,3:2:0:0:
428,192,80815,2,0,P|388:178|365:172,1,50,8|2,2:2|3:2,0:0:0:0:
305,241,81315,2,0,B|263:210|263:210|213:216,1,99.9999999999999,6|8,3:2|2:2,0:0:0:0:
150,292,81982,1,0,3:2:0:0:
150,292,82149,2,0,P|157:319|169:355,2,50,2|0|10,3:2|3:2|2:2,0:0:0:0:
107,265,82649,6,0,P|90:210|83:155,1,99.9999999999999,6|0,3:2|0:0,0:0:0:0:
51,131,83149,1,8,2:2:0:0:
142,91,83482,2,0,P|136:65|128:40,1,50,0|2,3:2|3:2,0:0:0:0:
161,4,83815,1,8,2:2:0:0:
235,70,84149,2,0,P|283:65|314:27,1,99.9999999999999,6|8,3:2|2:2,0:0:0:0:
413,21,84815,2,0,P|451:27|465:35,1,50,0|2,3:2|2:2,0:0:0:0:
489,73,85149,1,8,2:2:0:0:
406,128,85482,6,0,P|416:169|419:189,1,50,10|0,2:2|3:2,0:0:0:0:
460,212,85815,1,0,3:2:0:0:
460,212,85982,2,0,P|442:262|426:321,1,99.9999999999999,10|0,2:2|3:2,0:0:0:0:
418,358,86482,1,10,2:2:0:0:
418,358,86649,1,6,3:2:0:0:
