osu file format v14

[General]
AudioFilename: audio.mp3
AudioLeadIn: 0
PreviewTime: 57732
Countdown: 0
SampleSet: Soft
StackLeniency: 0.7
Mode: 0
LetterboxInBreaks: 0
WidescreenStoryboard: 0

[Editor]
DistanceSpacing: 0.2
BeatDivisor: 4
GridSize: 8
TimelineZoom: 1.8

[Metadata]
Title:FUN FUN RE-BOOT
TitleUnicode:FUN FUN RE-BOOT
Artist:QUARTET*RE-BOOT!
ArtistUnicode:QUARTET☆RE-BOOT!
Creator:Natsume Shizuku
Version:Love Loading~!
Source:天使☆騒々 RE-BOOT!
Tags:KennethBBG nantokanaru eringiRa 白雪乃愛 谷風天音 小雲雀来海 星河かぐ耶 shirayuki noa tanikaze amane kohibari kurumi hoshikawa kaguya visual novel vn eroge yuzusoft op opening video game vgm pop angelic chaos angelic*chaos 天使*囂囂 天使*嚣嚣 female vocal jpop j-pop japanese tenshi souzou reboot
BeatmapID:4066122
BeatmapSetID:1961925

[Difficulty]
HPDrainRate:6
CircleSize:4
OverallDifficulty:8.6
ApproachRate:9.2
SliderMultiplier:1.73
SliderTickRate:1

[Events]
//Background and Video events
0,0,"ilovefumika.png",0,0
//Break Periods
//Storyboard Layer 0 (Background)
//Storyboard Layer 1 (Fail)
//Storyboard Layer 2 (Pass)
//Storyboard Layer 3 (Foreground)
//Storyboard Layer 4 (Overlay)
//Storyboard Sound Samples

[TimingPoints]
2816,333.333333333333,4,2,1,70,1,0
5148,-80,4,2,1,70,0,0
5482,-100,4,2,1,70,0,0
7315,-90.9090909090909,4,2,1,70,0,0
7981,-95.2380952380952,4,2,1,70,0,0
10481,-142.857142857143,4,2,1,70,0,0
10815,-80,4,2,1,90,0,0
13815,-100,4,2,1,90,0,0
14648,-90.9090909090909,4,2,1,90,0,0
15148,-90.9090909090909,4,2,1,90,0,0
17315,-83.3333333333333,4,2,1,90,0,0
21482,-100,4,2,1,50,0,0
21815,-166.666666666667,4,2,1,50,0,0
23981,-100,4,2,1,50,0,0
24481,-166.666666666667,4,2,1,50,0,0
25315,-100,4,2,1,50,0,0
27148,-166.666666666667,4,2,1,50,0,0
29315,-100,4,2,1,50,0,0
29815,-166.666666666667,4,2,1,50,0,0
30648,-100,4,2,1,50,0,0
31982,-100,4,2,1,60,0,0
42649,-133.333333333333,4,2,1,55,0,0
47981,-117.647058823529,4,2,1,55,0,0
50815,-100,4,2,1,65,0,0
53482,-83.3333333333333,4,2,1,70,0,0
56149,-83.3333333333333,4,2,1,80,0,0
58481,-111.111111111111,4,2,1,80,0,0
58815,-80,4,2,1,90,0,1
62315,-80,4,2,2,90,0,1
62815,-80,4,2,1,90,0,1
63899,-100,4,2,1,5,0,1
63982,-80,4,2,1,90,0,1
67649,-80,4,2,2,90,0,1
68482,-80,4,2,1,90,0,1
72149,-71.4285714285714,4,2,1,90,0,1
73815,-86.9565217391304,4,2,1,90,0,1
74815,-80,4,2,1,90,0,1
77315,-83.3333333333333,4,2,1,90,0,1
81315,-90.9090909090909,4,2,1,90,0,1
82649,-83.3333333333333,4,2,1,90,0,0
86649,-71.4285714285714,4,2,1,90,0,0
87315,-100,4,2,1,5,0,0

[Colours]
Combo1 : 236,140,215
Combo2 : 255,241,166
Combo3 : 255,193,255
Combo4 : 182,160,245
Combo5 : 163,163,163
Combo6 : 182,254,254
Combo7 : 157,251,159
Combo8 : 235,202,244

[HitObjects]
152,189,4982,6,0,P|140:169|124:154,1,43.25,0|0,3:2|0:2,0:2:0:0:
12,212,5149,6,0,B|47:201|55:163|55:163|117:170|124:215,1,162.1875,10|0,0:2|0:2,0:2:0:0:
72,289,5482,5,2,3:2:0:0:
301,285,5649,1,2,0:2:0:0:
123,214,5815,1,10,0:2:0:0:
172,384,5982,6,0,P|198:293|238:213,1,173,6|10,3:2|2:2,0:2:0:0:
457,184,6482,1,2,0:2:0:0:
339,323,6649,5,2,3:2:0:0:
336,302,6732,1,0,3:2:0:0:
331,278,6815,5,6,0:2:0:0:
499,78,6982,1,2,0:2:0:0:
436,260,7149,1,10,2:2:0:0:
252,89,7315,6,0,P|321:101|396:139,1,142.725004355621,6|0,3:2|0:2,0:2:0:0:
500,167,7649,6,0,P|479:171|451:189,1,47.5750014518738,10|0,0:2|0:2,0:2:0:0:
414,301,7815,2,0,P|427:284|437:252,1,47.5750014518738,10|0,0:2|0:2,0:2:0:0:
417,60,7982,6,0,B|367:22|310:50|304:100|311:107|317:112|284:163|234:173|193:133,1,272.474991684723,6|0,3:2|3:2,0:2:0:0:
91,12,8649,2,0,P|131:41|181:53,1,90.8249972282411,8|0,2:2|0:2,0:2:0:0:
0,152,8982,2,0,P|48:144|92:117,1,90.8249972282411,8|0,2:2|0:2,0:2:0:0:
187,44,9315,6,0,P|185:24|170:0,1,45.4124986141205,8|0,2:2|0:2,0:2:0:0:
326,243,10315,5,0,3:2:0:0:
328,251,10399,1,0,3:2:0:0:
330,260,10482,2,0,B|370:243|370:243|391:245|391:245|429:231,1,90.8249972282411,4|0,3:2|0:2,0:2:0:0:
472,173,10815,6,0,B|497:123|435:81|398:103|398:103|409:120|409:138,1,162.1875,10|0,0:2|0:2,0:2:0:0:
404,140,11149,2,0,P|351:148|310:113,1,108.125,0|2,3:2|0:2,0:2:0:0:
346,33,11399,1,0,3:2:0:0:
349,43,11482,1,0,3:2:0:0:
223,117,11649,1,0,0:2:0:0:
57,21,11815,1,8,2:2:0:0:
223,9,11982,6,0,P|203:91|168:224,1,216.25,6|2,3:2|0:2,0:2:0:0:
10,343,12482,1,2,3:2:0:0:
236,284,12649,1,2,0:2:0:0:
70,175,12815,5,0,3:2:0:0:
169,218,12982,1,0,3:2:0:0:
132,361,13149,2,0,L|117:300,1,54.0625,8|0,0:2|0:2,0:2:0:0:
305,88,13315,6,0,B|360:73|402:122|395:170|350:195|350:195|340:172|303:162,1,216.25,6|2,3:2|0:2,0:2:0:0:
136,110,13815,2,0,P|172:138|218:139,1,86.5,10|0,0:2|0:2,0:2:0:0:
234,59,14065,1,0,3:2:0:0:
231,50,14149,1,0,3:2:0:0:
43,72,14315,6,0,P|29:96|31:130,1,43.25,0|0,3:2|0:2,0:2:0:0:
90,161,14482,2,0,P|114:147|129:116,1,43.25,10|0,2:2|0:2,0:2:0:0:
29,0,14649,6,0,P|60:76|85:195,1,190.300005807495,0|0,3:2|0:2,0:2:0:0:
270,280,15149,2,0,P|319:274|346:225,1,95.1500029037476,10|0,0:2|0:2,0:2:0:0:
170,209,15482,5,2,3:2:0:0:
58,343,15649,1,0,3:2:0:0:
270,196,15815,1,10,2:2:0:0:
161,4,15982,6,0,B|224:24|224:24|251:57|251:57|329:81,1,190.300005807495,6|0,3:2|0:2,0:2:0:0:
507,196,16482,2,0,P|459:211|424:243,1,95.1500029037476,8|0,0:2|0:2,0:2:0:0:
370,13,16815,5,2,3:2:0:0:
468,77,16982,1,0,3:2:0:0:
345,195,17149,1,8,2:2:0:0:
457,337,17315,6,0,B|479:302|467:259|424:250|419:256|415:260|376:233|371:200|399:166,1,207.599993664551,4|0,3:2|0:2,0:2:0:0:
512,148,17815,2,0,P|514:177|493:205,1,51.8999984161377,8|0,0:2|0:2,0:2:0:0:
354,336,17982,6,0,P|257:300|144:296,1,207.599993664551,4|2,3:2|3:2,0:2:0:0:
49,372,18482,2,0,P|9:340|1:290,1,103.799996832275,10|2,0:2|0:2,0:2:0:0:
164,147,18815,5,4,3:2:0:0:
75,11,18982,1,0,0:2:0:0:
225,10,19149,1,8,0:2:0:0:
23,150,19315,1,0,3:2:0:0:
41,159,19649,5,0,3:2:0:0:
224,28,19815,1,8,0:2:0:0:
161,332,19982,6,0,P|175:273|127:178,1,155.699995248413,6|0,3:2|0:2,0:2:0:0:
60,165,20315,6,0,P|73:136|95:120,1,51.8999984161377,10|0,0:2|0:2,0:2:0:0:
202,192,20482,2,0,P|177:184|151:188,1,51.8999984161377,10|0,0:2|0:2,0:2:0:0:
81,369,20649,1,6,3:2:0:0:
341,340,21482,102,0,P|310:310|302:268,1,86.5,2|0,3:2|0:2,0:2:0:0:
366,174,21815,2,0,P|395:224|416:277,1,103.799996832275,10|2,0:2|3:2,0:2:0:0:
459,351,22315,1,2,3:2:0:0:
341,340,22482,1,8,0:2:0:0:
487,230,22649,54,0,P|466:182|440:137,1,103.799996832275,2|0,3:2|0:2,0:2:0:0:
512,31,23149,1,10,0:2:0:0:
512,31,23482,1,2,3:2:0:0:
418,63,23649,1,2,3:2:0:0:
301,5,23815,1,8,0:2:0:0:
486,1,23982,54,0,P|457:68|430:181,1,173,2|0,3:2|0:2,0:2:0:0:
318,184,24482,2,0,P|272:153|267:109,1,103.799996832275,10|2,0:2|3:2,0:2:0:0:
408,53,24982,1,2,3:2:0:0:
444,157,25149,1,8,0:2:0:0:
249,89,25315,54,0,P|178:39|87:44,1,173,6|0,3:2|0:2,0:2:0:0:
22,7,25815,2,0,P|11:34|15:63,1,43.25,8|0,0:2|0:2,0:2:0:0:
57,221,25982,54,0,B|47:138|137:159|116:66,1,173,4|0,3:2|0:2,0:2:0:0:
0,64,26482,2,0,P|3:92|21:115,1,43.25,8|0,0:2|0:2,0:2:0:0:
157,238,26649,6,0,P|72:248|5:310,1,173,6|0,3:2|0:2,0:2:0:0:
159,363,27149,2,0,P|203:349|217:288,1,103.799996832275,10|2,0:2|3:2,0:2:0:0:
126,244,27649,1,2,3:2:0:0:
73,362,27815,1,8,0:2:0:0:
271,237,27982,54,0,P|254:189|206:174,1,103.799996832275,2|0,3:2|0:2,0:2:0:0:
83,87,28482,1,10,0:2:0:0:
83,87,28815,1,2,3:2:0:0:
187,89,28982,1,2,3:2:0:0:
294,19,29149,1,8,0:2:0:0:
126,9,29315,54,0,P|160:84|186:181,1,173,2|0,3:2|0:2,0:2:0:0:
100,235,29815,2,0,P|52:221|37:173,1,103.799996832275,10|2,0:2|3:2,0:2:0:0:
264,89,30315,1,2,3:2:0:0:
176,182,30482,1,8,0:2:0:0:
0,18,30649,54,0,B|53:15|68:56|49:69|68:115|120:121,1,173,6|0,3:2|0:2,0:2:0:0:
181,63,31149,2,0,P|161:48|135:40,1,43.25,8|0,0:2|0:2,0:2:0:0:
7,185,31315,54,0,P|86:216|159:269,1,173,4|0,3:2|0:2,0:2:0:0:
154,142,31815,2,0,P|137:128|117:120,1,43.25,8|0,0:2|0:2,0:2:0:0:
225,334,31982,6,0,P|305:307|312:225,1,173,6|2,3:2|0:2,0:2:0:0:
154,142,32482,1,10,0:2:0:0:
357,148,32649,1,2,3:2:0:0:
357,148,32732,1,0,3:2:0:0:
357,148,32815,1,2,3:2:0:0:
224,215,32982,2,0,P|243:166|264:129,1,86.5,2|8,0:2|0:2,0:2:0:0:
486,174,33315,54,0,P|445:251|420:341,1,173,2|0,3:2|0:2,0:2:0:0:
184,350,33815,2,0,L|275:324,1,86.5,10|0,2:2|0:2,0:2:0:0:
426,225,34149,1,2,3:2:0:0:
352,377,34315,1,2,3:2:0:0:
352,377,34399,1,0,3:2:0:0:
352,377,34482,1,8,2:2:0:0:
167,333,34649,54,0,P|133:253|187:182,1,173,2|0,3:2|0:2,0:2:0:0:
391,105,35149,2,0,L|372:190,1,86.5,10|0,2:2|0:2,0:2:0:0:
174,40,35482,1,2,3:2:0:0:
273,148,35649,1,2,3:2:0:0:
273,148,35732,1,0,3:2:0:0:
273,148,35815,1,8,2:2:0:0:
61,260,35982,54,0,B|50:162|119:200|114:96,1,173,6|0,3:2|0:2,0:2:0:0:
41,39,36482,2,0,B|21:58|23:86,1,43.25,8|0,2:2|0:2,0:2:0:0:
0,345,36649,54,0,P|66:291|149:300,1,173,4|2,3:2|2:2,0:2:0:0:
219,362,37149,2,0,P|195:380|168:387,1,43.25,10|0,0:0|0:0,0:0:0:0:
325,171,37315,6,0,P|345:259|382:351,1,173,6|0,3:2|0:2,0:2:0:0:
512,162,37815,2,0,P|470:174|428:192,1,86.5,10|0,2:2|0:2,0:2:0:0:
261,281,38149,53,2,3:2:0:0:
175,215,38315,1,2,2:2:0:0:
389,120,38482,1,10,2:2:0:0:
301,34,38649,54,8,B|319:129|237:101|257:199,1,173,6|2,3:2|2:2,0:2:0:0:
62,59,39149,2,0,P|112:80|155:91,1,86.5,10|2,2:2|2:2,0:2:0:0:
175,215,39482,53,2,3:2:0:0:
75,155,39649,1,2,3:2:0:0:
220,52,39815,1,10,2:2:0:0:
83,258,39982,54,0,P|169:248|227:315,1,173,6|0,3:2|0:2,0:2:0:0:
462,369,40482,2,0,P|452:314|442:262,1,86.5,8|0,2:2|0:2,0:2:0:0:
279,203,40815,1,0,3:2:0:0:
384,160,40982,2,0,P|372:208|365:249,1,86.5,0|8,3:2|2:2,0:2:0:0:
280,22,41315,2,0,B|309:30|337:36|337:36|364:63|364:63|403:68|448:85,1,173,0|0,3:2|0:2,0:2:0:0:
212,124,41815,6,0,P|158:85|95:100,1,129.75,10|0,2:2|0:2,0:2:0:0:
96,129,42149,1,2,3:2:0:0:
0,91,42315,1,0,3:2:0:0:
102,235,42482,1,10,2:2:0:0:
1,373,42649,6,0,P|58:332|128:345,1,129.75000494957,6|2,3:2|2:2,0:2:0:0:
195,288,43149,2,0,P|203:319|215:349,1,64.8750024747849,2|2,2:2|3:2,0:2:0:0:
379,278,43482,1,10,2:2:0:0:
311,362,43649,2,0,P|299:330|288:300,1,64.8750024747849,2|0,2:2|0:2,0:2:0:0:
452,234,43982,6,0,P|389:238|350:190,1,129.75000494957,2|10,3:2|2:2,0:2:0:0:
419,133,44482,2,0,P|456:121|495:116,1,64.8750024747849,2|2,2:2|3:2,0:2:0:0:
254,5,44815,2,0,B|247:75|301:59|286:144,1,129.75000494957,10|2,2:2|2:2,0:2:0:0:
217,256,45315,6,0,P|166:230|82:220,1,129.75000494957,2|8,3:2|2:2,0:2:0:0:
0,357,45815,1,2,2:2:0:0:
99,366,45982,2,0,P|88:333|77:294,1,64.8750024747849,2|10,3:2|2:2,0:2:0:0:
0,198,46315,1,2,3:2:0:0:
0,198,46399,1,0,3:2:0:0:
0,198,46482,1,2,3:2:0:0:
84,56,46649,6,0,P|134:101|202:96,1,129.75000494957,2|8,3:2|2:2,0:2:0:0:
309,37,47149,2,0,P|270:26|225:7,1,64.8750024747849,2|0,2:2|3:2,0:2:0:0:
392,232,47482,1,10,2:2:0:0:
296,179,47649,1,0,3:2:0:0:
462,115,47815,1,10,2:2:0:0:
244,254,47982,6,0,B|240:172|287:197|278:111,1,147.050002804756,6|2,3:2|3:2,0:2:0:0:
98,209,48482,2,0,B|134:196|177:188,1,73.5250014023781,2|2,2:2|3:2,0:2:0:0:
267,381,48815,1,10,2:2:0:0:
350,297,48982,1,2,2:2:0:0:
350,297,49315,6,0,P|289:262|208:276,1,147.050002804756,2|8,3:2|2:2,0:2:0:0:
82,377,49815,2,0,P|70:337|56:301,1,73.5250014023781,2|0,2:2|0:2,0:2:0:0:
157,173,50149,1,10,2:2:0:0:
4,52,50315,1,0,3:2:0:0:
4,52,50399,1,0,3:2:0:0:
4,52,50482,2,0,P|63:60|102:107,1,110.287502103567,10|0,2:2|0:2,0:2:0:0:
157,173,50815,6,0,P|174:118|195:81,1,86.5,6|0,3:2|0:2,0:2:0:0:
294,274,51149,1,10,2:2:0:0:
360,218,51315,2,0,P|340:154|322:126,1,86.5,2|0,2:2|3:2,0:2:0:0:
65,170,51649,1,2,3:2:0:0:
219,241,51815,1,10,2:2:0:0:
70,384,51982,6,0,B|69:284|127:324|132:218,1,173,2|0,3:2|3:2,0:2:0:0:
2,50,52482,2,0,P|39:74|89:85,1,86.5,10|0,2:2|0:2,0:2:0:0:
281,3,52815,2,0,P|262:44|252:87,1,86.5,2|2,3:2|3:2,0:2:0:0:
296,251,53149,5,10,2:2:0:0:
170,124,53315,1,0,3:2:0:0:
170,124,53399,1,0,3:2:0:0:
170,124,53482,2,0,P|244:117|301:177,1,155.699995248413,6|0,3:2|0:2,0:2:0:0:
296,251,53815,1,10,0:0:0:0:
492,138,53982,6,0,P|471:191|458:247,1,103.799996832275,0|0,3:2|3:2,0:2:0:0:
281,3,54315,1,0,3:2:0:0:
375,209,54482,2,0,P|387:159|407:111,1,103.799996832275,8|0,2:2|0:2,0:2:0:0:
57,89,54815,5,6,3:2:0:0:
209,208,54982,1,0,0:2:0:0:
16,346,55149,1,8,2:2:0:0:
84,299,55315,6,0,B|75:194|153:206|143:76,1,207.599993664551,2|0,3:2|3:2,0:2:0:0:
442,39,55815,1,8,2:2:0:0:
307,196,55982,1,0,3:2:0:0:
307,196,56065,1,0,3:2:0:0:
307,196,56149,5,10,2:2:0:0:
197,54,56315,1,0,0:2:0:0:
477,175,56482,1,0,3:2:0:0:
233,251,56649,5,10,2:2:0:0:
363,90,56815,1,0,3:2:0:0:
57,167,56982,1,0,3:2:0:0:
310,358,57149,6,0,P|304:330|295:297,1,51.8999984161377,10|0,2:2|0:2,0:2:0:0:
267,17,57315,2,0,P|274:47|279:67,1,51.8999984161377,0|0,3:2|0:2,0:2:0:0:
298,143,57482,5,6,3:2:0:0:
102,84,58315,5,0,3:2:0:0:
102,84,58399,1,0,3:2:0:0:
102,84,58482,2,0,B|136:105|146:142|146:142|127:119|94:115,1,116.77499643631,10|0,2:2|0:2,0:2:0:0:
79,197,58815,6,0,B|143:179|143:179|192:201|192:201|264:185,1,162.1875,6|0,3:2|0:2,0:2:0:0:
281,122,59149,1,10,2:2:0:0:
449,360,59315,2,0,P|459:304|482:253,1,108.125,2|0,2:2|3:2,0:2:0:0:
495,84,59649,1,2,3:2:0:0:
316,201,59815,1,10,2:2:0:0:
162,21,59982,6,0,B|262:42|202:109|301:126,1,162.1875,2|0,3:2|0:2,0:2:0:0:
290,117,60315,1,0,3:2:0:0:
420,0,60482,2,0,P|396:51|386:106,1,108.125,10|0,2:2|0:2,0:2:0:0:
497,334,60815,1,2,3:2:0:0:
352,179,60982,1,0,3:2:0:0:
183,376,61149,2,0,P|251:335|350:299,1,162.1875,10|0,2:2|0:2,0:2:0:0:
409,336,61482,5,6,3:2:0:0:
491,107,61649,1,0,0:2:0:0:
352,179,61815,1,10,2:2:0:0:
196,11,61982,2,0,P|249:35|301:52,1,108.125,2|0,2:2|3:2,0:2:0:0:
0,161,62315,5,2,3:2:0:0:
176,102,62482,1,10,2:2:0:0:
109,199,62649,1,2,3:2:0:0:
109,199,62732,1,0,3:2:0:0:
109,199,62815,2,0,P|91:145|66:90,1,108.125,0|0,3:2|0:2,0:2:0:0:
366,365,63149,5,10,2:2:0:0:
180,256,63315,1,0,0:2:0:0:
432,263,63482,5,2,3:2:0:0:
98,336,63649,1,0,3:2:0:0:
263,381,63815,6,0,L|245:317,1,54.0625,10|0,2:2|0:2,0:2:0:0:
276,167,63982,5,0,3:2:0:0:
276,167,64065,1,0,3:2:0:0:
276,167,64149,2,0,B|310:119|368:144|385:190|385:190|365:198|358:217,1,162.1875,6|0,3:2|0:2,0:2:0:0:
432,263,64482,1,10,2:2:0:0:
501,57,64649,2,0,P|478:111|456:180,1,108.125,2|0,2:2|3:2,0:2:0:0:
347,282,64982,1,2,3:2:0:0:
213,108,65149,1,8,2:2:0:0:
38,322,65315,6,0,B|156:299|69:216|201:183,1,216.25,2|0,3:2|3:2,0:2:0:0:
276,361,65815,2,0,P|259:306|224:255,1,108.125,10|0,2:2|0:2,0:2:0:0:
446,141,66149,1,2,3:2:0:0:
246,18,66315,1,0,3:2:0:0:
312,168,66482,2,0,P|329:113|364:62,1,108.125,10|0,2:2|0:2,0:2:0:0:
493,384,66815,6,0,B|442:370|442:370|416:342|416:342|324:311,1,162.1875,6|0,3:2|0:2,0:2:0:0:
276,361,67149,1,10,2:2:0:0:
468,261,67315,5,2,3:2:0:0:
463,269,67399,1,0,3:2:0:0:
458,277,67482,1,0,3:2:0:0:
404,115,67649,5,2,3:2:0:0:
219,172,67815,1,10,2:2:0:0:
276,361,67982,1,2,0:2:0:0:
367,245,68149,5,2,3:2:0:0:
367,245,68482,6,0,B|346:192|295:196|295:196|286:237|238:247,1,162.1875,10|0,2:2|0:2,0:2:0:0:
240,241,68815,2,0,P|196:195|205:145,1,108.125,2|0,3:2|0:2,0:2:0:0:
503,64,69149,1,10,2:2:0:0:
365,8,69315,5,0,3:2:0:0:
365,8,69399,1,0,3:2:0:0:
365,8,69482,2,0,P|401:90|422:172,1,162.1875,6|0,3:2|0:2,0:2:0:0:
462,236,69815,1,10,2:2:0:0:
292,63,69982,2,0,P|315:113|329:169,1,108.125,2|0,2:2|3:2,0:2:0:0:
168,379,70315,1,2,3:2:0:0:
374,240,70482,1,8,2:2:0:0:
115,311,70649,6,0,B|154:241|219:279|219:279|228:343|289:347,1,216.25,2|0,3:2|3:2,0:2:0:0:
461,285,71149,2,0,P|478:234|512:192,1,108.125,10|0,2:2|0:2,0:2:0:0:
306,25,71482,1,2,3:2:0:0:
470,103,71649,1,0,3:2:0:0:
319,203,71815,2,0,P|352:160|370:110,1,108.125,10|0,2:2|0:2,0:2:0:0:
46,90,72149,6,0,B|88:29|141:56|141:56|148:102|186:116,1,181.649994456482,6|0,3:2|0:2,0:2:0:0:
228,39,72482,1,10,2:2:0:0:
79,176,72649,2,0,P|106:245|137:307,1,121.099996304321,2|0,2:2|3:2,0:2:0:0:
351,288,72982,5,2,3:2:0:0:
271,114,73149,1,8,2:2:0:0:
69,352,73315,1,6,3:2:0:0:
69,352,73649,5,0,3:2:0:0:
154,137,73815,2,0,P|173:187|202:245,1,99.4750018973351,8|0,2:2|0:2,0:2:0:0:
308,379,74149,5,2,3:2:0:0:
308,379,74232,1,0,3:2:0:0:
308,379,74315,1,0,3:2:0:0:
495,258,74482,1,8,2:2:0:0:
298,176,74649,1,0,0:2:0:0:
372,291,74815,6,0,P|398:197|430:117,1,162.1875,6|0,3:2|0:2,0:2:0:0:
431,132,75149,1,0,3:2:0:0:
286,270,75315,2,0,P|235:252|208:198,1,108.125,10|0,2:2|0:2,0:2:0:0:
331,77,75649,1,2,3:2:0:0:
114,227,75815,1,8,2:2:0:0:
83,15,75982,6,0,P|168:54|269:153,1,216.25,6|0,3:2|0:2,0:2:0:0:
141,322,76482,2,0,P|107:272|123:216,1,108.125,8|0,2:2|0:2,0:2:0:0:
429,155,76815,1,2,3:2:0:0:
331,104,76982,1,2,3:2:0:0:
201,253,77149,1,10,2:2:0:0:
389,371,77315,6,0,B|410:253|293:293|328:170,1,207.599993664551,6|0,3:2|0:2,0:2:0:0:
65,26,77815,2,0,P|86:80|103:140,1,103.799996832275,8|0,2:2|0:2,0:2:0:0:
201,253,78149,1,0,3:2:0:0:
29,202,78315,1,0,3:2:0:0:
222,61,78482,1,8,2:2:0:0:
162,177,78649,5,0,3:2:0:0:
164,166,78732,1,0,3:2:0:0:
166,155,78815,5,0,3:2:0:0:
226,358,78982,1,0,0:2:0:0:
402,72,79149,5,8,2:2:0:0:
342,281,79315,1,0,3:2:0:0:
57,130,79482,5,10,2:2:0:0:
268,179,79649,1,0,3:2:0:0:
479,228,79815,1,10,2:2:0:0:
479,228,80149,6,0,B|435:219|403:247|418:261|383:295|337:280,1,155.699995248413,6|0,3:2|0:2,0:2:0:0:
342,281,80482,1,2,2:2:0:0:
232,377,80649,1,2,3:2:0:0:
353,194,80815,1,8,2:2:0:0:
227,291,80982,1,2,3:2:0:0:
227,291,81315,6,0,P|200:210|164:160,1,142.725004355621,6|0,3:2|0:2,0:2:0:0:
131,89,81649,2,0,P|79:105|59:146,1,95.1500029037476,8|0,2:2|0:2,0:2:0:0:
240,67,81982,5,0,3:2:0:0:
240,67,82065,1,0,3:2:0:0:
240,67,82149,1,2,3:2:0:0:
103,212,82315,1,0,3:2:0:0:
46,22,82482,1,10,2:2:0:0:
167,163,82649,6,0,B|190:87|264:106|264:106|261:153|307:176,1,207.599993664551,6|0,3:2|0:2,0:2:0:0:
485,0,83149,2,0,P|468:49|448:96,1,103.799996832275,8|0,2:2|0:2,0:2:0:0:
508,339,83482,5,0,3:2:0:0:
369,211,83649,1,2,3:2:0:0:
422,383,83815,1,8,2:2:0:0:
456,180,83982,1,0,0:2:0:0:
285,317,84149,6,0,P|212:285|137:270,1,155.699995248413,6|0,3:2|0:2,0:2:0:0:
57,298,84482,2,0,P|48:351|82:386,1,103.799996832275,8|0,2:2|0:2,0:2:0:0:
198,202,84815,5,0,3:2:0:0:
33,113,84982,1,2,2:2:0:0:
238,30,85149,5,8,2:2:0:0:
80,213,85315,1,0,3:2:0:0:
420,366,85482,5,10,2:2:0:0:
283,123,85649,1,0,3:2:0:0:
512,232,85815,1,0,3:2:0:0:
154,380,85982,5,10,2:2:0:0:
148,359,86315,5,0,3:2:0:0:
142,338,86399,1,0,3:2:0:0:
136,317,86482,1,10,2:2:0:0:
434,150,86649,6,0,B|527:154|568:61|511:-44|399:-48|322:41|307:130|447:144|433:145|427:172|445:221|399:242,1,484.399985217286,6|0,3:2|0:2,0:2:0:0:
